osu file format v14

[General]
AudioFilename: Intoxicados - Nunca Quise.mp3
AudioLeadIn: 0
PreviewTime: 17927
Countdown: 0
SampleSet: Soft
StackLeniency: 0.7
Mode: 0
LetterboxInBreaks: 1
WidescreenStoryboard: 1

[Editor]
Bookmarks: 26698,34834,54156,58224,83647,99919,119241,123308,190935,219856
DistanceSpacing: 0.9
BeatDivisor: 4
GridSize: 4
TimelineZoom: 0.6999998

[Metadata]
Title:Nunca Quise
TitleUnicode:Nunca Quise
Artist:Intoxicados
ArtistUnicode:Intoxicados
Creator:Manuxz
Version:Facil
Source:
Tags:Pity Alvarez Rock Argentino Otro dia en el planeta Tierra
BeatmapID:674088
BeatmapSetID:298565

[Difficulty]
HPDrainRate:2
CircleSize:2
OverallDifficulty:3
ApproachRate:3
SliderMultiplier:1.1
SliderTickRate:2

[Events]
//Background and Video events
0,0,"BG.jpg",0,0
//Break Periods
//Storyboard Layer 0 (Background)
//Storyboard Layer 1 (Fail)
//Storyboard Layer 2 (Pass)
//Storyboard Layer 3 (Foreground)
//Storyboard Sound Samples

[TimingPoints]
258,508.474576271186,4,2,1,75,1,0
12461,-100,4,2,1,10,0,0
13224,-100,4,2,1,15,0,0
13986,-100,4,2,1,20,0,0
14749,-100,4,2,1,25,0,0
15512,-100,4,2,1,30,0,0
15766,-100,4,2,1,35,0,0
16020,-100,4,2,1,40,0,0
16274,-100,4,2,1,45,0,0
16529,-100,4,2,1,50,0,0
16783,-100,4,2,1,55,0,0
17037,-100,4,2,1,60,0,0
17291,-100,4,2,1,65,0,0
17546,-100,4,2,1,70,0,0
51105,-100,4,2,1,75,0,1
66359,-100,4,2,1,75,0,0
98647,-100,4,3,1,75,0,0
99410,-100,4,2,1,75,0,0
116190,-100,4,2,1,75,0,1
131952,-100,4,2,1,75,0,0
150766,-100,4,2,1,50,0,1
167037,-100,4,2,1,50,0,0

[Colours]
Combo1 : 255,0,0
Combo2 : 128,255,128
Combo3 : 255,128,64
Combo4 : 255,255,128

[HitObjects]
154,278,258,6,0,P|254:317|355:278,1,220,2|2,0:0|0:0,0:0:0:0:
256,108,2291,1,2,0:0:0:0:
256,304,3308,2,0,L|256:194,1,110,2|0,0:0|0:0,0:0:0:0:
343,147,4325,6,0,P|256:91|168:147,1,220,2|2,0:0|0:0,0:0:0:0:
119,339,6359,1,2,0:0:0:0:
317,339,7376,2,0,L|394:261,1,110,2|0,0:0|0:0,0:0:0:0:
394,161,8393,6,0,P|345:68|240:72,1,220,2|2,0:0|0:0,0:0:0:0:
142,69,9919,2,0,P|190:161|294:156,1,220
344,72,11444,1,2,0:0:0:0:
203,212,12461,6,0,L|93:212,2,110,8|8|8,0:0|0:0|0:0,0:0:0:0:
273,282,13986,1,8,0:0:0:0:
343,352,14495,1,8,0:0:0:0:
412,282,15003,1,8,0:0:0:0:
483,211,15512,6,0,L|483:101,2,110,8|8|8,0:0|0:0|0:0,0:0:0:0:
396,260,17037,1,8,0:0:0:0:
308,304,17546,2,0,P|256:319|204:304,1,110,8|8,0:0|0:3,0:0:0:0:
256,220,18563,6,0,L|333:142,1,110,4|8,0:0|0:0,0:0:0:0:
160,48,20088,1,8,0:0:0:0:
90,117,20596,2,0,B|70:177|114:165|90:227,1,110,2|8,0:0|0:0,0:0:0:0:
161,293,21613,2,0,B|217:321|177:343|235:369,1,110,2|8,0:0|0:0,0:0:0:0:
330,352,22630,6,0,P|414:285|420:178,1,220,2|2,0:0|0:0,0:0:0:0:
359,99,24156,2,0,P|310:76|256:75,1,110,8|2,0:0|0:0,0:0:0:0:
80,172,25681,1,2,0:0:0:0:
152,240,26190,1,8,0:0:0:0:
252,236,26698,6,0,P|199:326|94:324,1,220,2|2,0:0|0:0,0:0:0:0:
52,128,28732,2,0,L|129:50,1,110,2|8,0:0|0:0,0:0:0:0:
289,169,30257,1,0,0:0:0:0:
360,240,30766,6,0,L|439:160,2,110,2|8|2,0:0|0:0|0:0,0:0:0:0:
289,169,32291,2,0,B|258:137|258:137|236:126|236:126|204:101,1,110,8|2,0:0|0:0,0:0:0:0:
106,90,33308,2,0,B|52:144|52:144|40:208|88:240|88:240|96:272,1,220,8|8,0:0|0:0,0:0:0:0:
159,351,34834,6,0,P|211:336|248:295,1,110,2|8,0:0|0:0,0:0:0:0:
280,260,35596,2,0,L|291:95,1,165,0|8,0:0|0:0,0:0:0:0:
388,68,36868,2,0,L|380:177,1,110,2|8,0:0|0:0,0:0:0:0:
240,36,38393,1,8,0:0:0:0:
196,128,38902,6,0,L|88:168,1,110,2|8,0:0|0:0,0:0:0:0:
64,208,39664,2,0,P|85:284|158:318,1,165,0|8,0:0|0:0,0:0:0:0:
256,292,40935,1,2,0:0:0:0:
284,96,41952,1,2,0:0:0:0:
376,60,42461,1,8,0:0:0:0:
468,96,42969,6,0,B|468:168|468:168|428:176|408:220|408:220|342:220,1,220,2|2,0:0|0:0,0:0:0:0:
256,268,44495,1,8,0:0:0:0:
174,323,45003,2,0,P|156:271|169:219,1,110,2|8,0:0|0:0,0:0:0:0:
348,134,46529,1,8,0:0:0:0:
400,217,47037,6,0,P|348:232|296:218,1,110,2|8,0:0|0:0,0:0:0:0:
365,32,48563,2,0,B|256:49|256:49|147:32,1,220,8|8,0:0|0:0,0:0:0:0:
61,80,50088,2,0,L|61:190,1,110,2|8,0:0|0:0,0:0:0:0:
134,257,51105,6,0,L|211:334,1,110,4|8,0:0|0:0,0:0:0:0:
369,214,52630,1,8,0:0:0:0:
308,136,53139,2,0,B|268:96|268:96|214:96,1,110,2|8,0:0|0:0,0:0:0:0:
124,136,54156,2,0,L|69:136,2,55,2|0|8,0:0|0:0|0:0,0:0:0:0:
194,206,55173,6,0,B|154:246|154:246|100:246,1,110,2|8,0:0|0:0,0:0:0:0:
9,285,56190,1,2,0:0:0:0:
199,340,57207,2,0,L|309:340,1,110,2|8,0:0|0:0,0:0:0:0:
379,269,58224,2,0,L|417:307,2,55,2|0|8,0:0|0:0|0:0,0:0:0:0:
308,198,59241,6,0,L|230:120,1,110,2|8,0:0|0:0,0:0:0:0:
160,190,60257,2,0,L|82:112,2,110,2|8|2,0:0|0:0|0:0,0:0:0:0:
299,329,62291,2,0,P|350:314|379:268,1,110,2|8,0:0|0:0,0:0:0:0:
379,169,63308,6,0,P|408:123|459:108,1,110,2|8,0:0|0:0,0:0:0:0:
466,208,64325,1,2,0:0:0:0:
406,286,64834,1,8,0:0:0:0:
314,322,65342,2,0,L|205:339,1,110,2|8,0:0|0:0,0:0:0:0:
57,207,66868,1,8,0:0:0:0:
84,112,67376,6,0,L|193:95,1,110,4|8,0:0|0:0,0:0:0:0:
387,129,68902,1,8,0:0:0:0:
416,224,69410,2,0,B|433:279|433:279|416:328,1,110,2|8,0:0|0:0,0:0:0:0:
320,356,70427,2,0,B|273:332|273:332|246:281,1,110,2|8,0:0|0:0,0:0:0:0:
304,200,71444,6,0,P|199:197|145:287,1,220,2|2,0:0|0:0,0:0:0:0:
246,282,72969,2,0,L|182:186,1,110,8|2,0:0|0:0,0:0:0:0:
68,30,74495,1,2,0:0:0:0:
26,119,75003,1,8,0:0:0:0:
68,209,75512,6,0,L|171:171,1,110,2|8,0:0|0:0,0:0:0:0:
144,368,77037,1,8,0:0:0:0:
243,368,77546,2,0,B|275:337|275:337|280:316|280:316|311:283,2,110,2|8|2,0:0|0:0|0:0,0:0:0:0:
58,295,79580,6,0,B|45:232|86:252|77:189,1,110,2|8,0:0|0:0,0:0:0:0:
74,141,80342,2,0,P|116:72|195:54,1,165,0|8,0:0|0:0,0:0:0:0:
265,124,81613,2,0,B|324:101|312:145|372:125,1,110,2|8,0:0|0:0,0:0:0:0:
468,136,82630,2,0,L|456:264,1,110,2|8,0:0|0:0,0:0:0:0:
387,315,83647,6,0,B|347:314|347:314|318:302|318:302|279:302,1,110,4|8,0:0|0:0,0:0:0:0:
230,302,84410,2,0,P|160:263|155:184,1,165,0|8,0:0|0:0,0:0:0:0:
204,99,85681,2,0,L|308:63,1,110,2|8,0:0|0:0,0:0:0:0:
357,72,86444,2,0,B|409:84|409:84|425:156|401:193,1,165,0|8,0:0|0:0,0:0:0:0:
360,280,87715,6,0,B|252:268|252:268|143:295,1,220,2|2,0:0|0:0,0:0:0:0:
50,327,89241,2,0,L|9:217,1,110,8|2,0:0|0:0,0:0:0:0:
92,44,90766,1,2,0:0:0:0:
188,28,91274,1,8,0:0:0:0:
256,100,91783,6,0,P|291:141|300:195,1,110,2|8,0:0|0:0,0:0:0:0:
230,265,92800,2,0,P|239:318|274:360,1,110,2|8,0:0|0:0,0:0:0:0:
328,276,93817,1,2,0:0:0:0:
468,136,94834,2,0,L|384:56,1,110,2|8,0:0|0:0,0:0:0:0:
290,41,95851,6,0,B|231:65|184:48|184:48|166:99|111:131,1,220,2|2,0:0|0:0,0:0:0:0:
96,292,97376,1,8,0:0:0:0:
267,192,98393,1,0,0:0:0:0:
168,196,98902,2,0,L|128:234,2,55,8|8|8,0:0|0:0|0:0,0:0:0:0:
115,112,99919,6,0,L|192:34,1,110,4|8,0:0|0:0,0:0:0:0:
242,34,100681,2,0,B|338:34|338:34|370:34|400:60,1,165,0|8,0:0|0:0,0:0:0:0:
330,130,101952,1,2,0:0:0:0:
328,228,102461,6,0,B|266:223|240:168|240:168|192:160|147:210,1,220,8|8,0:0|0:0,0:0:0:0:
138,315,103986,2,0,P|87:294|55:251,1,110,2|8,0:0|0:0,0:0:0:0:
138,69,105512,2,0,P|87:89|55:133,1,110,8|2,0:0|0:0,0:0:0:0:
208,260,107037,1,2,0:0:0:0:
278,190,107546,1,8,0:0:0:0:
348,260,108054,6,0,P|398:239|431:196,1,110,2|8,0:0|0:0,0:0:0:0:
431,145,108817,2,0,P|390:76|313:53,1,165,0|8,0:0|0:0,0:0:0:0:
228,104,110088,2,0,L|118:104,1,110,2|8,0:0|0:0,0:0:0:0:
82,141,110851,2,0,B|48:208|48:208|48:264|75:291,1,165,0|8,0:0|0:0,0:0:0:0:
164,336,112122,6,0,L|177:226,1,110,2|8,0:0|0:0,0:0:0:0:
252,44,113647,1,8,0:0:0:0:
316,120,114156,6,0,L|329:229,1,110,2|8,0:0|0:0,0:0:0:0:
388,312,115173,2,0,L|436:208,1,110,2|8,0:0|0:0,0:0:0:0:
378,127,116190,6,0,L|301:50,1,110,4|8,0:0|0:0,0:0:0:0:
143,170,117715,1,8,0:0:0:0:
204,248,118224,2,0,B|244:288|244:288|298:288,1,110,2|8,0:0|0:0,0:0:0:0:
388,248,119241,2,0,L|443:248,2,55,2|0|8,0:0|0:0|0:0,0:0:0:0:
318,178,120258,6,0,B|358:138|358:138|412:138,1,110,2|8,0:0|0:0,0:0:0:0:
503,101,121275,1,2,0:0:0:0:
313,44,122292,2,0,L|203:44,1,110,2|8,0:0|0:0,0:0:0:0:
133,113,123308,2,0,L|94:74,2,55,2|0|8,0:0|0:0|0:0,0:0:0:0:
204,186,124326,6,0,L|282:264,1,110,2|8,0:0|0:0,0:0:0:0:
352,194,125342,2,0,L|430:272,2,110,2|8|2,0:0|0:0|0:0,0:0:0:0:
213,55,127376,2,0,P|162:70|133:116,1,110,2|8,0:0|0:0,0:0:0:0:
132,215,128393,6,0,P|66:259|48:338,1,165,8|2,0:0|0:0,0:0:0:0:
197,353,129919,1,8,0:0:0:0:
294,334,130427,2,0,L|476:305,1,165,8|8,0:0|0:0,0:0:0:0:
256,192,131952,12,4,134495,0:0:0:0:
268,104,136529,6,0,L|157:105,1,110,2|8,0:0|0:0,0:0:0:0:
87,175,137546,2,0,L|32:175,2,55,2|0|8,0:0|0:0|0:0,0:0:0:0:
118,269,138563,1,2,0:0:0:0:
304,337,139580,2,0,P|351:310|377:263,1,110,2|8,0:0|0:0,0:0:0:0:
392,164,140596,2,0,L|314:86,1,110,2|8,0:0|0:0,0:0:0:0:
220,56,141613,2,0,B|180:55|180:55|151:68|151:68|111:68,2,110,2|8|2,0:0|0:0|0:0,0:0:0:0:
292,240,143647,2,0,B|332:240|332:240|360:227|360:227|400:227,1,110,2|8,0:0|0:0,0:0:0:0:
472,160,144664,6,0,B|472:68|416:36|416:36|380:48|340:36,1,220,2|2,0:0|0:0,0:0:0:0:
170,36,146698,2,0,B|132:48|96:36|96:36|60:56|47:108,2,165,8|8|8,0:0|0:0|0:0,0:0:0:0:
256,88,148732,2,0,B|294:99|330:87|330:87|366:107|379:159,2,165,8|8|8,0:0|0:0|0:0,0:0:0:0:
176,148,150766,6,0,L|172:272,1,110,4|8,0:0|0:0,0:0:0:0:
208,352,151783,1,2,0:0:0:0:
304,372,152291,2,0,L|300:262,1,110,8|2,0:0|0:0,0:0:0:0:
457,141,153817,1,2,0:0:0:0:
424,48,154325,1,8,0:0:0:0:
323,49,154834,6,0,B|286:94|226:74|226:74|168:88|151:150,1,220,2|2,0:0|0:0,0:0:0:0:
266,311,156868,2,0,B|366:275|366:275|337:220|387:149,1,220,2|2,0:0|0:0,0:0:0:0:
455,231,158393,1,8,0:0:0:0:
472,133,158902,6,0,L|418:36,1,110,2|8,0:0|0:0,0:0:0:0:
320,49,159919,2,0,B|210:58,1,110,2|8,0:0|0:0,0:0:0:0:
116,90,160935,2,0,B|115:168|66:203|66:203|66:233|66:233|97:287,1,220,2|2,0:0|0:0,0:0:0:0:
284,352,162969,6,0,B|344:352|344:352|384:332|412:256,2,165,8|8|8,0:0|0:0|0:0,0:0:0:0:
256,256,165003,2,0,L|256:91,2,165,8|8|8,0:0|0:0|0:0,0:0:0:0:
185,326,167037,5,4,0:0:0:0:
86,313,167546,1,8,0:0:0:0:
87,116,168563,2,0,P|117:70|168:55,1,110,8|2,0:0|0:0,0:0:0:0:
256,104,169580,1,8,0:0:0:0:
343,55,170088,6,0,P|394:70|424:116,2,110,2|8|2,0:0|0:0|0:0,0:0:0:0:
196,184,172122,2,0,L|213:292,1,110,2|8,0:0|0:0,0:0:0:0:
124,336,173139,2,0,L|106:227,1,110,2|8,0:0|0:0,0:0:0:0:
88,132,174156,1,2,0:0:0:0:
156,60,174664,1,8,0:0:0:0:
256,68,175173,6,0,B|280:96|280:96|313:108|313:108|341:136,1,110,2|8,0:0|0:0,0:0:0:0:
401,213,176190,2,0,P|357:309|252:319,1,220,2|2,0:0|0:0,0:0:0:0:
79,222,178224,2,0,L|60:113,1,110,2|8,0:0|0:0,0:0:0:0:
128,41,179241,2,0,L|288:77,2,165,8|8|8,0:0|0:0|0:0,0:0:0:0:
256,192,181274,12,4,185342,0:0:0:0:
196,67,187376,6,0,P|138:158|164:262,1,220,2|2,0:0|0:0,0:0:0:0:
256,300,188902,1,8,0:0:0:0:
347,262,189410,2,0,P|373:158|315:67,1,220,2|2,0:0|0:0,0:0:0:0:
256,147,190935,1,4,0:0:0:0:
