osu file format v14

[General]
AudioFilename: Intoxicados - Nunca Quise.mp3
AudioLeadIn: 0
PreviewTime: 17927
Countdown: 0
SampleSet: Soft
StackLeniency: 0.7
Mode: 0
LetterboxInBreaks: 1
WidescreenStoryboard: 1

[Editor]
Bookmarks: 83647,99919,181274,190935
DistanceSpacing: 1.2
BeatDivisor: 4
GridSize: 4
TimelineZoom: 1.7

[Metadata]
Title:Nunca Quise
TitleUnicode:Nunca Quise
Artist:Intoxicados
ArtistUnicode:Intoxicados
Creator:Manuxz
Version:Dificil
Source:
Tags:Pity Alvarez Rock Argentino Otro dia en el planeta Tierra
BeatmapID:670036
BeatmapSetID:298565

[Difficulty]
HPDrainRate:7
CircleSize:4
OverallDifficulty:8
ApproachRate:8
SliderMultiplier:1.7
SliderTickRate:2

[Events]
//Background and Video events
0,0,"BG.jpg",0,0
//Break Periods
//Storyboard Layer 0 (Background)
//Storyboard Layer 1 (Fail)
//Storyboard Layer 2 (Pass)
//Storyboard Layer 3 (Foreground)
//Storyboard Sound Samples

[TimingPoints]
258,508.474576271186,4,2,1,75,1,0
12461,-100,4,2,1,10,0,0
13224,-100,4,2,1,15,0,0
13986,-100,4,2,1,20,0,0
14749,-100,4,2,1,25,0,0
15512,-100,4,2,1,30,0,0
15766,-100,4,2,1,35,0,0
16020,-100,4,2,1,40,0,0
16274,-100,4,2,1,45,0,0
16529,-100,4,2,1,50,0,0
16783,-100,4,2,1,55,0,0
17037,-100,4,2,1,60,0,0
17291,-100,4,2,1,65,0,0
17546,-100,4,2,1,70,0,0
51105,-100,4,2,1,75,0,1
66359,-100,4,2,1,75,0,0
98647,-100,4,3,1,75,0,0
99410,-100,4,2,1,75,0,0
116190,-100,4,2,1,75,0,1
131952,-100,4,2,1,75,0,0
133732,-100,4,3,1,50,0,0
134495,-100,4,2,1,75,0,0
150766,-100,4,2,1,50,0,1
167037,-100,4,2,1,50,0,0

[Colours]
Combo1 : 255,0,0
Combo2 : 128,255,128
Combo3 : 255,128,64
Combo4 : 255,255,128

[HitObjects]
39,90,258,6,0,L|207:42,1,170,2|0,0:0|0:0,0:0:0:0:
404,76,1274,2,0,L|308:104,1,85,2|0,0:0|0:0,0:0:0:0:
224,124,1783,1,0,0:0:0:0:
124,148,2037,1,0,0:0:0:0:
27,180,2291,2,0,P|35:260|96:328,1,170,2|0,0:0|0:0,0:0:0:0:
172,260,3054,1,0,0:0:0:0:
252,196,3308,2,0,L|344:184,1,85,2|0,0:0|0:0,0:0:0:0:
393,100,3817,2,0,L|308:110,1,85
228,48,4325,6,0,B|176:56|140:48|140:48|108:68|91:114,1,170,2|0,0:0|0:0,0:0:0:0:
36,200,5088,1,0,0:0:0:0:
72,296,5342,2,0,P|109:315|151:316,1,85,2|0,0:0|0:0,0:0:0:0:
216,237,5851,2,0,P|178:217|136:217,1,85
88,127,6359,2,0,B|138:90|138:90|196:79|235:123,1,170,2|0,0:0|0:0,0:0:0:0:
320,180,7122,1,0,0:0:0:0:
364,88,7376,2,0,L|400:12,1,85,2|0,0:0|0:0,0:0:0:0:
480,76,7885,2,0,L|444:152,1,85
472,252,8393,6,0,P|471:331|395:353,1,170,2|0,0:0|0:0,0:0:0:0:
304,304,9156,1,0,0:0:0:0:
260,212,9410,2,0,L|260:124,1,85,2|0,0:0|0:0,0:0:0:0:
166,86,9919,2,0,L|166:171,1,85
64,172,10427,2,0,B|32:220|32:220|40:272|81:319,1,170,2|0,0:0|0:0,0:0:0:0:
168,264,11190,1,0,0:0:0:0:
212,172,11444,2,0,L|176:88,1,85,2|0,0:0|0:0,0:0:0:0:
64,172,11952,2,0,L|100:88,1,85,2|0,0:0|0:0,0:0:0:0:
128,244,12461,6,0,L|128:332,1,85,8|8,0:0|0:0,0:0:0:0:
228,348,12969,1,8,0:0:0:0:
304,280,13224,2,0,P|329:246|366:227,1,85,8|8,0:0|0:0,0:0:0:0:
468,248,13732,1,8,0:0:0:0:
412,160,13986,2,0,P|390:123|356:98,1,85,8|8,0:0|0:0,0:0:0:0:
220,160,14495,6,0,P|241:123|275:98,2,85,8|8|8,0:0|0:0|0:0,0:0:0:0:
256,256,15257,2,0,L|275:338,1,85,8|8,0:0|0:0,0:0:0:0:
184,384,15766,1,8,0:0:0:0:
84,384,16020,2,0,L|1:364,1,85,8|8,0:0|0:0,0:0:0:0:
48,272,16529,6,0,B|86:254|86:254|103:214,1,85,8|8,0:0|0:0,0:0:0:0:
37,136,17037,1,8,0:0:0:0:
116,72,17291,2,0,B|132:32|132:32|171:14,1,85,8|8,0:0|0:0,0:0:0:0:
256,72,17800,5,8,0:3:0:0:
256,96,18054,1,8,0:3:0:0:
256,120,18308,1,8,0:3:0:0:
206,211,18563,6,0,B|264:232|310:204|310:204|320:232|345:253,1,170,4|8,0:0|0:0,0:0:0:0:
406,171,19325,1,0,0:0:0:0:
418,69,19580,2,0,L|344:111,1,85,2|0,0:0|0:0,0:0:0:0:
246,77,20088,2,0,L|319:34,1,85,8|0,0:0|0:0,0:0:0:0:
406,171,20596,6,0,P|371:246|293:270,1,170,2|8,0:0|0:0,0:0:0:0:
305,169,21359,1,0,0:0:0:0:
318,68,21613,2,0,B|254:79|254:79|212:70|212:70|149:81,1,170,2|8,0:0|0:0,0:0:0:0:
108,172,22376,1,0,0:0:0:0:
35,244,22630,6,0,P|70:268|116:274,1,85,2|0,0:0|0:0,0:0:0:0:
205,235,23139,2,0,P|212:276|205:318,1,85,8|0,0:0|0:0,0:0:0:0:
108,348,23647,1,2,0:0:0:0:
108,172,23902,2,0,P|101:130|108:88,1,85,0|8,0:0|0:0,0:0:0:0:
199,42,24410,1,0,0:0:0:0:
300,42,24664,6,0,B|325:42|325:42|357:54|357:54|382:54,1,85,2|0,0:0|0:0,0:0:0:0:
455,126,25173,2,0,L|442:210,1,85,8|0,0:0|0:0,0:0:0:0:
256,292,25681,1,2,0:0:0:0:
202,142,25935,1,0,0:0:0:0:
340,236,26190,1,8,0:0:0:0:
168,236,26444,1,0,0:0:0:0:
303,142,26698,6,0,L|363:82,1,85,2|0,0:0|0:0,0:0:0:0:
455,35,27207,2,0,P|464:76|458:120,1,85,8|0,0:0|0:0,0:0:0:0:
387,192,27715,1,2,0:0:0:0:
455,348,27969,2,0,P|464:308|458:263,1,85,0|8,0:0|0:0,0:0:0:0:
387,192,28478,1,0,0:0:0:0:
200,192,28732,6,0,L|285:192,1,85,2|0,0:0|0:0,0:0:0:0:
387,192,29241,2,0,P|391:233|379:274,1,85,8|0,0:0|0:0,0:0:0:0:
339,368,29749,2,0,B|286:386|256:360|256:360|221:386|177:368,1,170,2|8,0:0|0:0,0:0:0:0:
133,274,30512,1,0,0:0:0:0:
126,233,30639,1,0,0:0:0:0:
125,192,30766,6,0,B|128:152|128:152|152:108,1,85,2|0,0:0|0:0,0:0:0:0:
272,192,31274,2,0,B|269:152|269:152|245:108,1,85,8|0,0:0|0:0,0:0:0:0:
319,40,31783,1,2,0:0:0:0:
391,112,32037,2,0,L|451:172,1,85,0|8,0:0|0:0,0:0:0:0:
512,312,32546,2,0,L|451:251,1,85,0|2,0:0|0:0,0:0:0:0:
364,300,33054,1,0,0:0:0:0:
272,252,33308,6,0,L|212:313,2,85,8|0|2,0:0|0:0|0:0,0:0:0:0:
344,179,34071,2,0,L|404:118,1,85,0|8,0:0|0:0,0:0:0:0:
331,46,34580,1,0,0:0:0:0:
181,46,34834,2,0,L|96:64,1,85,2|0,0:0|0:0,0:0:0:0:
25,135,35342,2,0,L|108:152,1,85,8|0,0:0|0:0,0:0:0:0:
188,216,35851,2,0,P|208:176|208:132,2,85,2|0|8,0:0|0:0|0:0,0:0:0:0:
256,292,36613,1,0,0:0:0:0:
84,315,36868,6,0,P|121:335|164:336,1,85,2|0,0:0|0:0,0:0:0:0:
256,292,37376,2,0,P|284:324|325:339,1,85,8|0,0:0|0:0,0:0:0:0:
341,240,37885,1,2,0:0:0:0:
324,134,38139,2,0,P|284:149|256:181,1,85,0|8,0:0|0:0,0:0:0:0:
341,240,38647,1,0,0:0:0:0:
480,332,38902,6,0,B|445:254,1,85,2|0,0:0|0:0,0:0:0:0:
496,165,39410,2,0,B|461:87,1,85,8|0,0:0|0:0,0:0:0:0:
372,40,39919,1,2,0:0:0:0:
270,40,40173,2,0,P|228:41|193:64,1,85,0|8,0:0|0:0,0:0:0:0:
140,152,40681,1,0,0:0:0:0:
0,255,40935,6,0,P|41:254|76:231,1,85,2|0,0:0|0:0,0:0:0:0:
132,316,41444,2,0,P|161:286|177:247,1,85,8|0,0:0|0:0,0:0:0:0:
164,144,41952,1,2,0:0:0:0:
260,47,42206,1,0,0:0:0:0:
260,183,42461,1,8,0:0:0:0:
356,86,42715,1,0,0:0:0:0:
356,221,42969,6,0,L|296:281,1,85,2|0,0:0|0:0,0:0:0:0:
223,353,43478,2,0,L|138:353,2,85,8|0|2,0:0|0:0|0:0,0:0:0:0:
176,264,44241,2,0,P|143:236|123:199,1,85,0|8,0:0|0:0,0:0:0:0:
128,96,44749,1,0,0:0:0:0:
298,80,45003,6,0,P|262:59|219:56,1,85,2|0,0:0|0:0,0:0:0:0:
228,156,45512,2,0,L|252:240,1,85,8|0,0:0|0:0,0:0:0:0:
284,336,46020,1,2,0:0:0:0:
380,368,46274,2,0,B|424:368|424:368|452:340,1,85,0|8,0:0|0:0,0:0:0:0:
416,244,46783,1,0,0:0:0:0:
212,237,47037,6,0,B|160:149,1,85,2|0,0:0|0:0,0:0:0:0:
300,237,47546,2,0,B|352:149,1,85,8|0,0:0|0:0,0:0:0:0:
192,92,48054,1,2,0:0:0:0:
320,92,48308,2,0,B|268:4,1,85,8|0,0:0|0:0,0:0:0:0:
192,92,48817,1,0,0:0:0:0:
113,170,49071,6,0,B|69:96,1,85,2|0,0:0|0:0,0:0:0:0:
156,248,49580,2,0,B|199:321,2,85,8|0|2,0:0|0:0|0:0,0:0:0:0:
333,153,50342,1,8,0:0:0:0:
178,153,50596,1,8,0:0:0:0:
256,32,50851,1,8,0:0:0:0:
256,48,50978,1,8,0:0:0:0:
256,64,51105,5,4,0:0:0:0:
256,165,51359,1,0,0:0:0:0:
328,237,51613,2,0,L|382:302,2,85,8|0|2,0:0|0:0|0:0,0:0:0:0:
255,309,52376,1,0,0:0:0:0:
182,236,52630,2,0,L|127:301,2,85,8|0|2,0:0|0:0|0:0,0:0:0:0:
92,188,53393,1,0,0:0:0:0:
92,88,53647,1,8,0:0:0:0:
172,24,53902,1,0,0:0:0:0:
256,81,54156,5,2,0:0:0:0:
306,207,54410,1,0,0:0:0:0:
169,207,54665,1,8,0:0:0:0:
388,88,54919,1,0,0:0:0:0:
241,162,55173,2,0,L|168:206,1,85,2|0,0:0|0:0,0:0:0:0:
116,292,55681,5,8,0:0:0:0:
22,252,55935,1,0,0:0:0:0:
49,153,56190,2,0,B|93:153|93:153|123:127,1,85,2|0,0:0|0:0,0:0:0:0:
172,36,56698,2,0,B|216:36|216:36|246:62,1,85,8|0,0:0|0:0,0:0:0:0:
320,136,57207,2,0,B|401:191|394:132|486:178,1,170,2|8,0:0|0:0,0:0:0:0:
422,259,57969,1,0,0:0:0:0:
256,348,58224,5,2,0:0:0:0:
310,198,58478,1,0,0:0:0:0:
172,292,58733,1,8,0:0:0:0:
344,292,58987,1,0,0:0:0:0:
209,198,59241,2,0,L|149:138,1,85,2|0,0:0|0:0,0:0:0:0:
220,65,59749,6,0,L|280:125,1,85,8|0,0:0|0:0,0:0:0:0:
450,185,60257,1,2,0:0:0:0:
330,65,60512,1,0,0:0:0:0:
292,224,60766,2,0,L|352:163,1,85,8|0,0:0|0:0,0:0:0:0:
450,185,61274,1,2,0:0:0:0:
377,257,61529,1,0,0:0:0:0:
304,329,61783,2,0,L|387:343,1,85,8|0,0:0|0:0,0:0:0:0:
502,240,62291,2,0,L|488:324,1,85,2|0,0:0|0:0,0:0:0:0:
468,144,62800,2,0,P|428:124|388:124,1,85,8|0,0:0|0:0,0:0:0:0:
287,110,63308,6,0,P|309:189|384:224,1,170,2|8,0:0|0:0,0:0:0:0:
335,19,64071,2,0,P|253:15|194:73,1,170
164,172,64834,1,8,0:0:0:0:
14,326,65088,2,0,P|97:329|156:272,1,170
60,236,65851,1,8,0:0:0:0:
44,136,66105,2,0,L|78:58,1,85,0|2,0:0|0:0,0:0:0:0:
182,52,66613,5,0,0:0:0:0:
254,124,66868,1,8,0:0:0:0:
328,52,67122,1,0,0:0:0:0:
256,208,67376,2,0,B|256:293,1,85,4|0,0:0|0:0,0:0:0:0:
396,227,67885,2,0,L|456:166,1,85,8|0,0:0|0:0,0:0:0:0:
428,68,68393,1,2,0:0:0:0:
328,52,68647,2,0,L|267:112,1,85,0|8,0:0|0:0,0:0:0:0:
195,183,69156,1,0,0:0:0:0:
62,315,69410,6,0,L|122:255,1,85,2|0,0:0|0:0,0:0:0:0:
216,294,69919,2,0,B|256:310|256:310|295:295,1,85,8|0,0:0|0:0,0:0:0:0:
390,254,70427,1,2,0:0:0:0:
462,181,70681,2,0,B|478:141|478:141|463:101,1,85,0|8,0:0|0:0,0:0:0:0:
390,31,71190,1,0,0:0:0:0:
220,31,71444,6,0,B|175:56|136:42|136:42|96:45|68:86,1,170,2|8,0:0|0:0,0:0:0:0:
108,180,72207,1,0,0:0:0:0:
69,274,72461,1,2,0:0:0:0:
156,328,72715,2,0,P|196:340|235:327,1,85,0|8,0:0|0:0,0:0:0:0:
300,248,73224,1,0,0:0:0:0:
510,169,73478,6,0,P|437:132|364:168,1,170,2|8,2:0|2:0,2:0:0:0:
300,248,74241,1,0,0:0:0:0:
128,292,74495,1,0,0:0:0:0:
193,195,74749,2,0,L|169:111,2,85,0|8|0,0:0|0:0|0:0,0:0:0:0:
224,340,75512,6,0,L|308:340,1,85,2|0,0:0|0:0,0:0:0:0:
408,316,76020,2,0,P|431:281|437:239,1,85,8|0,0:0|0:0,0:0:0:0:
364,168,76529,1,2,0:0:0:0:
284,107,76783,2,0,P|289:66|313:31,1,85,0|8,0:0|0:0,0:0:0:0:
364,168,77291,1,0,0:0:0:0:
216,245,77546,6,0,P|257:256|298:246,1,85,2|0,0:0|0:0,0:0:0:0:
256,148,78054,1,8,0:0:0:0:
178,79,78308,2,0,P|253:45|330:78,1,170
390,165,79071,1,8,0:0:0:0:
492,152,79325,1,0,0:0:0:0:
451,245,79580,6,0,L|431:328,1,85,2|0,0:0|0:0,0:0:0:0:
333,299,80088,2,0,P|256:331|181:297,1,170,8|2,0:0|0:0,0:0:0:0:
256,144,80851,2,0,L|256:229,1,85,0|8,0:0|0:0,0:0:0:0:
331,212,81359,1,0,0:0:0:0:
256,59,81613,2,0,L|256:144,1,85,2|0,0:0|0:0,0:0:0:0:
181,212,82122,2,0,L|181:297,2,85,8|0|2,0:0|0:0|0:0,0:0:0:0:
104,144,82885,1,0,0:0:0:0:
156,56,83139,1,8,0:0:0:0:
256,59,83393,1,0,0:0:0:0:
383,217,83647,6,0,P|411:140|375:66,1,170,4|8,0:0|0:0,0:0:0:0:
311,146,84410,2,0,B|248:224|320:300|320:300|292:336|292:336|254:336,1,255,0|8,0:0|0:0,0:0:0:0:
182,263,85427,1,0,0:0:0:0:
105,335,85681,2,0,B|71:335|71:335|43:299|43:299|72:248|45:214,1,170,2|8,0:0|0:0,0:0:0:0:
102,129,86444,2,0,L|163:70,1,85,0|2,0:0|0:0,0:0:0:0:
256,114,86952,1,0,0:0:0:0:
348,70,87207,2,0,L|410:129,1,85,8|0,0:0|0:0,0:0:0:0:
338,260,87715,6,0,P|325:219|335:178,1,85,2|0,0:0|0:0,0:0:0:0:
431,218,88224,2,0,P|472:206|504:179,1,85,8|0,0:0|0:0,0:0:0:0:
404,340,88732,2,0,P|366:359|324:360,2,85,2|0|8,0:0|0:0|0:0,0:0:0:0:
464,256,89495,1,0,0:0:0:0:
404,132,89749,6,0,B|436:156|436:156|480:156,1,85,2|0,0:0|0:0,0:0:0:0:
331,59,90257,2,0,B|287:59|287:59|255:83,1,85,8|0,0:0|0:0,0:0:0:0:
176,148,90766,1,2,0:0:0:0:
311,190,91020,2,0,L|371:130,1,85,0|8,0:0|0:0,0:0:0:0:
176,284,91529,1,0,0:0:0:0:
311,190,91783,6,0,L|371:130,1,85,2|0,0:0|0:0,0:0:0:0:
443,57,92291,2,0,B|480:72|480:72|501:113,1,85,8|0,0:0|0:0,0:0:0:0:
427,184,92800,2,0,L|367:244,1,85,2|0,0:0|0:0,0:0:0:0:
324,336,93308,1,8,0:0:0:0:
220,336,93563,1,0,0:0:0:0:
72,252,93817,6,0,B|56:209|56:209|68:136|136:128,1,170,2|8,0:0|0:0,0:0:0:0:
236,156,94580,1,0,0:0:0:0:
304,80,94834,2,0,P|344:67|383:80,1,85,2|0,0:0|0:0,0:0:0:0:
479,121,95342,2,0,P|488:80|475:39,1,85,8|0,0:0|0:0,0:0:0:0:
407,193,95851,6,0,P|394:233|403:274,1,85,2|0,0:0|0:0,0:0:0:0:
444,368,96359,2,0,P|403:380|364:367,1,85,8|0,0:0|0:0,0:0:0:0:
291,294,96868,1,2,0:0:0:0:
218,221,97122,2,0,P|177:208|138:221,1,85,0|8,0:0|0:0,0:0:0:0:
68,294,97630,1,0,0:0:0:0:
28,200,97885,6,0,L|4:118,1,85,2|0,0:0|0:0,0:0:0:0:
83,55,98392,1,8,0:0:0:0:
178,92,98647,1,8,0:0:0:0:
148,188,98902,1,8,0:0:0:0:
133,202,99028,1,8,0:0:0:0:
118,218,99155,1,8,0:0:0:0:
190,290,99410,2,0,L|250:351,1,85,8|0,0:0|0:0,0:0:0:0:
364,287,99919,6,0,L|425:225,1,85,4|0,0:0|0:0,0:0:0:0:
352,154,100427,1,8,0:0:0:0:
284,228,100681,2,0,P|271:268|280:309,1,85,0|2,0:0|0:0,0:0:0:0:
352,154,101190,2,0,P|360:112|348:72,1,85,0|8,0:0|0:0,0:0:0:0:
256,120,101698,1,0,0:0:0:0:
352,154,101952,6,0,P|388:178|429:186,1,85,2|0,0:0|0:0,0:0:0:0:
325,286,102461,1,8,0:0:0:0:
502,254,102715,2,0,P|468:278|427:286,1,85,2|0,0:0|0:0,0:0:0:0:
224,276,103223,1,0,0:0:0:0:
147,212,103477,1,8,0:0:0:0:
120,115,103731,1,0,0:0:0:0:
276,44,103986,6,0,B|320:32|320:32|344:44|344:44|384:16|440:30,1,170,2|8,0:0|0:0,0:0:0:0:
404,128,104749,2,0,L|416:212,1,85,0|2,0:0|0:0,0:0:0:0:
372,300,105257,1,0,0:0:0:0:
488,284,105511,1,8,0:0:0:0:
440,376,105765,1,0,0:0:0:0:
300,228,106020,6,0,L|287:143,1,85,2|0,0:0|0:0,0:0:0:0:
200,32,106529,2,0,L|212:116,1,85,8|0,0:0|0:0,0:0:0:0:
404,128,107037,1,2,0:0:0:0:
300,228,107291,1,0,0:0:0:0:
292,348,107546,2,0,L|207:348,1,85,8|0,0:0|0:0,0:0:0:0:
384,246,108054,6,0,L|394:331,1,85,2|0,0:0|0:0,0:0:0:0:
292,348,108563,2,0,L|207:348,1,85,8|0,0:0|0:0,0:0:0:0:
108,332,109071,2,0,L|117:247,1,85,2|0,0:0|0:0,0:0:0:0:
136,148,109580,1,8,0:0:0:0:
116,48,109834,1,0,0:0:0:0:
297,53,110088,6,0,B|256:64|256:64|216:52,1,85,2|0,0:0|0:0,0:0:0:0:
116,48,110596,2,0,B|74:37|74:37|34:49,1,85,8|0,0:0|0:0,0:0:0:0:
34,152,111105,2,0,L|34:237,2,85,2|0|8,0:0|0:0|0:0,0:0:0:0:
34,49,111868,1,0,0:0:0:0:
203,49,112122,6,0,L|135:100,1,85,2|0,0:0|0:0,0:0:0:0:
309,49,112630,2,0,L|377:100,1,85,8|0,0:0|0:0,0:0:0:0:
256,124,113139,1,2,0:0:0:0:
216,292,113393,2,0,L|194:209,1,85,0|8,0:0|0:0,0:0:0:0:
296,292,113902,2,0,L|317:209,2,85,0|2|0,0:0|0:0|0:0,0:0:0:0:
256,124,114664,1,8,0:0:0:0:
256,40,114919,5,0,0:0:0:0:
195,209,115173,1,2,0:0:0:0:
317,209,115427,1,0,0:0:0:0:
256,344,115681,2,0,L|256:259,1,85,8|0,0:0|0:0,0:0:0:0:
256,124,116190,5,6,0:0:0:0:
169,70,116444,1,0,0:0:0:0:
84,124,116698,2,0,B|40:124|40:124|4:144,2,85,8|0|2,0:0|0:0|0:0,0:0:0:0:
172,180,117461,1,0,0:0:0:0:
260,236,117715,2,0,B|302:236|302:236|334:208,2,85,8|0|2,0:0|0:0|0:0,0:0:0:0:
172,288,118478,1,0,0:0:0:0:
84,236,118732,2,0,L|84:151,1,85,8|0,0:0|0:0,0:0:0:0:
256,88,119241,5,2,0:0:0:0:
311,238,119495,1,0,0:0:0:0:
173,144,119750,1,8,0:0:0:0:
345,144,120004,1,0,0:0:0:0:
210,238,120258,2,0,L|125:238,1,85,2|0,0:0|0:0,0:0:0:0:
52,310,120766,5,8,0:0:0:0:
124,382,121020,1,0,0:0:0:0:
224,372,121274,2,0,B|269:372|269:372|299:346,1,85,2|0,0:0|0:0,0:0:0:0:
372,273,121783,1,8,0:0:0:0:
414,180,122037,1,0,0:0:0:0:
338,112,122291,6,0,B|289:98|254:123|254:123|223:100|175:109,1,170
200,208,123054,1,0,0:0:0:0:
312,208,123308,1,0,0:0:0:0:
256,352,123563,1,0,0:0:0:0:
153,352,123818,1,8,0:0:0:0:
103,208,124072,1,0,0:0:0:0:
1,208,124326,2,0,L|28:120,1,85,2|0,0:0|0:0,0:0:0:0:
97,54,124834,6,0,L|185:81,1,85,8|0,0:0|0:0,0:0:0:0:
256,148,125342,1,2,0:0:0:0:
432,48,125597,1,0,0:0:0:0:
393,138,125851,2,0,L|333:77,1,85,8|0,0:0|0:0,0:0:0:0:
256,8,126359,5,2,0:0:0:0:
178,78,126614,1,0,0:0:0:0:
137,174,126868,2,0,B|167:213|203:217|203:217|228:184|284:184,1,170,8|2,0:0|0:0,0:0:0:0:
384,180,127631,1,0,0:0:0:0:
451,257,127885,2,0,P|413:277|371:282,1,85,8|0,0:0|0:0,0:0:0:0:
292,216,128393,6,0,P|269:295|313:364,1,170,2|8,0:0|0:0,0:0:0:0:
339,126,129156,2,0,P|257:122|198:180,1,170
122,249,129919,2,0,P|157:272|198:281,1,85,8|0,0:0|0:0,0:0:0:0:
82,154,130427,2,0,P|26:214|32:297,1,170,2|8,0:0|0:0,0:0:0:0:
128,332,131190,2,8,L|298:332,1,170,8|0,0:0|0:0,0:0:0:0:
408,344,131952,1,8,0:0:0:0:
444,248,132207,1,0,0:0:0:0:
375,172,132461,6,0,L|423:92,1,85,2|0,0:0|0:0,0:0:0:0:
316,94,132969,2,0,L|268:174,1,85,8|0,0:0|0:0,0:0:0:0:
181,120,133478,1,2,0:0:0:0:
89,165,133732,1,2,0:0:0:0:
93,267,133986,2,0,P|105:308|130:342,1,85,8|8,0:0|0:0,0:0:0:0:
156,352,134368,1,8,0:0:0:0:
180,360,134495,6,0,P|260:348|328:272,1,170,4|8,0:0|0:0,0:0:0:0:
372,200,135257,1,0,0:0:0:0:
509,88,135512,2,0,P|468:92|436:120,1,85,2|0,0:0|0:0,0:0:0:0:
372,200,136020,1,8,0:0:0:0:
321,287,136274,1,0,0:0:0:0:
155,250,136529,6,0,B|136:216|136:216|144:192|144:192|88:164|81:112,1,170,2|8,0:0|0:0,0:0:0:0:
180,96,137291,1,0,0:0:0:0:
272,52,137546,2,0,P|284:92|274:133,2,85,2|0|8,0:0|0:0|0:0,0:0:0:0:
81,113,138308,1,0,0:0:0:0:
155,250,138563,2,0,P|167:290|157:331,1,85,2|0,0:0|0:0,0:0:0:0:
64,292,139071,1,8,0:0:0:0:
4,212,139325,2,0,P|-6:171|5:130,2,85,2|2|0,0:0|0:0|0:0,0:0:0:0:
92,160,140088,1,8,0:0:0:0:
188,128,140342,1,0,0:0:0:0:
357,128,140596,6,0,B|393:157|405:197|405:197|392:239|354:261,1,170,2|8,0:0|0:0,0:0:0:0:
271,343,141359,2,0,L|252:261,1,85,0|2,0:0|0:0,0:0:0:0:
356,128,141868,1,0,0:0:0:0:
404,196,142122,1,8,0:0:0:0:
354,261,142376,1,0,0:0:0:0:
252,123,142630,6,0,L|271:40,1,85,2|0,0:0|0:0,0:0:0:0:
176,76,143139,1,8,0:0:0:0:
56,240,143647,2,0,L|36:322,1,85,2|0,0:0|0:0,0:0:0:0:
139,322,144156,2,0,L|179:156,2,170,8|2|8,0:0|0:0|0:0,0:0:0:0:
241,322,145427,1,0,0:0:0:0:
322,240,145681,2,0,L|342:322,1,85,2|0,0:0|0:0,0:0:0:0:
392,192,146190,2,0,L|372:110,1,85,8|0,0:0|0:0,0:0:0:0:
202,109,146698,6,0,B|176:148|120:148|120:148|32:148,1,170,8|2,0:0|0:0,0:0:0:0:
104,64,147461,2,0,B|157:225,1,170,8|0,0:0|0:0,0:0:0:0:
256,288,148224,2,0,L|256:203,1,85,8|0,0:0|0:0,0:0:0:0:
162,274,148732,2,0,L|202:108,1,170,8|2,0:0|0:0,0:0:0:0:
350,274,149495,2,0,L|310:108,1,170,8|0,0:0|0:0,0:0:0:0:
256,288,150257,2,0,L|256:203,1,85,8|0,0:0|0:0,0:0:0:0:
173,55,150766,6,0,B|256:35|256:35|339:55,1,170,4|8,0:0|0:0,0:0:0:0:
401,136,151529,1,0,0:0:0:0:
452,299,151783,2,0,B|469:260|469:260|455:221,1,85,2|0,0:0|0:0,0:0:0:0:
401,136,152291,1,8,0:0:0:0:
339,55,152546,1,0,0:0:0:0:
244,196,152800,6,0,B|244:171|244:171|256:139|256:139|256:114,1,85,2|0,0:0|0:0,0:0:0:0:
195,48,153308,2,0,B|170:48|170:48|138:60|138:60|113:60,1,85,8|0,2:0|2:0,2:0:0:0:
255,130,153817,5,2,0:0:0:0:
201,282,154071,1,0,0:0:0:0:
341,186,154325,1,8,0:0:0:0:
167,186,154580,1,0,0:0:0:0:
304,282,154834,2,0,L|356:349,1,85,2|0,0:0|0:0,0:0:0:0:
412,264,155342,5,8,0:0:0:0:
452,172,155596,1,0,0:0:0:0:
492,80,155851,2,0,L|409:58,1,85,2|0,0:0|0:0,0:0:0:0:
337,130,156359,1,8,0:0:0:0:
256,188,156613,1,0,0:0:0:0:
92,108,156868,6,0,L|175:130,1,85,2|0,0:0|0:0,0:0:0:0:
256,188,157376,1,8,0:0:0:0:
337,254,157630,2,0,L|420:276,1,85,0|2,0:0|0:0,0:0:0:0:
175,254,158139,2,0,L|92:276,2,85,0|8|0,0:0|0:0|0:0,0:0:0:0:
256,103,158902,6,0,L|256:188,1,85,2|0,0:0|0:0,0:0:0:0:
284,288,159410,1,8,0:0:0:0:
376,332,159664,1,0,0:0:0:0:
480,324,159919,2,0,L|490:239,1,85,2|0,0:0|0:0,0:0:0:0:
428,82,160427,2,0,L|418:167,1,85,8|0,0:0|0:0,0:0:0:0:
256,112,160935,6,0,L|172:127,1,85,2|0,0:0|0:0,0:0:0:0:
100,199,161444,2,0,P|90:240|102:280,1,85,8|0,0:0|0:0,0:0:0:0:
252,367,161952,2,0,L|169:352,1,85,2|0,0:0|0:0,0:0:0:0:
100,199,162461,2,0,P|90:240|102:280,1,85,8|0,0:0|0:0,0:0:0:0:
196,236,162969,2,0,L|366:236,1,170,8|2,0:0|0:0,0:0:0:0:
299,156,163732,2,0,P|275:236|304:314,1,170,8|0,0:0|0:0,0:0:0:0:
366,236,164495,2,0,L|281:236,1,85,8|0,0:0|0:0,0:0:0:0:
256,192,165003,12,2,166783,0:0:0:0:
186,276,167037,6,0,B|178:237|178:237|162:213|162:213|186:169|159:115,1,170,4|8,0:0|0:0,0:0:0:0:
256,80,167800,1,0,0:0:0:0:
352,115,168054,2,0,B|325:169|349:213|349:213|333:237|333:237|326:276,1,170,2|8,0:0|0:0,0:0:0:0:
388,344,168817,1,0,0:0:0:0:
452,276,169071,2,0,L|476:194,1,85,2|0,0:0|0:0,0:0:0:0:
468,100,169580,1,8,0:0:0:0:
229,48,170088,1,2,0:0:0:0:
319,138,170342,1,0,0:0:0:0:
191,138,170596,1,8,0:0:0:0:
281,228,170851,1,0,0:0:0:0:
152,224,171105,6,0,B|116:256|120:300|120:300|164:312|172:360,1,170,2|8,0:0|0:0,0:0:0:0:
256,300,171868,1,0,0:0:0:0:
340,360,172122,2,0,B|348:312|392:300|392:300|396:256|360:224,1,170,2|8,0:0|0:0,0:0:0:0:
276,168,172885,1,0,0:0:0:0:
180,136,173139,2,0,L|95:142,1,85,2|0,0:0|0:0,0:0:0:0:
32,60,173647,1,8,0:0:0:0:
288,40,174156,1,2,0:0:0:0:
347,151,174410,2,0,P|370:187|404:211,2,85,0|8|0,0:0|0:0|0:0,0:0:0:0:
410,40,175173,5,2,0:0:0:0:
484,232,175681,1,8,0:0:0:0:
304,326,176190,2,0,L|256:257,1,85,2|0,0:0|0:0,0:0:0:0:
287,159,176698,2,0,P|205:169|156:235,2,170,8|2|8,0:0|0:0|0:0,0:0:0:0:
365,226,177969,1,0,0:0:0:0:
445,164,178224,2,0,P|455:123|444:82,1,85,2|0,0:0|0:0,0:0:0:0:
365,18,178732,1,8,0:0:0:0:
286,81,178986,1,0,0:0:0:0:
216,155,179241,6,0,B|186:205|149:200|149:200|140:250|104:268,1,170,8|2,0:0|0:0,0:0:0:0:
47,182,180003,2,0,P|38:100|90:36,1,170,8|2,0:0|0:0,0:0:0:0:
192,30,180766,2,0,L|277:30,1,85,8|0,0:0|0:0,0:0:0:0:
256,192,181274,12,2,183817,0:0:0:0:
288,32,184071,6,0,L|341:194,1,170,8|0,0:0|0:0,0:0:0:0:
368,292,184833,1,8,0:0:0:0:
286,352,185088,1,8,0:0:0:0:
260,352,185215,1,8,0:0:0:0:
234,352,185342,2,0,B|196:312|162:312|162:312|124:312|88:276,1,170,4|8,0:0|0:0,0:0:0:0:
256,192,186359,1,2,0:0:0:0:
424,108,186868,2,0,B|388:72|350:72|350:72|316:72|278:32,2,170,4|2|8,0:0|0:0|0:0,0:0:0:0:
414,263,188138,5,0,0:0:0:0:
347,342,188392,1,2,0:0:0:0:
256,293,188646,1,0,0:0:0:0:
165,342,188902,1,8,0:0:0:0:
98,263,189156,1,0,0:0:0:0:
215,182,189410,6,0,P|255:194|296:184,1,85,4|0,0:0|0:0,0:0:0:0:
337,164,189791,1,0,0:0:0:0:
376,140,189918,2,0,P|415:126|456:137,1,85,2|0,0:0|0:0,0:0:0:0:
296,183,190427,2,0,P|255:194|215:182,1,85,2|0,0:0|0:0,0:0:0:0:
106,91,190935,1,4,0:0:0:0:
