osu file format v14

[General]
AudioFilename: Intoxicados - Esta Saliendo El Sol.mp3
AudioLeadIn: 1500
PreviewTime: 7269
Countdown: 0
SampleSet: Soft
StackLeniency: 0.7
Mode: 2
LetterboxInBreaks: 1
WidescreenStoryboard: 1

[Editor]
DistanceSpacing: 1.5
BeatDivisor: 4
GridSize: 32
TimelineZoom: 1.4

[Metadata]
Title:Esta saliendo el sol
TitleUnicode:Está saliendo el sol
Artist:Intoxicados
ArtistUnicode:Intoxicados
Creator:Manuxz
Version:Rain
Source:
Tags:Hanjamon Neku okazaki Pity Alvarez No es solo rock and roll
BeatmapID:283299
BeatmapSetID:93205

[Difficulty]
HPDrainRate:7
CircleSize:4
OverallDifficulty:9
ApproachRate:9
SliderMultiplier:2
SliderTickRate:2

[Events]
//Background and Video events
0,0,"FASO.jpg",0,0
//Break Periods
2,30639,32035
2,56005,57400
2,81371,82766
2,155518,156913
//Storyboard Layer 0 (Background)
//Storyboard Layer 1 (Fail)
//Storyboard Layer 2 (Pass)
//Storyboard Layer 3 (Foreground)
//Storyboard Sound Samples

[TimingPoints]
440,487.80487804878,4,2,1,70,1,0
5561,-100,4,2,1,30,0,0
5805,-100,4,2,1,70,0,0
6537,-100,4,2,1,40,0,0
7147,-100,4,2,1,70,0,0
28976,-100,4,2,1,30,0,0
29220,-100,4,2,1,70,0,0
40683,-100,4,2,1,30,0,0
40927,-100,4,2,1,70,0,0
48488,-100,4,2,1,30,0,0
48732,-100,4,2,1,70,0,0
48976,-100,4,2,1,30,0,0
49220,-100,4,2,1,70,0,0
54342,-100,4,2,1,30,0,0
54586,-100,4,2,1,70,0,0
58976,-100,4,2,1,70,0,1
66049,-100,4,2,1,30,0,1
66293,-100,4,2,1,70,0,1
66537,-100,4,2,1,30,0,1
66781,-100,4,2,1,70,0,1
73854,-100,4,2,1,30,0,1
74098,-100,4,2,1,70,0,1
74342,-100,4,2,1,30,0,1
74586,-100,4,2,1,70,0,1
79708,-100,4,2,1,30,0,1
79952,-100,4,2,1,70,0,1
81171,-100,4,2,1,70,0,0
87025,-50,4,2,1,75,0,0
88000,-100,4,2,1,75,0,0
94830,-50,4,2,1,75,0,0
95561,-100,4,2,1,75,0,0
96049,-50,4,2,1,75,0,0
97269,-100,4,2,1,75,0,0
106049,-100,4,3,1,70,0,0
107757,-50,4,2,1,70,0,0
108244,-100,4,2,1,70,0,0
109220,-50,4,2,1,70,0,0
109708,-100,4,2,1,70,0,0
119464,-50,4,2,1,70,0,0
120683,-100,4,2,1,70,0,0
128488,-100,4,2,1,30,0,0
128732,-100,4,2,1,70,0,0
140196,-100,4,2,1,30,0,0
140439,-100,4,2,1,70,0,0
140683,-100,4,2,1,30,0,0
140927,-100,4,2,1,70,0,0
148488,-100,4,2,1,30,0,0
148732,-100,4,2,1,70,0,0
153854,-100,4,2,1,30,0,0
154098,-100,4,2,1,70,0,0
158488,-100,4,2,1,70,0,1
179220,-100,4,2,1,30,0,1
179464,-100,4,2,1,70,0,1
180683,-100,4,2,1,70,0,0

[Colours]
Combo1 : 226,217,103
Combo2 : 164,164,164
Combo3 : 217,173,145
Combo4 : 233,133,133

[HitObjects]
256,192,440,6,0,L|156:192,1,100,4|0,0:0|0:0,0:0:0:0:
32,128,927,1,8,0:0:0:0:
256,120,1171,2,0,L|356:120,1,100,0|2,0:0|0:0,0:0:0:0:
480,120,1659,1,0,0:0:0:0:
352,256,1903,6,0,P|305:271|258:255,1,100,8|0,0:0|0:0,0:0:0:0:
32,256,2391,2,0,P|79:271|126:255,1,100,2|0,0:0|0:0,0:0:0:0:
352,64,2879,1,8,0:0:0:0:
256,96,3122,1,0,0:0:0:0:
448,192,3366,2,0,L|348:192,1,100,2|0,0:0|0:0,0:0:0:0:
64,192,3854,5,8,0:0:0:0:
256,192,4098,1,0,0:0:0:0:
44,192,4342,2,0,L|148:192,1,100,2|0,0:0|0:0,0:0:0:0:
256,192,4830,1,8,0:0:0:0:
384,192,5074,1,0,0:0:0:0:
128,192,5318,2,0,P|88:216|8:216,1,100,2|4,0:0|0:0,0:0:0:0:
416,32,5805,5,8,0:0:0:0:
256,32,6049,1,0,0:0:0:0:
96,32,6293,1,4,0:0:0:0:
256,192,6537,12,0,7025,0:0:0:0:
144,192,7269,6,0,L|32:192,1,100,2|0,0:0|0:0,0:0:0:0:
256,192,7757,1,2,0:0:0:0:
468,192,8000,1,0,0:0:0:0:
144,192,8244,1,4,0:0:0:0:
224,96,8732,5,8,0:0:0:0:
128,160,8976,1,0,0:0:0:0:
32,224,9220,1,2,0:0:0:0:
256,320,9464,2,0,L|156:320,1,100,0|8,0:0|0:0,0:0:0:0:
384,320,9952,1,0,0:0:0:0:
32,32,10196,6,0,B|120:84|120:84|32:128,1,200,2|8,0:0|0:0,0:0:0:0:
192,96,10927,1,0,0:0:0:0:
352,32,11171,1,2,0:0:0:0:
256,192,11415,2,0,L|384:192,1,100,0|0,0:0|0:0,0:0:0:0:
128,192,11903,1,0,0:0:0:0:
256,192,12025,1,0,0:0:0:0:
384,192,12147,6,0,B|184:192,1,200,2|8,0:0|0:0,0:0:0:0:
352,96,12879,1,0,0:0:0:0:
224,96,13122,1,2,0:0:0:0:
384,96,13366,1,0,0:0:0:0:
192,96,13610,1,8,0:0:0:0:
424,96,13854,1,0,0:0:0:0:
32,320,14098,6,0,L|232:320,1,200,2|8,0:0|0:0,0:0:0:0:
76,256,14830,2,0,L|176:256,1,100,0|2,0:0|0:0,0:0:0:0:
384,256,15318,1,0,0:0:0:0:
227,192,15561,2,0,L|107:192,1,100,8|0,0:0|0:0,0:0:0:0:
256,192,15927,1,0,0:0:0:0:
384,192,16049,6,0,B|360:96|264:184|248:48,1,200,2|8,0:0|0:0,0:0:0:0:
480,80,16781,2,0,P|432:80|388:104,1,100,0|2,0:0|0:0,0:0:0:0:
192,160,17269,1,0,0:0:0:0:
384,176,17513,2,0,P|440:200|496:200,1,100,8|0,0:0|0:0,0:0:0:0:
128,224,18000,6,0,B|32:192|32:192|128:160,1,200,2|8,0:0|0:0,0:0:0:0:
320,256,18732,2,0,L|220:256,1,100,0|2,0:0|0:0,0:0:0:0:
64,256,19220,1,0,0:0:0:0:
256,160,19464,1,8,0:0:0:0:
64,64,19708,1,0,0:0:0:0:
192,64,19830,1,0,0:0:0:0:
320,64,19952,6,0,P|383:127|384:232,1,200,2|8,0:0|0:0,3:0:0:0:
128,224,20683,2,0,L|0:224,1,100,0|2,0:0|0:0,0:0:0:0:
178,224,21171,1,0,0:0:0:0:
328,224,21415,1,8,0:0:0:0:
480,224,21659,1,0,0:0:0:0:
128,32,21903,6,0,B|32:64|32:64|128:96,1,200,2|8,0:0|0:0,0:0:0:0:
320,192,22635,1,0,0:0:0:0:
96,192,22879,1,0,0:0:0:0:
256,192,23122,1,2,0:0:0:0:
416,192,23366,1,8,0:0:0:0:
160,288,23610,1,0,0:0:0:0:
288,288,23732,1,0,0:0:0:0:
416,288,23854,6,0,B|320:320|320:320|416:352,1,200,2|8,0:0|0:0,0:0:0:0:
280,72,24586,2,0,L|180:72,1,100,0|2,0:0|0:0,0:0:0:0:
40,72,25074,2,0,L|140:72,1,100,0|8,0:0|0:0,0:0:0:0:
32,192,25561,1,0,0:0:0:0:
480,192,25805,6,0,L|352:32,1,200,2|8,0:0|0:0,0:0:0:0:
192,128,26537,2,0,L|292:128,1,100,0|2,0:0|0:0,0:0:0:0:
160,128,27025,1,0,0:0:0:0:
352,128,27269,1,8,0:0:0:0:
160,224,27513,1,2,0:0:0:0:
352,128,27757,5,0,0:0:0:0:
32,224,28000,1,0,0:0:0:0:
384,128,28244,1,0,0:0:0:0:
288,128,28488,1,0,0:0:0:0:
480,128,28732,1,0,0:0:0:0:
160,128,28976,1,4,0:0:0:0:
512,288,29220,5,8,0:0:0:0:
448,288,29342,1,8,0:0:0:0:
384,288,29464,1,8,0:0:0:0:
32,192,29708,2,0,L|144:192,2,100,4|0|8,0:0|0:0|0:0,0:0:0:0:
432,192,30439,1,4,0:0:0:0:
216,192,32635,5,2,0:0:0:0:
400,192,32879,1,0,0:0:0:0:
144,192,33122,1,2,0:0:0:0:
328,192,33366,1,0,0:0:0:0:
80,192,33610,1,4,0:0:0:0:
224,256,33854,1,0,0:0:0:0:
384,288,34098,5,8,0:0:0:0:
256,288,34342,1,0,0:0:0:0:
416,288,34586,1,2,0:0:0:0:
224,288,34830,1,0,0:0:0:0:
448,288,35074,1,8,0:0:0:0:
192,288,35318,1,0,0:0:0:0:
512,256,35561,6,0,B|384:256,2,100,2|0|8,0:0|0:0|0:0,0:0:0:0:
361,256,36293,1,0,0:0:0:0:
210,256,36537,1,2,0:0:0:0:
59,256,36781,1,0,0:0:0:0:
360,192,37025,1,0,0:0:0:0:
464,192,37269,1,0,0:0:0:0:
160,352,37513,6,0,B|256:320|256:320|160:288,1,200,2|8,0:0|0:0,0:0:0:0:
32,224,38244,2,0,L|144:224,2,100,0|2|0,0:0|0:0|0:0,0:0:0:0:
256,160,38976,2,0,L|156:160,1,100,8|0,0:0|0:0,0:0:0:0:
480,160,39464,6,0,B|384:128|384:128|479:104,1,200,0|8,0:0|0:0,0:0:0:0:
256,224,40196,1,0,0:0:0:0:
384,224,40439,1,2,0:0:0:0:
128,224,40683,1,4,0:0:0:0:
256,32,40927,2,0,L|326:102,1,100,8|0,0:0|0:0,0:0:0:0:
197,103,41293,1,0,0:0:0:0:
69,103,41415,6,0,B|165:71|165:71|69:39,1,200,2|8,0:0|0:0,0:0:0:0:
256,192,42147,2,0,L|140:192,1,100,0|2,0:0|0:0,0:0:0:0:
32,192,42635,1,0,0:0:0:0:
224,128,42879,1,8,0:0:0:0:
0,128,43122,1,0,0:0:0:0:
192,32,43366,6,0,L|292:32,2,100,2|0|8,0:0|0:0|0:0,0:0:0:0:
348,32,44098,2,0,L|448:32,1,100,0|2,0:0|0:0,0:0:0:0:
320,96,44586,1,0,0:0:0:0:
192,96,44830,1,8,0:0:0:0:
416,96,45074,1,0,0:0:0:0:
32,352,45318,6,0,B|128:320|128:320|32:288,1,200,0|8,0:0|0:0,0:0:0:0:
184,176,46049,1,0,0:0:0:0:
24,112,46293,1,2,0:0:0:0:
196,108,46537,1,0,0:0:0:0:
36,44,46781,1,8,0:0:0:0:
224,32,47025,1,0,0:0:0:0:
352,32,47147,1,0,0:0:0:0:
480,32,47269,6,0,B|480:128|480:128|386:174,1,200,2|8,0:0|0:0,0:0:0:0:
64,224,48000,2,0,L|164:224,1,100,0|2,0:0|0:0,0:0:0:0:
0,224,48488,1,4,0:0:0:0:
160,288,48732,2,0,B|32:288,1,100,0|4,0:0|0:0,0:0:0:0:
416,352,49220,6,0,B|544:352,2,100,2|0|8,0:0|0:0|0:0,0:0:0:0:
252,256,49952,2,0,L|352:256,1,100,0|2,0:0|0:0,0:0:0:0:
192,256,50439,1,0,0:0:0:0:
32,256,50683,2,0,L|132:256,1,100,8|0,0:0|0:0,0:0:0:0:
480,336,51171,6,0,P|396:288|316:336,1,200,2|8,0:0|0:0,0:0:0:0:
124,192,51903,2,0,L|224:192,1,100,0|2,0:0|0:0,0:0:0:0:
64,192,52391,1,0,0:0:0:0:
352,192,52635,2,0,L|252:192,1,100,8|0,0:0|0:0,0:0:0:0:
160,352,53122,5,2,0:0:0:0:
324,352,53366,1,0,0:0:0:0:
96,288,53610,1,8,0:0:0:0:
408,288,53854,2,0,L|484:211,1,100,0|2,0:0|0:0,0:0:0:0:
256,192,54342,1,4,0:0:0:0:
96,128,54586,6,8,L|45:128,2,50
448,128,55074,2,0,L|348:128,2,100,4|0|8,0:0|0:0|0:0,0:0:0:0:
96,64,55805,1,4,0:0:0:0:
336,192,58000,5,2,0:0:0:0:
96,192,58244,2,0,L|196:192,2,100,0|2|0,0:0|0:0|0:0,0:0:0:0:
400,192,58976,1,4,0:0:0:0:
256,160,59220,1,0,0:0:0:0:
128,96,59464,5,8,0:0:0:0:
288,96,59708,2,0,L|160:96,1,100,0|2,0:0|0:0,0:0:0:0:
352,96,60196,1,0,0:0:0:0:
512,192,60439,1,8,0:0:0:0:
352,256,60683,1,0,0:0:0:0:
192,256,60927,6,0,L|320:256,1,100,2|0,0:0|0:0,0:0:0:0:
144,256,61415,1,8,0:0:0:0:
0,256,61659,2,0,L|128:256,1,100,0|2,0:0|0:0,0:0:0:0:
256,160,62147,2,0,L|128:160,1,100,0|8,0:0|0:0,0:0:0:0:
384,32,62635,1,0,0:0:0:0:
256,32,62757,1,0,0:0:0:0:
128,32,62879,6,0,B|0:32,2,100,2|0|8,0:0|0:0|0:0,0:0:0:0:
352,96,63610,2,0,L|224:96,1,100,0|2,0:0|0:0,0:0:0:0:
416,96,64098,1,0,0:0:0:0:
288,192,64342,1,8,0:0:0:0:
448,192,64586,1,0,0:0:0:0:
224,256,64830,5,2,0:0:0:0:
64,256,65074,1,0,0:0:0:0:
384,288,65318,1,8,0:0:0:0:
480,192,65561,1,0,0:0:0:0:
320,192,65805,1,2,0:0:0:0:
128,192,66049,2,0,L|240:192,1,100,4|8,0:0|0:0,0:0:0:0:
32,192,66537,1,4,0:0:0:0:
416,192,66781,6,0,B|288:192,2,100,2|0|8,0:0|0:0|0:0,0:0:0:0:
160,288,67513,2,0,L|288:288,1,100,0|2,0:0|0:0,0:0:0:0:
96,288,68000,1,0,0:0:0:0:
320,288,68244,1,0,0:0:0:0:
96,224,68488,1,0,0:0:0:0:
416,160,68732,6,0,B|544:160,2,100,2|0|8,0:0|0:0|0:0,0:0:0:0:
256,160,69464,2,0,L|368:160,1,100,2|0,0:0|0:0,0:0:0:0:
480,256,69952,1,0,0:0:0:0:
256,320,70196,1,8,0:0:0:0:
32,192,70439,1,0,0:0:0:0:
160,192,70561,1,0,0:0:0:0:
288,192,70683,6,0,B|397:192,2,100,2|0|8,0:0|0:0|0:0,0:0:0:0:
96,224,71415,2,0,L|128:320,1,100,2|2,0:0|0:0,0:0:0:0:
256,288,71903,1,0,0:0:0:0:
384,288,72147,1,0,0:0:0:0:
192,288,72391,1,0,0:0:0:0:
448,192,72635,5,0,0:0:0:0:
256,192,72879,1,0,0:0:0:0:
56,192,73122,1,0,0:0:0:0:
384,192,73366,1,0,0:0:0:0:
128,192,73610,1,0,0:0:0:0:
448,192,73854,1,4,0:0:0:0:
256,192,74098,1,0,0:0:0:0:
56,192,74342,1,4,0:0:0:0:
384,96,74586,6,0,B|512:96,2,100,2|0|8,0:0|0:0|0:0,0:0:0:0:
224,64,75318,2,0,L|324:64,1,100,2|2,0:0|0:0,0:0:0:0:
160,64,75805,1,0,0:0:0:0:
484,224,76049,2,0,L|384:224,1,100,8|0,0:0|0:0,0:0:0:0:
60,320,76537,6,0,L|160:320,2,100,2|0|8,0:0|0:0|0:0,0:0:0:0:
480,256,77269,2,0,L|352:256,1,100,2|2,0:0|0:0,0:0:0:0:
229,256,77757,1,0,0:0:0:0:
79,256,78000,1,8,0:0:0:0:
229,256,78244,1,0,0:0:0:0:
379,256,78488,5,2,0:0:0:0:
0,352,78732,1,0,0:0:0:0:
128,352,78976,1,8,0:0:0:0:
480,352,79220,2,0,L|352:160,1,200,0|4,0:0|0:0,0:0:0:0:
0,256,79952,5,8,0:0:0:0:
64,256,80074,1,8,0:0:0:0:
128,256,80196,1,8,0:0:0:0:
452,192,80439,2,0,L|352:192,2,100,4|0|8,0:0|0:0|0:0,0:0:0:0:
32,192,81171,1,4,0:0:0:0:
192,192,83366,6,0,L|88:192,2,100,2|0|2,0:0|0:0|0:0,0:0:0:0:
352,192,84098,1,0,0:0:0:0:
32,128,84342,6,0,L|256:128,1,200,4|8,0:0|0:0,0:0:0:0:
480,352,85074,1,0,0:0:0:0:
359,256,85318,1,2,0:0:0:0:
256,96,85561,2,0,B|160:124|160:124|256:164,1,200,2|2,0:0|0:0,0:0:0:0:
480,224,86293,1,2,0:0:0:0:
288,224,86537,1,0,0:0:0:0:
384,224,86781,5,8,0:0:0:0:
32,32,87025,2,0,B|224:128|224:128|32:224|32:224|180:308,1,600,2|8,0:0|0:0,0:0:0:0:
336,352,88000,1,0,0:0:0:0:
478,288,88244,2,0,B|344:244|344:244|387:204,1,200,2|8,0:0|0:0,0:0:0:0:
512,192,88976,1,0,0:0:0:0:
192,192,89220,1,2,0:0:0:0:
352,192,89464,1,0,0:0:0:0:
128,160,89708,5,8,0:0:0:0:
64,160,89952,1,0,0:0:0:0:
384,96,90196,2,0,B|484:116|484:116|392:160,2,200,2|8|2,0:0|0:0|0:0,0:0:0:0:
192,96,91415,1,0,0:0:0:0:
96,96,91659,1,8,0:0:0:0:
384,96,91903,1,0,0:0:0:0:
64,160,92147,6,0,L|172:160,2,100,6|0|8,0:0|0:0|0:0,0:0:0:0:
256,160,92879,1,0,0:0:0:0:
106,160,93122,1,2,0:0:0:0:
320,160,93366,1,0,0:0:0:0:
224,160,93610,5,8,0:0:0:0:
384,160,93854,1,0,0:0:0:0:
160,160,94098,1,2,0:0:0:0:
448,160,94342,1,0,0:0:0:0:
224,160,94586,1,8,0:0:0:0:
416,344,94830,6,0,B|248:224|248:224|428:256|428:256|249:144,1,600,0|8,0:0|0:0,0:0:0:0:
30,184,95805,1,0,0:0:0:0:
100,184,95927,1,0,0:0:0:0:
168,52,96049,2,0,B|380:52|380:52|68:292|68:292|264:248|264:248|432:352,1,1000
192,192,97513,6,0,L|88:192,1,100,8|0,0:0|0:0,0:0:0:0:
256,192,98000,1,2,0:0:0:0:
416,192,98244,1,0,0:0:0:0:
320,192,98488,1,8,0:0:0:0:
32,192,98732,2,0,B|128:160|128:160|228:192,1,200
432,190,99586,1,0,0:0:0:0:
64,80,99952,1,4,0:0:0:0:
363,80,100439,5,8,0:0:0:0:
480,256,100683,2,0,L|409:326,1,100,0|2,0:0|0:0,0:0:0:0:
224,192,101171,1,0,0:0:0:0:
416,192,101415,1,8,0:0:0:0:
288,192,101659,1,0,0:0:0:0:
480,192,101903,1,2,0:0:0:0:
160,256,102147,1,0,0:0:0:0:
64,256,102391,5,8,0:0:0:0:
479,191,102635,2,0,P|409:121|317:84,2,200
256,192,103854,1,2,0:0:0:0:
352,192,104098,1,0,0:0:0:0:
160,192,104342,1,8,0:0:0:0:
352,288,104586,6,0,L|152:288,1,200
302,288,105318,2,0,L|448:288,1,100,8|0,0:0|0:0,0:0:0:0:
32,192,105805,1,2,0:0:0:0:
384,192,106049,1,8,0:0:0:0:
480,192,106293,5,0,0:0:0:0:
128,192,106537,1,8,0:0:0:0:
320,192,106781,1,8,0:0:0:0:
256,192,106903,1,8,0:0:0:0:
192,192,107025,1,8,0:0:0:0:
384,192,107269,2,0,L|499:192,1,100,8|8,0:0|0:0,0:0:0:0:
160,32,107757,6,0,B|268:108|268:108|144:104|144:104|264:192,1,400,4|8,0:0|0:0,0:0:0:0:
400,311,108488,1,0,0:0:0:0:
256,332,108732,1,2,0:0:0:0:
118,311,108976,1,0,0:0:0:0:
448,256,109220,6,0,B|356:164|356:164|488:200|488:200|393:105,1,400,8|2,0:0|0:0,0:0:0:0:
288,64,109952,2,0,L|416:64,1,100,0|8,0:0|0:0,0:0:0:0:
252,128,110439,1,0,0:0:0:0:
96,160,110683,2,0,L|224:160,1,100,2|0,0:0|0:0,0:0:0:0:
352,192,111171,5,8,0:0:0:0:
448,288,111415,1,0,0:0:0:0:
256,288,111659,2,0,L|156:288,2,100,2|0|8,0:0|0:0|0:0,0:0:0:0:
395,196,112391,1,0,0:0:0:0:
32,352,112635,6,0,B|80:148,1,200,2|8,0:0|0:0,0:0:0:0:
256,192,113366,1,0,0:0:0:0:
192,160,113488,1,0,0:0:0:0:
256,128,113610,1,2,0:0:0:0:
480,352,113854,2,0,B|432:148,1,200,0|0,0:0|0:0,0:0:0:0:
32,32,114586,6,0,B|32:132|32:132|136:132,1,200,2|8,0:0|0:0,0:0:0:0:
224,224,115318,1,0,0:0:0:0:
288,192,115439,1,0,0:0:0:0:
224,160,115561,1,2,0:0:0:0:
480,224,115805,2,0,B|480:128|480:128|352:128,1,200
128,96,116537,1,2,0:0:0:0:
245,55,116781,1,0,0:0:0:0:
384,96,117025,5,8,0:0:0:0:
211,196,117269,1,0,0:0:0:0:
161,245,117391,1,0,0:0:0:0:
111,294,117513,2,0,B|152:324|152:324|216:320,2,100,2|0|8,0:0|0:0|0:0,0:0:0:0:
40,176,118244,1,0,0:0:0:0:
112,56,118488,1,2,0:0:0:0:
472,192,118732,2,0,L|368:192,2,100,0|8|0,0:0|0:0|0:0,0:0:0:0:
260,324,119464,6,0,B|32:324|32:324|256:192|256:192|24:56|24:56|268:56,1,1000
416,64,120927,2,0,L|516:64,1,100,8|0,0:0|0:0,0:0:0:0:
252,128,121415,2,0,L|352:128,1,100,2|0,0:0|0:0,0:0:0:0:
192,160,121903,1,8,0:0:0:0:
320,32,122147,1,0,0:0:0:0:
128,32,122391,1,2,0:0:0:0:
256,32,122635,1,0,0:0:0:0:
64,32,122879,5,8,0:0:0:0:
256,96,123122,1,0,0:0:0:0:
320,128,123244,1,0,0:0:0:0:
256,160,123366,1,2,0:0:0:0:
480,192,123610,2,0,L|380:192,1,100,0|8,0:0|0:0,0:0:0:0:
192,256,124098,2,0,L|320:256,1,100,0|2,0:0|0:0,0:0:0:0:
96,192,124586,6,0,B|0:160|0:160|93:127,1,200
416,188,125318,2,0,B|512:156|512:156|418:123,1,200,2|8,0:0|0:0,0:0:0:0:
320,32,126049,1,0,0:0:0:0:
0,256,126293,2,0,L|100:256,1,100,2|0,0:0|0:0,0:0:0:0:
380,256,126781,2,0,L|480:256,2,100,8|0|2,0:0|0:0|0:0,0:0:0:0:
32,192,127513,5,0,0:0:0:0:
448,192,127757,1,8,0:0:0:0:
256,192,128000,2,0,L|156:192,2,100,0|2|4,0:0|0:0|0:0,0:0:0:0:
40,192,128732,6,8,L|104:192,2,50
416,192,129220,2,0,L|312:192,2,100,4|0|8,0:0|0:0|0:0,0:0:0:0:
32,96,129952,1,4,0:0:0:0:
256,192,130196,12,8,131659,0:0:0:0:
296,192,132147,5,2,0:0:0:0:
112,192,132391,1,0,0:0:0:0:
368,192,132635,1,2,0:0:0:0:
184,192,132879,1,0,0:0:0:0:
432,192,133122,1,4,0:0:0:0:
32,256,133610,5,0,0:0:0:0:
192,256,133854,2,0,L|92:256,1,100,0|2,0:0|0:0,0:0:0:0:
232,256,134342,1,0,0:0:0:0:
372,256,134586,1,8,0:0:0:0:
512,255,134830,1,0,0:0:0:0:
160,128,135074,6,0,B|64:96|64:96|160:64,1,200,2|8,0:0|0:0,0:0:0:0:
320,128,135805,2,0,L|192:128,1,100
352,224,136293,1,0,0:0:0:0:
480,224,136537,1,8,0:0:0:0:
64,64,136781,1,0,0:0:0:0:
192,64,136903,1,0,0:0:0:0:
320,64,137025,6,0,B|220:64|220:64|320:64,1,200,2|8,0:0|0:0,0:0:0:0:
480,128,137757,2,0,L|380:128,1,100,0|2,0:0|0:0,0:0:0:0:
208,192,138244,1,0,0:0:0:0:
32,256,138488,2,0,L|144:256,1,100,8|0,0:0|0:0,0:0:0:0:
416,256,138976,6,0,B|512:224|512:224|416:192,1,200,2|0,0:0|0:0,0:0:0:0:
256,256,139708,2,0,L|128:256,1,100,0|2,0:0|0:0,0:0:0:0:
256,192,140196,1,4,0:0:0:0:
44,192,140439,2,0,L|148:192,1,100,8|4,0:0|0:0,0:0:0:0:
480,192,140927,6,0,B|384:160|384:160|488:128,1,200,2|8,0:0|0:0,0:0:0:0:
320,128,141659,2,0,L|220:128,1,100,0|2,0:0|0:0,0:0:0:0:
384,192,142147,1,0,0:0:0:0:
512,192,142391,1,8,0:0:0:0:
384,192,142635,1,0,0:0:0:0:
96,188,142879,6,0,B|0:156|0:156|96:124,1,200,2|8,0:0|0:0,0:0:0:0:
256,192,143610,2,0,L|360:192,1,100,0|2,0:0|0:0,0:0:0:0:
192,256,144098,2,0,L|88:256,1,100,0|8,0:0|0:0,0:0:0:0:
256,256,144586,1,0,0:0:0:0:
384,256,144708,1,0,0:0:0:0:
480,256,144830,6,0,P|472:164|384:96,1,200,0|8,0:0|0:0,0:0:0:0:
224,192,145561,2,0,L|352:192,1,100,0|2,0:0|0:0,0:0:0:0:
36,96,146049,1,0,0:0:0:0:
224,96,146293,1,8,0:0:0:0:
32,160,146537,1,0,0:0:0:0:
416,352,146781,6,0,L|512:160,1,200,2|8,0:0|0:0,0:0:0:0:
96,352,147513,2,0,L|224:352,1,100,0|2,0:0|0:0,0:0:0:0:
320,224,148000,1,0,0:0:0:0:
64,224,148244,2,0,L|168:224,1,100,8|4,0:0|0:0,0:0:0:0:
384,96,148732,6,0,B|288:64|288:64|384:32,1,200,2|8,0:0|0:0,0:0:0:0:
192,64,149464,1,0,0:0:0:0:
32,128,149708,1,2,0:0:0:0:
192,192,149952,1,0,0:0:0:0:
380,192,150196,2,0,L|480:192,1,100,8|0,0:0|0:0,0:0:0:0:
32,352,150683,6,0,B|128:320|128:320|32:288,1,200,2|8,0:0|0:0,0:0:0:0:
300,320,151415,2,0,L|196:320,1,100,0|2,0:0|0:0,0:0:0:0:
368,288,151903,1,0,0:0:0:0:
512,256,152147,2,0,L|412:256,1,100,8|0,0:0|0:0,0:0:0:0:
192,352,152635,5,2,0:0:0:0:
320,352,152879,1,0,0:0:0:0:
68,288,153122,1,8,0:0:0:0:
384,288,153366,2,0,L|284:288,1,100,0|2,0:0|0:0,0:0:0:0:
508,224,153854,1,4,0:0:0:0:
384,96,154098,6,8,L|334:96,2,50
96,160,154586,1,4,0:0:0:0:
192,96,154830,1,0,0:0:0:0:
96,32,155074,1,8,0:0:0:0:
480,32,155318,1,4,0:0:0:0:
64,192,157513,5,2,0:0:0:0:
416,192,157757,1,0,0:0:0:0:
288,192,158000,1,10,0:0:0:0:
416,192,158244,1,0,0:0:0:0:
64,192,158488,1,4,0:0:0:0:
288,192,158976,6,0,L|416:192,1,100,8|0,0:0|0:0,0:0:0:0:
224,192,159464,1,2,0:0:0:0:
448,128,159708,2,0,L|320:128,1,100,0|8,0:0|0:0,0:0:0:0:
512,128,160196,1,0,0:0:0:0:
192,192,160439,6,0,L|88:192,2,100,2|0|8,0:0|0:0|0:0,0:0:0:0:
32,192,161171,1,0,0:0:0:0:
192,128,161415,2,0,L|320:128,1,100,2|0,0:0|0:0,0:0:0:0:
128,128,161903,2,0,L|0:128,1,100,8|0,0:0|0:0,0:0:0:0:
448,128,162391,6,0,L|344:128,2,100,2|0|8,0:0|0:0|0:0,0:0:0:0:
288,128,163122,2,0,L|160:128,1,100,0|2,0:0|0:0,0:0:0:0:
336,192,163610,1,0,0:0:0:0:
480,256,163854,2,0,L|352:256,1,100,8|0,0:0|0:0,0:0:0:0:
160,352,164342,5,0,0:0:0:0:
64,288,164586,1,0,0:0:0:0:
256,224,164830,1,0,0:0:0:0:
448,160,165074,1,0,0:0:0:0:
352,128,165318,1,0,0:0:0:0:
32,192,165561,2,0,L|132:192,2,100
480,192,166293,6,0,L|352:192,2,100,4|0|8,0:0|0:0|0:0,0:0:0:0:
308,192,167025,2,0,L|208:192,1,100,0|2,0:0|0:0,0:0:0:0:
36,192,167513,2,0,L|136:192,1,100,0|8,0:0|0:0,0:0:0:0:
384,256,168000,1,0,0:0:0:0:
32,128,168244,6,0,L|160:128,2,100,2|2|8,0:0|0:0|0:0,0:0:0:0:
256,80,168976,1,0,0:0:0:0:
480,128,169220,1,2,0:0:0:0:
256,160,169464,1,0,0:0:0:0:
27,224,169708,2,0,L|127:224,1,100,8|0,0:0|0:0,0:0:0:0:
256,224,170074,1,0,0:0:0:0:
384,224,170196,6,0,B|512:224,2,100,2|0|8,0:0|0:0|0:0,0:0:0:0:
208,300,170927,2,0,L|308:300,1,100,2|2,0:0|0:0,0:0:0:0:
480,160,171415,1,0,0:0:0:0:
236,136,171659,1,8,0:0:0:0:
460,104,171903,1,0,0:0:0:0:
224,192,172147,5,0,0:0:0:0:
32,192,172391,1,0,0:0:0:0:
288,192,172635,1,0,0:0:0:0:
96,192,172879,1,0,0:0:0:0:
352,192,173122,1,0,0:0:0:0:
160,192,173366,1,0,0:0:0:0:
352,192,173610,1,0,0:0:0:0:
32,192,173854,1,0,0:0:0:0:
416,256,174098,6,0,L|316:256,2,100,4|0|8,0:0|0:0|0:0,0:0:0:0:
156,256,174830,2,0,L|256:256,1,100,0|2,0:0|0:0,0:0:0:0:
96,256,175318,1,0,0:0:0:0:
352,192,175561,2,0,L|352:64,1,100,8|0,0:0|0:0,0:0:0:0:
32,192,176049,6,0,L|144:192,2,100,2|0|8,0:0|0:0|0:0,0:0:0:0:
204,252,176781,2,0,L|304:252,1,100,2|2,0:0|0:0,0:0:0:0:
448,256,177269,1,0,0:0:0:0:
256,320,177513,1,8,0:0:0:0:
64,256,177757,1,0,0:0:0:0:
384,128,178000,5,0,0:0:0:0:
160,128,178244,1,0,0:0:0:0:
480,224,178488,1,0,0:0:0:0:
160,128,178732,1,0,0:0:0:0:
32,224,178976,1,0,0:0:0:0:
336,224,179220,1,4,0:0:0:0:
448,320,179464,6,0,L|480:288,3,33.3333333333333,8|8|8|8,0:0|0:0|0:0|0:0,0:0:0:0:
136,288,179952,2,0,L|36:288,2,100,4|0|8,0:0|0:0|0:0,0:0:0:0:
480,288,180683,6,0,L|352:288,2,100,4|2|0,0:0|0:0|0:0,0:0:0:0:
320,224,181415,1,8,0:0:0:0:
192,224,181659,1,0,0:0:0:0:
320,160,181903,1,2,0:0:0:0:
128,192,182147,1,0,0:0:0:0:
384,192,182391,1,8,0:0:0:0:
256,192,182635,12,4,183855,0:0:0:0:
