osu file format v14

[General]
AudioFilename: Intoxicados - Esta Saliendo El Sol.mp3
AudioLeadIn: 1500
PreviewTime: 7269
Countdown: 0
SampleSet: Normal
StackLeniency: 0.7
Mode: 1
LetterboxInBreaks: 0
WidescreenStoryboard: 1

[Editor]
DistanceSpacing: 1.3
BeatDivisor: 4
GridSize: 4
TimelineZoom: 1.8

[Metadata]
Title:Esta saliendo el sol
TitleUnicode:Está saliendo el sol
Artist:Intoxicados
ArtistUnicode:Intoxicados
Creator:Manuxz
Version:Hanjamon's Oni
Source:
Tags:Hanjamon Neku okazaki Pity Alvarez No es solo rock and roll
BeatmapID:321250
BeatmapSetID:93205

[Difficulty]
HPDrainRate:6
CircleSize:5
OverallDifficulty:5
ApproachRate:5
SliderMultiplier:1.4
SliderTickRate:1

[Events]
//Background and Video events
0,0,"FASO.jpg",0,0
//Break Periods
//Storyboard Layer 0 (Background)
//Storyboard Layer 1 (Fail)
//Storyboard Layer 2 (Pass)
//Storyboard Layer 3 (Foreground)
//Storyboard Sound Samples

[TimingPoints]
440,487.80487804878,4,1,0,90,1,0
58976,-100,4,1,0,90,0,1
81171,-100,4,1,0,90,0,0
158488,-100,4,1,0,90,0,1
180683,-100,4,1,0,90,0,0

[Colours]
Combo1 : 226,217,103
Combo2 : 164,164,164
Combo3 : 217,173,145
Combo4 : 233,133,133

[HitObjects]
236,192,440,5,12,0:0:0:0:
196,168,927,1,8,0:0:0:0:
196,168,1171,1,0,0:0:0:0:
284,192,1415,1,0,0:0:0:0:
196,168,1659,1,0,0:0:0:0:
196,168,1903,1,8,0:0:0:0:
196,168,2391,1,0,0:0:0:0:
196,168,2879,1,8,0:0:0:0:
284,192,3122,1,0,0:0:0:0:
292,196,3366,1,0,0:0:0:0:
196,168,3610,1,0,0:0:0:0:
196,168,3854,1,8,0:0:0:0:
196,168,4098,1,0,0:0:0:0:
196,168,4342,1,8,0:0:0:0:
196,168,4830,1,8,0:0:0:0:
196,168,5074,1,0,0:0:0:0:
196,168,5561,1,4,0:0:0:0:
196,168,5805,1,8,0:0:0:0:
196,168,5927,1,0,0:0:0:0:
196,168,6049,1,0,0:0:0:0:
196,168,6293,1,12,0:0:0:0:
216,204,7269,1,8,0:0:0:0:
216,204,7513,1,0,0:0:0:0:
216,204,7757,1,8,0:0:0:0:
216,204,8000,1,0,0:0:0:0:
216,204,8244,1,12,0:0:0:0:
216,204,8732,1,8,0:0:0:0:
216,204,8976,1,0,0:0:0:0:
216,204,9220,1,8,0:0:0:0:
216,204,9708,1,8,0:0:0:0:
216,204,9952,1,0,0:0:0:0:
216,204,10439,1,0,0:0:0:0:
216,204,10683,1,8,0:0:0:0:
216,204,10927,1,8,0:0:0:0:
216,204,11171,1,0,0:0:0:0:
216,204,11415,1,0,0:0:0:0:
216,204,11659,1,8,0:0:0:0:
216,204,11903,1,8,0:0:0:0:
216,204,12025,1,8,0:0:0:0:
216,204,12147,1,0,0:0:0:0:
304,184,12391,1,0,0:0:0:0:
216,204,12635,1,8,0:0:0:0:
216,204,12879,1,8,0:0:0:0:
216,204,13122,1,0,0:0:0:0:
216,204,13366,1,8,0:0:0:0:
216,204,13610,1,8,0:0:0:0:
216,204,13854,1,0,0:0:0:0:
216,204,14098,1,0,0:0:0:0:
216,204,14586,1,8,0:0:0:0:
216,204,14830,1,0,0:0:0:0:
296,248,15074,1,0,0:0:0:0:
216,204,15318,1,0,0:0:0:0:
216,204,15561,1,8,0:0:0:0:
332,164,15805,1,8,0:0:0:0:
332,164,15927,1,0,0:0:0:0:
332,164,16049,1,0,0:0:0:0:
216,204,16293,1,0,0:0:0:0:
216,204,16537,1,8,0:0:0:0:
216,204,16781,1,0,0:0:0:0:
216,204,17025,1,8,0:0:0:0:
216,204,17513,1,8,0:0:0:0:
216,204,17757,1,0,0:0:0:0:
216,204,18000,1,8,0:0:0:0:
216,204,18244,1,0,0:0:0:0:
260,196,18366,1,0,0:0:0:0:
216,204,18488,1,8,0:0:0:0:
216,204,18732,1,8,0:0:0:0:
236,192,18976,1,0,0:0:0:0:
236,192,19220,1,8,0:0:0:0:
236,192,19464,1,8,0:0:0:0:
216,204,19708,1,8,0:0:0:0:
216,204,19830,1,8,0:0:0:0:
216,204,19952,1,0,0:0:0:0:
216,204,20439,1,8,0:0:0:0:
216,204,20683,1,0,0:0:0:0:
288,260,20927,1,0,0:0:0:0:
248,232,21415,1,8,0:0:0:0:
248,232,21659,1,0,0:0:0:0:
248,232,21903,1,8,0:0:0:0:
248,232,22147,1,0,0:0:0:0:
248,232,22391,1,8,0:0:0:0:
248,232,22635,1,8,0:0:0:0:
248,232,22879,1,0,0:0:0:0:
252,224,23122,1,12,0:0:0:0:
248,232,23366,1,8,0:0:0:0:
248,232,23610,1,8,0:0:0:0:
248,232,23732,1,8,0:0:0:0:
248,232,23854,1,0,0:0:0:0:
248,232,24098,1,0,0:0:0:0:
280,208,24220,1,0,0:0:0:0:
248,232,24342,1,8,0:0:0:0:
252,224,24586,1,0,0:0:0:0:
248,232,24830,1,8,0:0:0:0:
248,232,25074,1,0,0:0:0:0:
248,232,25318,1,8,0:0:0:0:
248,232,25561,1,8,0:0:0:0:
256,240,25805,1,0,0:0:0:0:
248,232,26293,1,8,0:0:0:0:
248,232,26537,1,0,0:0:0:0:
248,232,27025,1,0,0:0:0:0:
256,240,27269,1,8,0:0:0:0:
248,232,27513,1,8,0:0:0:0:
248,232,27635,1,0,0:0:0:0:
248,232,27757,1,0,0:0:0:0:
248,232,28000,1,8,0:0:0:0:
280,264,28122,1,8,0:0:0:0:
248,232,28244,1,0,0:0:0:0:
280,264,28366,1,0,0:0:0:0:
248,232,28488,1,8,0:0:0:0:
256,240,28732,1,0,0:0:0:0:
248,232,28976,1,8,0:0:0:0:
248,232,29220,1,0,0:0:0:0:
248,232,29342,1,0,0:0:0:0:
248,232,29464,1,8,0:0:0:0:
248,232,29708,1,4,0:0:0:0:
248,232,29952,1,12,0:0:0:0:
248,232,30439,1,4,0:0:0:0:
248,232,32635,1,8,0:0:0:0:
248,232,32879,1,8,0:0:0:0:
248,232,33122,1,0,0:0:0:0:
248,232,33366,1,0,0:0:0:0:
248,232,33610,1,8,0:0:0:0:
248,232,33854,1,0,0:0:0:0:
248,232,34098,1,8,0:0:0:0:
248,232,34342,1,8,0:0:0:0:
248,232,34586,1,0,0:0:0:0:
248,232,34708,1,0,0:0:0:0:
248,232,34830,1,0,0:0:0:0:
248,232,35074,1,8,0:0:0:0:
232,228,35318,1,0,0:0:0:0:
232,228,35805,1,0,0:0:0:0:
232,228,36049,1,8,0:0:0:0:
232,228,36293,1,8,0:0:0:0:
232,228,36781,1,0,0:0:0:0:
232,228,37025,1,8,0:0:0:0:
232,228,37147,1,0,0:0:0:0:
232,228,37269,1,8,0:0:0:0:
232,228,37513,1,0,0:0:0:0:
232,228,38000,1,8,0:0:0:0:
232,228,38244,1,8,0:0:0:0:
232,228,38488,1,0,0:0:0:0:
232,228,38732,1,0,0:0:0:0:
232,228,38976,1,8,0:0:0:0:
232,228,39098,1,8,0:0:0:0:
232,228,39220,1,0,0:0:0:0:
232,228,39464,1,0,0:0:0:0:
232,228,39952,1,8,0:0:0:0:
232,228,40196,1,0,0:0:0:0:
232,228,40683,1,0,0:0:0:0:
232,260,40805,1,0,0:0:0:0:
232,228,40927,1,8,0:0:0:0:
232,228,41171,1,8,0:0:0:0:
232,228,41293,1,8,0:0:0:0:
232,228,41415,1,0,0:0:0:0:
256,200,41659,1,0,0:0:0:0:
336,164,41903,1,8,0:0:0:0:
256,200,42147,1,0,0:0:0:0:
256,200,42391,1,8,0:0:0:0:
256,200,42635,1,8,0:0:0:0:
232,228,42879,1,8,0:0:0:0:
232,228,43122,1,0,0:0:0:0:
256,200,43366,1,0,0:0:0:0:
256,252,43488,1,0,0:0:0:0:
256,200,43610,1,8,0:0:0:0:
256,200,43854,1,8,0:0:0:0:
256,252,43976,1,0,0:0:0:0:
256,200,44098,1,8,0:0:0:0:
252,208,44342,1,0,0:0:0:0:
256,252,44464,1,0,0:0:0:0:
256,200,44586,1,8,0:0:0:0:
252,208,44830,1,8,0:0:0:0:
328,204,45074,1,0,0:0:0:0:
256,200,45318,1,0,0:0:0:0:
256,200,45561,1,0,0:0:0:0:
256,200,45805,1,8,0:0:0:0:
252,208,46049,1,0,0:0:0:0:
256,200,46537,1,0,0:0:0:0:
256,200,46781,1,8,0:0:0:0:
252,168,47025,1,0,0:0:0:0:
256,200,47147,1,8,0:0:0:0:
252,168,47269,1,8,0:0:0:0:
256,200,47391,1,8,0:0:0:0:
252,168,47513,1,0,0:0:0:0:
256,200,47757,1,8,0:0:0:0:
252,168,48000,1,8,0:0:0:0:
256,200,48122,1,8,0:0:0:0:
256,200,48244,1,0,0:0:0:0:
220,220,48488,1,12,0:0:0:0:
220,220,48732,1,0,0:0:0:0:
220,220,48976,1,12,0:0:0:0:
220,220,49220,1,0,0:0:0:0:
220,220,49464,1,0,0:0:0:0:
256,200,49708,1,8,0:0:0:0:
256,200,49952,1,0,0:0:0:0:
256,200,50074,1,0,0:0:0:0:
256,200,50196,1,8,0:0:0:0:
256,200,50439,1,8,0:0:0:0:
256,200,50683,1,8,0:0:0:0:
256,200,50927,1,0,0:0:0:0:
240,208,51171,1,0,0:0:0:0:
256,200,51659,1,8,0:0:0:0:
256,200,51903,1,0,0:0:0:0:
252,160,52391,1,0,0:0:0:0:
252,160,52635,1,8,0:0:0:0:
252,160,52879,1,8,0:0:0:0:
256,200,53000,1,8,0:0:0:0:
252,160,53122,1,0,0:0:0:0:
248,180,53366,1,0,0:0:0:0:
252,160,53610,5,8,0:0:0:0:
252,160,53854,1,8,0:0:0:0:
260,192,54342,1,0,0:0:0:0:
260,192,54586,1,0,0:0:0:0:
260,192,54708,1,0,0:0:0:0:
260,192,54830,1,8,0:0:0:0:
260,192,55074,1,4,0:0:0:0:
260,192,55318,1,12,0:0:0:0:
260,192,55805,1,4,0:0:0:0:
284,212,58000,1,0,0:0:0:0:
284,212,58244,1,8,0:0:0:0:
240,196,58366,1,8,0:0:0:0:
284,212,58488,1,0,0:0:0:0:
284,212,58732,1,8,0:0:0:0:
284,212,58976,1,4,0:0:0:0:
256,180,59220,1,0,0:0:0:0:
284,212,59464,1,8,0:0:0:0:
284,212,59708,1,0,0:0:0:0:
284,212,59952,1,8,0:0:0:0:
284,212,60196,1,8,0:0:0:0:
284,212,60439,1,0,0:0:0:0:
284,212,60683,1,8,0:0:0:0:
284,212,60927,1,8,0:0:0:0:
284,212,61171,1,0,0:0:0:0:
284,212,61415,1,8,0:0:0:0:
284,212,61659,1,8,0:0:0:0:
284,212,61903,1,0,0:0:0:0:
284,212,62391,1,8,0:0:0:0:
332,216,62635,1,8,0:0:0:0:
332,216,62757,1,8,0:0:0:0:
332,216,62879,1,0,0:0:0:0:
332,216,63122,1,8,0:0:0:0:
332,216,63366,1,8,0:0:0:0:
332,216,63610,1,0,0:0:0:0:
332,216,63854,1,8,0:0:0:0:
332,216,64098,1,0,0:0:0:0:
324,212,64586,1,8,0:0:0:0:
324,212,64830,1,8,0:0:0:0:
324,212,65074,1,0,0:0:0:0:
324,212,65318,1,8,0:0:0:0:
324,212,65561,1,8,0:0:0:0:
332,216,65805,1,0,0:0:0:0:
324,212,66049,1,8,0:0:0:0:
296,200,66171,1,8,0:0:0:0:
296,200,66293,1,0,0:0:0:0:
296,200,66415,1,0,0:0:0:0:
324,212,66537,1,8,0:0:0:0:
324,212,66659,1,8,0:0:0:0:
324,212,66781,1,0,0:0:0:0:
252,264,67025,1,0,0:0:0:0:
312,244,67269,1,8,0:0:0:0:
260,212,67513,1,8,0:0:0:0:
260,212,67757,1,0,0:0:0:0:
260,212,68000,1,0,0:0:0:0:
232,248,68122,1,0,0:0:0:0:
260,212,68244,1,8,0:0:0:0:
260,212,68488,1,0,0:0:0:0:
260,212,68610,1,0,0:0:0:0:
260,212,68732,1,8,0:0:0:0:
260,212,68976,1,0,0:0:0:0:
260,212,69220,1,8,0:0:0:0:
260,212,69464,1,8,0:0:0:0:
260,212,69952,1,0,0:0:0:0:
340,236,70196,1,8,0:0:0:0:
260,212,70439,1,8,0:0:0:0:
260,212,70561,1,0,0:0:0:0:
260,212,70683,1,8,0:0:0:0:
260,212,70927,1,0,0:0:0:0:
260,212,71171,1,8,0:0:0:0:
260,212,71415,1,0,0:0:0:0:
260,212,71903,1,0,0:0:0:0:
260,212,72147,1,8,0:0:0:0:
260,212,72391,1,0,0:0:0:0:
256,168,72513,1,0,0:0:0:0:
332,168,72635,1,0,0:0:0:0:
260,212,72879,1,8,0:0:0:0:
260,212,73122,1,8,0:0:0:0:
260,212,73366,1,0,0:0:0:0:
260,212,73610,1,0,0:0:0:0:
260,212,73854,1,8,0:0:0:0:
260,212,73976,1,8,0:0:0:0:
260,212,74098,1,0,0:0:0:0:
228,200,74342,1,8,0:0:0:0:
228,200,74464,1,8,0:0:0:0:
228,200,74586,1,0,0:0:0:0:
260,212,75074,1,8,0:0:0:0:
260,212,75318,1,0,0:0:0:0:
260,212,75561,1,8,0:0:0:0:
260,212,75805,1,0,0:0:0:0:
260,212,76049,1,8,0:0:0:0:
260,212,76293,1,8,0:0:0:0:
260,212,76537,1,0,0:0:0:0:
260,212,77025,1,8,0:0:0:0:
260,212,77269,1,0,0:0:0:0:
384,188,77513,1,0,0:0:0:0:
260,212,77757,1,0,0:0:0:0:
260,212,78000,1,8,0:0:0:0:
260,212,78244,1,8,0:0:0:0:
264,148,78366,1,8,0:0:0:0:
260,212,78488,1,0,0:0:0:0:
260,212,78732,1,0,0:0:0:0:
260,212,78976,1,8,0:0:0:0:
260,212,79220,1,8,0:0:0:0:
188,184,79708,1,0,0:0:0:0:
288,236,79952,1,8,0:0:0:0:
288,236,80074,1,0,0:0:0:0:
260,212,80196,1,8,0:0:0:0:
256,280,80439,1,4,0:0:0:0:
256,280,80683,1,12,0:0:0:0:
256,280,81171,1,4,0:0:0:0:
240,232,83366,1,0,0:0:0:0:
240,232,83610,1,0,0:0:0:0:
280,252,83732,1,0,0:0:0:0:
240,232,83854,1,8,0:0:0:0:
240,232,84098,1,0,0:0:0:0:
240,232,84342,1,8,0:0:0:0:
208,244,84830,1,8,0:0:0:0:
240,232,85074,1,0,0:0:0:0:
204,256,85196,1,8,0:0:0:0:
240,232,85318,1,8,0:0:0:0:
240,232,85439,1,0,0:0:0:0:
240,232,85561,1,8,0:0:0:0:
240,232,85805,1,8,0:0:0:0:
240,232,86049,1,0,0:0:0:0:
240,232,86171,1,8,0:0:0:0:
240,232,86293,1,0,0:0:0:0:
240,232,86537,1,0,0:0:0:0:
240,232,86781,1,8,0:0:0:0:
240,232,87025,1,8,0:0:0:0:
240,232,87513,1,8,0:0:0:0:
240,232,87757,1,8,0:0:0:0:
240,232,88000,1,0,0:0:0:0:
264,204,88244,1,0,0:0:0:0:
264,204,88488,1,0,0:0:0:0:
240,232,88732,1,8,0:0:0:0:
240,232,88976,1,0,0:0:0:0:
240,232,89220,1,8,0:0:0:0:
264,204,89342,1,8,0:0:0:0:
240,232,89464,1,0,0:0:0:0:
264,204,89586,1,0,0:0:0:0:
264,204,89708,1,8,0:0:0:0:
264,204,89952,1,8,0:0:0:0:
240,168,90074,1,8,0:0:0:0:
240,232,90196,1,0,0:0:0:0:
240,232,90683,1,8,0:0:0:0:
296,224,90927,1,0,0:0:0:0:
264,204,91171,1,0,0:0:0:0:
260,212,91415,1,0,0:0:0:0:
240,232,91537,1,0,0:0:0:0:
260,212,91659,1,8,0:0:0:0:
240,232,91781,1,0,0:0:0:0:
260,212,91903,1,8,0:0:0:0:
260,212,92147,1,4,0:0:0:0:
260,212,92635,1,8,0:0:0:0:
220,200,92879,1,8,0:0:0:0:
260,212,93000,1,8,0:0:0:0:
260,212,93122,1,0,0:0:0:0:
260,212,93244,1,0,0:0:0:0:
260,212,93366,1,0,0:0:0:0:
260,212,93610,1,8,0:0:0:0:
260,212,93854,1,8,0:0:0:0:
260,212,93976,1,8,0:0:0:0:
260,212,94098,1,0,0:0:0:0:
260,212,94342,1,0,0:0:0:0:
240,196,94586,1,8,0:0:0:0:
240,196,94830,1,0,0:0:0:0:
260,212,95318,1,0,0:0:0:0:
260,212,95561,1,8,0:0:0:0:
260,212,95805,1,8,0:0:0:0:
240,196,95927,1,8,0:0:0:0:
260,212,96049,1,8,0:0:0:0:
260,212,96293,1,0,0:0:0:0:
260,212,96537,1,8,0:0:0:0:
260,212,96781,1,0,0:0:0:0:
260,212,97269,1,0,0:0:0:0:
260,212,97513,1,8,0:0:0:0:
312,200,97635,1,8,0:0:0:0:
260,212,97757,1,0,0:0:0:0:
260,212,98000,1,8,0:0:0:0:
260,212,98122,1,0,0:0:0:0:
260,212,98244,1,8,0:0:0:0:
260,212,98488,1,8,0:0:0:0:
260,212,98732,1,8,0:0:0:0:
260,212,98976,1,0,0:0:0:0:
260,212,99220,1,8,0:0:0:0:
176,208,99464,1,0,0:0:0:0:
264,252,99708,1,8,0:0:0:0:
324,224,99830,1,8,0:0:0:0:
264,252,99952,1,0,0:0:0:0:
264,252,100439,1,8,0:0:0:0:
260,212,100683,1,0,0:0:0:0:
260,212,100805,1,0,0:0:0:0:
264,252,100927,1,0,0:0:0:0:
264,252,101171,1,0,0:0:0:0:
264,252,101415,1,8,0:0:0:0:
264,252,101659,1,0,0:0:0:0:
264,252,101781,1,0,0:0:0:0:
264,252,101903,1,8,0:0:0:0:
264,252,102147,1,0,0:0:0:0:
264,252,102391,1,8,0:0:0:0:
264,252,102635,1,0,0:0:0:0:
300,184,102757,1,0,0:0:0:0:
264,252,102879,1,0,0:0:0:0:
264,252,103122,1,0,0:0:0:0:
264,252,103366,1,8,0:0:0:0:
264,252,103854,1,0,0:0:0:0:
264,252,104098,1,8,0:0:0:0:
236,236,104220,1,0,0:0:0:0:
264,252,104342,1,8,0:0:0:0:
264,252,104586,1,8,0:0:0:0:
264,252,104830,1,0,0:0:0:0:
264,252,105074,1,0,0:0:0:0:
264,252,105318,1,8,0:0:0:0:
264,252,105439,1,8,0:0:0:0:
264,252,105561,1,0,0:0:0:0:
264,244,105805,1,12,0:0:0:0:
264,252,106049,5,4,0:0:0:0:
264,252,106537,1,8,0:0:0:0:
336,256,106781,1,8,0:0:0:0:
304,260,106903,1,8,0:0:0:0:
304,260,107025,1,0,0:0:0:0:
304,260,107269,1,0,0:0:0:0:
304,260,107513,1,0,0:0:0:0:
304,260,107757,1,12,0:0:0:0:
304,260,108244,1,8,0:0:0:0:
304,260,108488,1,0,0:0:0:0:
304,260,108976,1,0,0:0:0:0:
304,260,109220,1,8,0:0:0:0:
304,260,109464,1,8,0:0:0:0:
288,224,109586,1,0,0:0:0:0:
304,260,109708,1,0,0:0:0:0:
304,260,109952,1,0,0:0:0:0:
264,252,110196,1,8,0:0:0:0:
264,252,110439,1,0,0:0:0:0:
264,252,110927,1,0,0:0:0:0:
264,252,111171,1,8,0:0:0:0:
264,252,111415,1,0,0:0:0:0:
288,224,111537,1,0,0:0:0:0:
264,252,111659,1,8,0:0:0:0:
264,252,111903,1,0,0:0:0:0:
264,252,112147,1,8,0:0:0:0:
344,280,112391,1,0,0:0:0:0:
344,280,112513,1,0,0:0:0:0:
264,252,112635,1,8,0:0:0:0:
288,228,112757,1,8,0:0:0:0:
300,264,112879,1,0,0:0:0:0:
264,252,113122,1,8,0:0:0:0:
300,264,113366,1,8,0:0:0:0:
288,228,113488,1,8,0:0:0:0:
264,252,113610,1,0,0:0:0:0:
300,264,114098,1,8,0:0:0:0:
224,228,114342,1,0,0:0:0:0:
264,200,114586,1,8,0:0:0:0:
288,220,114830,1,0,0:0:0:0:
264,252,115074,1,8,0:0:0:0:
300,264,115318,1,8,0:0:0:0:
288,220,115439,1,8,0:0:0:0:
300,264,115561,1,0,0:0:0:0:
288,220,115805,1,0,0:0:0:0:
264,252,116049,1,8,0:0:0:0:
300,264,116293,1,0,0:0:0:0:
300,264,116781,1,0,0:0:0:0:
300,264,117025,1,8,0:0:0:0:
300,264,117269,1,8,0:0:0:0:
264,252,117391,1,0,0:0:0:0:
300,264,117513,1,8,0:0:0:0:
300,264,117757,1,0,0:0:0:0:
300,264,118000,1,8,0:0:0:0:
364,320,118244,1,0,0:0:0:0:
300,264,118488,1,0,0:0:0:0:
300,264,118732,1,8,0:0:0:0:
300,264,118976,1,8,0:0:0:0:
300,264,119098,1,8,0:0:0:0:
300,264,119220,1,0,0:0:0:0:
300,264,119342,1,8,0:0:0:0:
300,264,119464,1,0,0:0:0:0:
300,264,119952,1,8,0:0:0:0:
308,208,120196,1,0,0:0:0:0:
300,264,120439,1,0,0:0:0:0:
300,264,120683,1,8,0:0:0:0:
300,264,120927,1,8,0:0:0:0:
308,208,121049,1,0,0:0:0:0:
300,264,121171,1,0,0:0:0:0:
300,264,121415,1,0,0:0:0:0:
300,264,121659,1,0,0:0:0:0:
308,208,121781,1,0,0:0:0:0:
304,164,121903,1,8,0:0:0:0:
236,216,122147,1,0,0:0:0:0:
300,264,122391,1,0,0:0:0:0:
300,264,122635,1,8,0:0:0:0:
300,264,122879,1,8,0:0:0:0:
308,208,123000,1,8,0:0:0:0:
300,264,123122,1,0,0:0:0:0:
256,184,123366,1,8,0:0:0:0:
256,184,123854,1,8,0:0:0:0:
256,184,124098,1,0,0:0:0:0:
308,208,124586,1,0,0:0:0:0:
308,208,124830,1,8,0:0:0:0:
308,208,125074,1,0,0:0:0:0:
308,208,125318,1,0,0:0:0:0:
308,208,125805,1,8,0:0:0:0:
300,264,126049,1,8,0:0:0:0:
300,264,126293,1,0,0:0:0:0:
300,264,126537,1,0,0:0:0:0:
288,232,126659,1,0,0:0:0:0:
300,264,126781,1,8,0:0:0:0:
300,264,127025,1,0,0:0:0:0:
144,136,127269,2,0,L|240:144,5,70
216,228,128732,1,0,0:0:0:0:
212,184,128854,1,0,0:0:0:0:
212,184,128976,1,8,0:0:0:0:
184,140,129220,1,4,0:0:0:0:
184,140,129464,1,12,0:0:0:0:
260,192,129708,1,0,0:0:0:0:
160,120,129952,1,12,0:0:0:0:
284,212,132147,1,0,0:0:0:0:
284,212,132391,1,8,0:0:0:0:
244,220,132513,1,8,0:0:0:0:
284,212,132635,1,0,0:0:0:0:
284,212,132879,1,8,0:0:0:0:
284,212,133122,1,4,0:0:0:0:
248,232,133366,1,8,0:0:0:0:
248,232,133610,1,8,0:0:0:0:
248,232,133854,1,0,0:0:0:0:
248,232,134098,1,0,0:0:0:0:
248,232,134220,1,0,0:0:0:0:
248,232,134342,1,8,0:0:0:0:
248,232,134586,1,8,0:0:0:0:
232,228,134830,1,0,0:0:0:0:
232,228,135318,1,0,0:0:0:0:
232,228,135561,1,8,0:0:0:0:
232,228,135805,1,8,0:0:0:0:
232,228,136293,1,0,0:0:0:0:
232,228,136537,1,8,0:0:0:0:
232,228,136659,1,0,0:0:0:0:
232,228,136781,1,8,0:0:0:0:
232,228,137025,1,0,0:0:0:0:
232,228,137513,1,8,0:0:0:0:
232,228,137757,1,0,0:0:0:0:
232,228,138000,1,0,0:0:0:0:
232,228,138244,1,8,0:0:0:0:
232,228,138488,1,8,0:0:0:0:
232,228,138610,1,8,0:0:0:0:
232,228,138732,1,0,0:0:0:0:
232,228,138976,1,8,0:0:0:0:
208,208,139220,1,0,0:0:0:0:
232,228,139464,1,8,0:0:0:0:
232,228,139708,1,0,0:0:0:0:
232,228,140196,1,8,0:0:0:0:
232,228,140318,1,8,0:0:0:0:
232,228,140439,1,8,0:0:0:0:
232,228,140683,1,0,0:0:0:0:
232,228,140805,1,8,0:0:0:0:
232,228,140927,1,0,0:0:0:0:
336,164,141171,1,0,0:0:0:0:
256,200,141415,1,8,0:0:0:0:
256,200,141659,1,0,0:0:0:0:
264,244,141781,1,0,0:0:0:0:
256,200,141903,1,8,0:0:0:0:
256,200,142147,1,0,0:0:0:0:
232,228,142391,1,8,0:0:0:0:
232,228,142635,1,0,0:0:0:0:
256,200,142879,1,8,0:0:0:0:
256,252,143000,1,8,0:0:0:0:
256,200,143122,1,8,0:0:0:0:
256,200,143366,1,8,0:0:0:0:
256,252,143488,1,8,0:0:0:0:
256,200,143610,1,0,0:0:0:0:
256,200,143854,1,8,0:0:0:0:
256,252,143976,1,8,0:0:0:0:
252,208,144098,1,8,0:0:0:0:
168,228,144586,1,0,0:0:0:0:
208,216,144708,1,0,0:0:0:0:
256,200,144830,1,8,0:0:0:0:
256,200,145074,1,0,0:0:0:0:
256,200,145318,1,8,0:0:0:0:
252,208,145561,1,8,0:0:0:0:
256,200,146049,1,0,0:0:0:0:
256,200,146293,1,8,0:0:0:0:
252,168,146537,1,0,0:0:0:0:
256,200,146659,1,8,0:0:0:0:
252,168,146781,1,0,0:0:0:0:
256,200,146903,1,0,0:0:0:0:
252,168,147025,1,8,0:0:0:0:
256,200,147269,1,8,0:0:0:0:
252,168,147513,1,8,0:0:0:0:
256,200,147635,1,8,0:0:0:0:
256,200,147757,1,0,0:0:0:0:
220,220,148000,1,0,0:0:0:0:
220,220,148244,1,8,0:0:0:0:
220,220,148488,1,8,0:0:0:0:
220,220,148732,1,0,0:0:0:0:
220,220,148976,1,8,0:0:0:0:
256,200,149220,1,8,0:0:0:0:
256,200,149464,1,8,0:0:0:0:
256,200,149586,1,8,0:0:0:0:
256,200,149708,1,0,0:0:0:0:
256,200,149952,1,0,0:0:0:0:
240,208,150196,1,8,0:0:0:0:
256,200,150439,1,0,0:0:0:0:
256,200,150683,1,0,0:0:0:0:
256,200,151171,1,8,0:0:0:0:
256,200,151415,1,0,0:0:0:0:
252,160,151903,1,0,0:0:0:0:
252,160,152147,1,8,0:0:0:0:
252,160,152391,1,0,0:0:0:0:
256,200,152513,1,0,0:0:0:0:
252,160,152635,1,8,0:0:0:0:
276,160,152879,1,0,0:0:0:0:
252,160,153122,5,8,0:0:0:0:
252,160,153366,1,0,0:0:0:0:
260,192,153854,1,8,0:0:0:0:
260,192,154098,1,0,0:0:0:0:
260,192,154179,1,0,0:0:0:0:
272,220,154261,1,0,0:0:0:0:
260,192,154342,1,8,0:0:0:0:
260,192,154586,1,4,0:0:0:0:
224,200,154830,1,12,0:0:0:0:
224,200,155318,1,4,0:0:0:0:
284,212,157513,1,0,0:0:0:0:
284,212,157757,1,8,0:0:0:0:
324,200,157879,1,8,0:0:0:0:
284,212,158000,1,0,0:0:0:0:
284,212,158244,1,0,0:0:0:0:
284,212,158488,1,12,0:0:0:0:
160,160,158732,1,0,0:0:0:0:
284,212,158976,1,8,0:0:0:0:
284,212,159220,1,0,0:0:0:0:
284,212,159464,1,0,0:0:0:0:
284,212,159586,1,0,0:0:0:0:
284,212,159708,1,8,0:0:0:0:
284,212,159952,1,0,0:0:0:0:
284,212,160196,1,8,0:0:0:0:
284,212,160439,1,0,0:0:0:0:
284,212,160683,1,8,0:0:0:0:
284,212,160805,1,0,0:0:0:0:
284,212,160927,1,8,0:0:0:0:
284,212,161049,1,0,0:0:0:0:
284,212,161171,1,0,0:0:0:0:
284,212,161415,1,0,0:0:0:0:
248,160,161659,1,0,0:0:0:0:
284,212,161903,1,8,0:0:0:0:
332,216,162391,1,8,0:0:0:0:
332,216,162635,1,0,0:0:0:0:
332,216,162879,1,8,0:0:0:0:
332,216,163122,1,0,0:0:0:0:
284,212,163244,1,0,0:0:0:0:
332,216,163366,1,8,0:0:0:0:
332,216,163610,1,0,0:0:0:0:
332,216,163854,1,8,0:0:0:0:
324,212,164098,1,8,0:0:0:0:
284,212,164220,1,8,0:0:0:0:
324,212,164342,1,0,0:0:0:0:
324,212,164586,1,0,0:0:0:0:
324,212,164830,1,8,0:0:0:0:
324,212,165074,1,0,0:0:0:0:
332,216,165318,1,8,0:0:0:0:
324,212,165561,1,8,0:0:0:0:
296,200,165683,1,8,0:0:0:0:
296,200,165805,1,0,0:0:0:0:
324,212,166049,1,0,0:0:0:0:
324,212,166171,1,0,0:0:0:0:
324,212,166293,1,8,0:0:0:0:
288,232,166537,1,0,0:0:0:0:
312,244,166781,1,8,0:0:0:0:
260,212,167025,1,8,0:0:0:0:
296,200,167147,1,8,0:0:0:0:
260,212,167269,1,0,0:0:0:0:
260,212,167513,1,0,0:0:0:0:
260,212,167757,1,8,0:0:0:0:
260,212,168000,1,8,0:0:0:0:
260,212,168122,1,8,0:0:0:0:
260,212,168244,1,0,0:0:0:0:
260,212,168488,1,8,0:0:0:0:
260,212,168732,1,0,0:0:0:0:
260,212,168854,1,0,0:0:0:0:
260,212,168976,1,8,0:0:0:0:
260,212,169464,1,0,0:0:0:0:
292,288,169708,1,8,0:0:0:0:
260,212,169952,1,0,0:0:0:0:
260,212,170074,1,8,0:0:0:0:
260,212,170196,1,0,0:0:0:0:
260,212,170439,1,8,0:0:0:0:
260,212,170683,1,8,0:0:0:0:
260,212,170927,1,8,0:0:0:0:
260,212,171415,1,0,0:0:0:0:
260,212,171659,1,8,0:0:0:0:
260,212,171903,1,0,0:0:0:0:
260,212,172391,1,8,0:0:0:0:
260,212,172635,1,8,0:0:0:0:
260,212,172879,1,8,0:0:0:0:
260,212,173122,1,0,0:0:0:0:
260,212,173366,1,0,0:0:0:0:
260,212,173488,1,8,0:0:0:0:
260,212,173610,1,8,0:0:0:0:
228,200,173854,1,8,0:0:0:0:
228,200,173976,1,0,0:0:0:0:
228,200,174098,1,0,0:0:0:0:
260,212,174586,1,8,0:0:0:0:
260,212,174830,1,0,0:0:0:0:
260,212,175074,1,0,0:0:0:0:
260,212,175196,1,0,0:0:0:0:
260,212,175318,1,8,0:0:0:0:
260,212,175561,1,8,0:0:0:0:
260,212,175683,1,8,0:0:0:0:
260,212,175805,1,0,0:0:0:0:
260,212,176049,1,0,0:0:0:0:
260,212,176537,1,8,0:0:0:0:
260,212,176781,1,8,0:0:0:0:
328,148,177025,1,0,0:0:0:0:
260,212,177269,1,0,0:0:0:0:
260,212,177513,1,8,0:0:0:0:
260,212,177757,1,0,0:0:0:0:
260,212,177879,1,0,0:0:0:0:
260,212,178000,1,0,0:0:0:0:
260,212,178244,1,0,0:0:0:0:
260,212,178488,1,8,0:0:0:0:
260,212,178732,1,8,0:0:0:0:
188,184,179220,1,0,0:0:0:0:
288,236,179464,1,0,0:0:0:0:
288,236,179545,1,0,0:0:0:0:
260,228,179626,1,0,0:0:0:0:
260,212,179708,1,8,0:0:0:0:
256,280,179952,1,4,0:0:0:0:
256,280,180196,1,12,0:0:0:0:
256,280,180683,1,4,0:0:0:0:
