osu file format v14

[General]
AudioFilename: Intoxicados - Esta Saliendo El Sol.mp3
AudioLeadIn: 1500
PreviewTime: 7269
Countdown: 0
SampleSet: Soft
StackLeniency: 0.7
Mode: 0
LetterboxInBreaks: 1
WidescreenStoryboard: 1

[Editor]
DistanceSpacing: 1
BeatDivisor: 4
GridSize: 4
TimelineZoom: 0.9

[Metadata]
Title:Esta saliendo el sol
TitleUnicode:Está saliendo el sol
Artist:Intoxicados
ArtistUnicode:Intoxicados
Creator:Manuxz
Version:Normal
Source:
Tags:Hanjamon Neku okazaki Pity Alvarez No es solo rock and roll
BeatmapID:278193
BeatmapSetID:93205

[Difficulty]
HPDrainRate:3
CircleSize:3
OverallDifficulty:5
ApproachRate:5
SliderMultiplier:1.10000000596046
SliderTickRate:2

[Events]
//Background and Video events
0,0,"FASO.jpg",0,0
//Break Periods
2,155518,156313
//Storyboard Layer 0 (Background)
//Storyboard Layer 1 (Fail)
//Storyboard Layer 2 (Pass)
//Storyboard Layer 3 (Foreground)
//Storyboard Sound Samples

[TimingPoints]
440,487.80487804878,4,2,1,70,1,0
5561,-100,4,2,1,30,0,0
5805,-100,4,2,1,70,0,0
28976,-100,4,2,1,30,0,0
29220,-100,4,2,1,70,0,0
40683,-100,4,2,1,30,0,0
40927,-100,4,2,1,70,0,0
48488,-100,4,2,1,30,0,0
48732,-100,4,2,1,70,0,0
48976,-100,4,2,1,30,0,0
49220,-100,4,2,1,70,0,0
54342,-100,4,2,1,30,0,0
54586,-100,4,2,1,70,0,0
58976,-100,4,2,1,70,0,1
66049,-100,4,2,1,30,0,1
66293,-100,4,2,1,70,0,1
66537,-100,4,2,1,30,0,1
66781,-100,4,2,1,70,0,1
73854,-100,4,2,1,30,0,1
74098,-100,4,2,1,70,0,1
74342,-100,4,2,1,30,0,1
74586,-100,4,2,1,70,0,1
79708,-100,4,2,1,30,0,1
79952,-100,4,2,1,70,0,1
81171,-100,4,2,1,70,0,0
106049,-100,4,3,1,70,0,0
107757,-100,4,2,1,70,0,0
128488,-100,4,2,1,30,0,0
128732,-100,4,2,1,70,0,0
140196,-100,4,2,1,30,0,0
140439,-100,4,2,1,70,0,0
140683,-100,4,2,1,30,0,0
140927,-100,4,2,1,70,0,0
148488,-100,4,2,1,30,0,0
148732,-100,4,2,1,70,0,0
153854,-100,4,2,1,30,0,0
154098,-100,4,2,1,70,0,0
158488,-100,4,2,1,70,0,1
179220,-100,4,2,1,30,0,1
179464,-100,4,2,1,70,0,1
180683,-100,4,2,1,70,0,0

[Colours]
Combo1 : 226,217,103
Combo2 : 164,164,164
Combo3 : 217,173,145
Combo4 : 233,133,133

[HitObjects]
92,174,440,6,0,B|140:198|140:198|196:170,1,110.000000596046,4|8,0:0|0:0,0:0:0:0:
272,97,1415,1,2,0:0:0:0:
349,174,1903,1,8,0:0:0:0:
271,251,2391,1,2,0:0:0:0:
188,168,2879,2,0,P|158:214|154:268,2,110.000000596046,8|2|8,0:0|0:0|0:0,0:0:0:0:
115,95,4342,6,0,L|212:28,1,110.000000596046,2|8,0:0|0:0,0:0:0:0:
283,110,5318,2,0,L|343:70,1,55.000000298023,2|4,0:0|0:0,0:0:0:0:
376,52,5805,1,8,0:0:0:0:
453,129,6293,1,4,0:0:0:0:
152,157,7269,5,2,0:0:0:0:
256,192,7757,1,2,0:0:0:0:
347,253,8244,1,6,0:0:0:0:
440,192,8732,6,0,B|462:238|462:238|440:304,2,110.000000596046,8|2|8,0:0|0:0|0:0,0:0:0:0:
362,114,10196,2,0,P|308:104|254:115,1,110.000000596046,2|8,0:0|0:0,0:0:0:0:
200,128,10927,1,0,0:0:0:0:
152,152,11171,1,2,0:0:0:0:
56,204,11659,1,8,0:0:0:0:
143,269,12147,6,0,B|192:308|192:308|256:308,1,110.000000596046,2|8,0:0|0:0,0:0:0:0:
317,230,13122,1,2,0:0:0:0:
427,230,13610,1,8,0:0:0:0:
427,119,14098,2,0,B|395:71|395:71|331:71,2,110.000000596046,2|8|2,0:0|0:0|0:0,0:0:0:0:
349,196,15561,1,8,0:0:0:0:
271,273,16049,6,0,B|303:321|303:321|367:321,1,110.000000596046,2|8,0:0|0:0,0:0:0:0:
436,244,17025,1,2,0:0:0:0:
416,136,17513,1,8,0:0:0:0:
316,88,18000,1,2,0:0:0:0:
220,144,18488,1,8,0:0:0:0:
124,199,18976,2,0,P|74:223|38:264,1,110.000000596046,2|8,0:0|0:0,0:0:0:0:
92,364,19952,6,0,B|202:364,1,110.000000596046,2|8,0:0|0:0,0:0:0:0:
272,280,20927,1,2,0:0:0:0:
197,198,21415,1,8,0:0:0:0:
274,120,21903,2,0,B|317:77|354:40|354:40|367:116|429:115,1,220.000001192092,2|2,0:0|0:0,0:0:0:0:
418,224,23366,1,8,0:0:0:0:
388,328,23854,6,0,P|338:305|314:257,1,110.000000596046,2|8,0:0|0:0,0:0:0:0:
236,335,24830,1,2,0:0:0:0:
158,257,25318,1,8,0:0:0:0:
235,179,25805,2,0,B|270:142|270:142|270:83,2,110.000000596046,2|8|2,0:0|0:0|0:0,0:0:0:0:
124,179,27269,5,8,0:0:0:0:
46,256,27757,2,0,L|99:306,1,55.0000002980232,2|0,0:0|0:0,0:0:0:0:
141,293,28244,2,0,L|196:293,1,55.0000002980232,8|0,0:0|0:0,0:0:0:0:
251,293,28732,1,2,0:0:0:0:
328,215,29220,6,8,L|310:193,2,27.5000001490116
367,254,29708,2,0,L|402:296,1,55.000000298023,4|0,0:0|0:0,0:0:0:0:
472,212,30439,1,4,0:0:0:0:
92,36,32635,6,0,B|44:68|44:68|44:124,1,110.000000596046,2|10,0:0|0:0,0:0:0:0:
84,224,33610,1,4,0:0:0:0:
148,132,34098,5,8,0:0:0:0:
252,172,34586,1,2,0:0:0:0:
360,196,35074,1,8,0:0:0:0:
432,276,35561,1,2,0:0:0:0:
328,308,36049,5,8,0:0:0:0:
280,332,36293,2,0,B|225:346|225:346|179:319,1,110.000000596046,2|0,0:0|0:0,0:0:0:0:
132,288,37025,1,8,0:0:0:0:
88,252,37269,2,0,L|40:220,1,55.000000298023,0|2,0:0|0:0,0:0:0:0:
62,115,38000,5,8,0:0:0:0:
160,68,38488,1,2,0:0:0:0:
260,115,38976,1,8,0:0:0:0:
364,68,39464,2,0,P|407:98|408:151,1,110.000000596046,2|8,0:0|0:0,0:0:0:0:
392,204,40196,1,2,0:0:0:0:
292,252,40683,1,4,0:0:0:0:
249,287,40927,6,0,P|200:312|146:312,2,110.000000596046,8|2|8,0:0|0:0|0:0,0:0:0:0:
250,177,42391,1,2,0:0:0:0:
139,177,42879,1,8,0:0:0:0:
61,99,43366,1,2,0:0:0:0:
152,36,43854,2,0,B|227:36|227:36|251:72,1,110.000000596046,8|2,0:0|0:0,0:0:0:0:
357,36,44830,5,8,0:0:0:0:
434,113,45318,1,2,0:0:0:0:
356,190,45805,1,8,0:0:0:0:
300,190,46049,1,2,0:0:0:0:
394,326,46781,1,8,0:0:0:0:
284,326,47269,2,0,B|228:328|228:328|183:298,1,110.000000596046,2|8,0:0|0:0,0:0:0:0:
144,259,48000,2,0,B|128:211|128:211|98:202|79:180,2,110.000000596046,0|4|4,0:0|0:0|0:0,0:0:0:0:
200,259,49220,6,0,B|226:232|226:232|261:229|287:197,1,110.000000596046,2|8,0:0|0:0,0:0:0:0:
312,92,50196,1,2,0:0:0:0:
419,114,50683,1,8,0:0:0:0:
419,224,51171,2,0,B|436:274|436:274|415:327,1,110,2|8,0:0|0:0,0:0:0:0:
364,348,51903,1,2,0:0:0:0:
252,344,52391,1,0,0:0:0:0:
200,324,52635,1,8,0:0:0:0:
216,214,53122,5,2,0:0:0:0:
172,184,53366,2,0,L|117:184,2,55.000000298023,0|8|0,0:0|0:0|0:0,0:0:0:0:
326,135,54586,6,8,L|350:121,2,27.5
326,190,55074,2,0,L|326:250,1,55.000000298023,4|0,0:0|0:0,0:0:0:0:
403,322,55805,1,4,0:0:0:0:
40,104,58000,6,0,B|48:52|124:36,1,110.000000596046,2|8,0:0|0:0,0:0:0:0:
182,123,58976,5,6,0:0:0:0:
292,123,59464,2,0,L|336:79,2,55,8|0|2,0:0|0:0|0:0,0:0:0:0:
292,233,60439,2,0,L|232:233,2,55,8|0|2,0:0|0:0|0:0,0:0:0:0:
402,233,61415,2,0,L|418:169,2,55,8|0|2,0:0|0:0|0:0,0:0:0:0:
291,233,62391,6,0,L|278:286,1,55,8|0,0:0|0:0,0:0:0:0:
239,325,62879,2,0,B|185:325|185:325|138:294,1,110.000000596046,2|8,0:0|0:0,0:0:0:0:
138,239,63610,1,0,0:0:0:0:
160,188,63854,1,2,0:0:0:0:
176,80,64342,1,8,0:0:0:0:
64,84,64830,2,0,P|48:136|64:188,1,110.000000596046,2|8,0:0|0:0,0:0:0:0:
102,226,65561,2,0,L|156:264,1,55.000000298023,0|2,0:0|0:0,0:0:0:0:
256,232,66293,1,8,0:0:0:0:
268,122,66781,6,0,P|320:138|376:124,1,110.000000596046,2|8,0:0|0:0,0:0:0:0:
483,125,67757,1,2,0:0:0:0:
484,236,68244,1,8,0:0:0:0:
405,311,68732,1,2,0:0:0:0:
302,352,69220,1,8,0:0:0:0:
246,352,69464,1,2,0:0:0:0:
160,284,69952,1,0,0:0:0:0:
124,244,70196,1,8,0:0:0:0:
124,134,70683,6,0,B|147:86|147:86|203:52,1,110.000000596046,2|8,0:0|0:0,0:0:0:0:
248,44,71415,1,2,0:0:0:0:
349,88,71903,2,0,L|393:132,1,55.000000298023,0|8,0:0|0:0,0:0:0:0:
425,168,72391,2,0,B|426:231|426:231|374:243|354:299,1,165.000000894069,2|8,0:0|0:0,0:0:0:0:
304,316,73366,2,0,L|257:287,1,55.000000298023,0|2,0:0|0:0,0:0:0:0:
256,176,74098,1,8,0:0:0:0:
168,240,74586,6,0,P|112:244|52:204,1,110.000000596046,4|8,0:0|0:0,0:0:0:0:
136,140,75561,1,2,0:0:0:0:
247,127,76049,1,8,0:0:0:0:
324,49,76537,2,0,L|444:49,1,110,2|8,0:0|0:0,0:0:0:0:
392,150,77513,2,0,L|280:150,2,110,2|8|2,0:0|0:0|0:0,0:0:0:0:
416,200,78732,5,0,0:0:0:0:
433,250,78976,1,8,0:0:0:0:
417,302,79220,1,0,0:0:0:0:
252,300,79952,6,8,L|248:328,2,27.5000001490115
264,244,80439,2,0,L|272:188,1,55.000000298023,4|0,0:0|0:0,0:0:0:0:
161,189,81171,1,4,0:0:0:0:
256,320,83366,5,2,0:0:0:0:
148,296,83854,1,2,0:0:0:0:
120,188,84342,1,4,0:0:0:0:
256,96,85074,6,0,L|320:96,2,55,0|2|0,0:0|0:0|0:0,0:0:0:0:
152,56,86049,1,0,0:0:0:0:
116,96,86293,2,0,L|84:152,1,55.000000298023,2|0,0:0|0:0,0:0:0:0:
120,188,86781,1,8,0:0:0:0:
144,236,87025,2,0,P|212:280|300:280,1,165.000000894069,2|8,0:0|0:0,0:0:0:0:
388,224,88244,1,2,0:0:0:0:
464,144,88732,1,8,0:0:0:0:
392,59,89220,6,0,P|343:85|299:117,1,110,2|8,0:0|0:0,0:0:0:0:
312,172,89952,1,0,0:0:0:0:
299,228,90196,2,0,B|200:228|200:336|116:335,1,220.000001192092,2|2,0:0|0:0,0:0:0:0:
67,241,91659,1,8,0:0:0:0:
50,134,92147,6,0,L|116:46,1,110,6|8,0:0|0:0,0:0:0:0:
194,121,93122,2,0,B|232:80|232:80|252:88|252:88|268:80|268:80|304:144|367:143,2,220.000001192092,2|2|2,0:0|0:0|0:0,0:0:0:0:
104,192,95561,1,8,0:0:0:0:
193,252,96049,6,0,B|225:300|225:300|282:299,2,110.000000596046,2|8|2,0:0|0:0|0:0,0:0:0:0:
256,160,97513,1,8,0:0:0:0:
333,82,98000,2,0,B|301:34|301:34|248:34,2,110.000000596046,2|8|2,0:0|0:0|0:0,0:0:0:0:
400,168,99464,1,8,0:0:0:0:
400,278,99952,1,4,0:0:0:0:
256,212,100683,5,2,0:0:0:0:
164,278,101171,1,2,0:0:0:0:
108,278,101415,2,0,B|52:278|52:278|31:327,2,110.000000596046,8|2|8,0:0|0:0|0:0,0:0:0:0:
108,222,102635,2,0,L|225:106,1,165.000000894069,2|8,0:0|0:0,0:0:0:0:
335,100,103854,6,0,B|363:108|363:108|391:128,1,55.000000298023,2|0,0:0|0:0,0:0:0:0:
396,177,104342,1,8,0:0:0:0:
408,231,104586,2,0,B|335:269|380:319|280:355,1,165.000000894069,2|8,0:0|0:0,0:0:0:0:
192,324,105805,6,0,B|137:328|137:328|101:316|101:316|33:336|33:336|68:260|56:156,1,330.000001788138,2|8,0:0|0:0,0:0:0:0:
51,64,107757,6,0,P|131:63|175:129,1,165.000000894069,4|2,0:0|0:0,0:0:0:0:
112,280,109220,2,0,B|148:344|188:272|256:336|256:336|316:272|356:344|404:280,2,330.000001788138,8|2|8,0:0|0:0|0:0,0:0:0:0:
189,202,112635,6,0,B|225:165|225:165|225:99,1,110.000000596046,2|8,0:0|0:0,0:0:0:0:
186,68,113366,2,0,B|134:88|78:52|78:52|47:93,1,165.000000894069,2|8,0:0|0:0,0:0:0:0:
80,198,114586,2,0,P|114:245|173:255,1,110.000000596046,2|8,0:0|0:0,0:0:0:0:
217,257,115318,2,0,P|272:253|320:278,2,110.000000596046,2|2|0,0:0|0:0|0:0,0:0:0:0:
275,103,117025,6,0,B|211:109|201:36|201:36|115:104,1,220.000001192092,8|8,0:0|0:0,0:0:0:0:
117,212,118488,2,0,P|171:210|223:193,1,110.000000596046,2|8,0:0|0:0,0:0:0:0:
312,260,119464,2,0,B|360:200|320:136|320:136|332:96|332:96|322:52,1,220.000001192092,2|2,0:0|0:0,0:0:0:0:
232,116,120927,1,8,0:0:0:0:
164,204,121415,1,2,0:0:0:0:
86,281,121903,6,0,L|37:182,2,110.000000596046,8|2|8,0:0|0:0|0:0,0:0:0:0:
164,204,123366,2,0,L|108:92,2,110,2|8|2,0:0|0:0|0:0,0:0:0:0:
241,281,124830,1,8,0:0:0:0:
317,357,125318,2,0,P|371:362|414:329,1,110.000000596046,2|8,0:0|0:0,0:0:0:0:
348,240,126293,2,0,P|398:219|456:228,2,110.000000596046,2|8|2,0:0|0:0|0:0,0:0:0:0:
300,268,127513,5,0,0:0:0:0:
252,296,127757,1,8,0:0:0:0:
204,324,128000,1,0,0:0:0:0:
112,140,128732,6,8,L|87:126,2,27.5000001490115
160,168,129220,2,0,L|216:197,1,55.000000298023,4|0,0:0|0:0,0:0:0:0:
258,88,129952,2,0,P|351:234|204:324,1,385.000002086161,4|8,0:0|0:0,0:0:0:0:
95,343,132147,6,0,B|47:311|47:311|63:263,2,110,2|8|4,0:0|0:0|0:0,0:0:0:0:
204,324,133610,5,8,0:0:0:0:
268,236,134098,1,2,0:0:0:0:
376,228,134586,1,8,0:0:0:0:
440,140,135074,1,2,0:0:0:0:
362,62,135561,1,8,0:0:0:0:
314,33,135805,2,0,B|263:7|263:7|160:38,1,165.000000894069,2|8,0:0|0:0,0:0:0:0:
112,140,137025,2,0,P|86:187|95:240,1,110.000000596046,2|8,0:0|0:0,0:0:0:0:
136,280,137757,5,2,0:0:0:0:
192,288,138000,1,0,0:0:0:0:
302,288,138488,2,8,L|418:288,2,110,8|2|8,0:0|0:0|0:0,0:0:0:0:
246,288,139708,2,0,B|214:211|214:211|242:133,1,165.000000894069,2|8,0:0|0:0,0:0:0:0:
352,133,140927,6,0,B|396:101|396:101|396:41,1,110.000000596046,2|8,0:0|0:0,0:0:0:0:
340,36,141659,1,0,0:0:0:0:
284,28,141903,1,2,0:0:0:0:
238,128,142391,1,8,0:0:0:0:
200,232,142879,2,0,L|306:264,2,110,2|8|2,0:0|0:0|0:0,0:0:0:0:
105,175,144342,1,8,0:0:0:0:
182,97,144830,6,0,L|302:97,1,110,2|0,0:0|0:0,0:0:0:0:
347,97,145561,1,2,0:0:0:0:
320,204,146049,1,0,0:0:0:0:
291,251,146293,1,8,0:0:0:0:
180,251,146781,2,0,B|112:207|112:207|108:163,1,110,2|8,0:0|0:0,0:0:0:0:
109,122,147513,1,2,0:0:0:0:
256,36,148244,1,8,0:0:0:0:
356,80,148732,6,0,B|404:136|404:136|404:172,1,110,2|8,0:0|0:0,0:0:0:0:
326,250,149708,1,2,0:0:0:0:
248,327,150196,1,8,0:0:0:0:
170,249,150683,1,2,0:0:0:0:
92,171,151171,1,8,0:0:0:0:
100,116,151415,1,2,0:0:0:0:
197,59,151903,5,0,0:0:0:0:
248,36,152147,1,8,0:0:0:0:
325,113,152635,1,2,0:0:0:0:
363,151,152879,2,0,L|411:191,2,55.000000298023,0|8|0,0:0|0:0|0:0,0:0:0:0:
224,268,154098,6,8,L|216:308,2,27.5,8|8|8,0:0|0:0|0:0,0:0:0:0:
206,227,154586,2,0,L|181:177,1,55,4|0,0:0|0:0,0:0:0:0:
181,67,155318,1,4,0:0:0:0:
39,286,157513,6,2,B|48:336|48:336|116:352,1,110.000000596046,2|8,0:0|0:0,0:0:0:0:
212,316,158488,5,6,0:0:0:0:
289,238,158976,2,0,L|333:282,2,55,8|0|2,0:0|0:0|0:0,0:0:0:0:
289,127,159952,2,0,L|229:127,2,55,8|0|2,0:0|0:0|0:0,0:0:0:0:
366,49,160927,2,0,L|422:49,2,55.000000298023,8|0|2,0:0|0:0|0:0,0:0:0:0:
287,127,161903,6,0,L|339:159,1,55,8|0,0:0|0:0,0:0:0:0:
372,194,162391,2,0,P|384:248|360:300,1,110.000000596046,2|8,0:0|0:0,0:0:0:0:
308,296,163122,1,2,0:0:0:0:
253,296,163366,1,0,0:0:0:0:
143,296,163854,1,8,0:0:0:0:
100,192,164342,2,0,P|96:136|124:92,1,110.000000596046,2|8,0:0|0:0,0:0:0:0:
179,92,165074,2,0,L|236:92,1,55.000000298023,0|2,0:0|0:0,0:0:0:0:
256,200,165805,1,8,0:0:0:0:
192,289,166293,6,0,L|304:289,1,110,4|8,0:0|0:0,0:0:0:0:
404,248,167269,1,2,0:0:0:0:
464,156,167757,1,8,0:0:0:0:
404,72,168244,1,2,0:0:0:0:
326,149,168732,1,8,0:0:0:0:
287,110,168976,1,2,0:0:0:0:
176,108,169464,1,0,0:0:0:0:
120,116,169708,1,8,0:0:0:0:
110,226,170196,6,0,B|110:278|110:278|146:322,1,110.000000596046,2|8,0:0|0:0,0:0:0:0:
201,322,170927,1,2,0:0:0:0:
364,323,171659,1,8,0:0:0:0:
364,268,171903,2,0,B|352:212|392:168|392:168|360:120,1,165.000000894069,0|8,0:0|0:0,0:0:0:0:
317,86,172879,2,0,L|253:86,1,55.000000298023,0|2,0:0|0:0,0:0:0:0:
164,136,173610,1,8,0:0:0:0:
76,204,174098,6,0,L|52:320,1,110.000000596046,2|8,0:0|0:0,0:0:0:0:
164,332,175074,1,2,0:0:0:0:
256,272,175561,1,8,0:0:0:0:
360,304,176049,2,0,L|470:304,1,110,2|8,0:0|0:0,0:0:0:0:
424,204,177025,2,0,L|312:204,2,110,2|8|2,0:0|0:0|0:0,0:0:0:0:
460,164,178244,5,0,0:0:0:0:
476,112,178488,1,8,0:0:0:0:
464,60,178732,1,0,0:0:0:0:
258,36,179464,6,8,L|218:36,2,27.5
258,91,179952,2,0,L|282:140,1,55,4|0,0:0|0:0,0:0:0:0:
282,250,180683,1,4,0:0:0:0:
256,192,181415,12,4,183854,0:0:0:0:
