osu file format v14

[General]
AudioFilename: Intoxicados - Esta Saliendo El Sol.mp3
AudioLeadIn: 1500
PreviewTime: 7269
Countdown: 0
SampleSet: Soft
StackLeniency: 0.7
Mode: 0
LetterboxInBreaks: 1
WidescreenStoryboard: 1

[Editor]
DistanceSpacing: 1
BeatDivisor: 4
GridSize: 4
TimelineZoom: 1

[Metadata]
Title:Esta saliendo el sol
TitleUnicode:Está saliendo el sol
Artist:Intoxicados
ArtistUnicode:Intoxicados
Creator:Manuxz
Version:Easy
Source:
Tags:Hanjamon Neku okazaki Pity Alvarez No es solo rock and roll
BeatmapID:261774
BeatmapSetID:93205

[Difficulty]
HPDrainRate:2
CircleSize:3
OverallDifficulty:3
ApproachRate:3
SliderMultiplier:0.799999999999999
SliderTickRate:1

[Events]
//Background and Video events
0,0,"FASO.jpg",0,0
//Break Periods
//Storyboard Layer 0 (Background)
//Storyboard Layer 1 (Fail)
//Storyboard Layer 2 (Pass)
//Storyboard Layer 3 (Foreground)
//Storyboard Sound Samples

[TimingPoints]
440,487.80487804878,4,2,1,70,1,0
58976,-100,4,2,1,70,0,1
81171,-100,4,2,1,70,0,0
106049,-100,4,3,1,70,0,0
107757,-100,4,2,1,70,0,0
158488,-100,4,2,1,70,0,1
180683,-100,4,2,1,70,0,0

[Colours]
Combo1 : 226,217,103
Combo2 : 164,164,164
Combo3 : 217,173,145
Combo4 : 233,133,133

[HitObjects]
204,28,440,6,0,P|235:105|207:181,1,160,4|2,0:0|0:0,0:0:0:0:
140,212,1903,2,0,P|109:289|137:365,1,160,8|8,0:0|0:0,0:0:0:0:
256,260,3854,1,8,0:0:0:0:
332,240,4342,6,0,L|411:223,1,79.9999999999999,2|8,0:0|0:0,0:0:0:0:
384,148,5318,2,0,L|306:131,1,79.9999999999999,2|8,0:0|0:0,0:0:0:0:
228,116,6293,1,4,0:0:0:0:
76,80,7269,2,0,L|40:172,1,79.9999999999999,2|2,0:0|0:0,0:0:0:0:
46,234,8244,6,0,L|82:326,1,79.9999999999999,4|8,0:0|0:0,0:0:0:0:
235,308,9708,1,8,0:0:0:0:
360,208,10683,1,8,0:0:0:0:
294,57,11659,1,8,0:0:0:0:
212,57,12147,6,0,P|256:128|336:128,1,160,2|2,0:0|0:0,0:0:0:0:
406,124,13610,1,8,0:0:0:0:
460,184,14098,2,0,P|429:254|354:266,1,160,2|2,0:0|0:0,0:0:0:0:
269,260,15561,1,8,0:0:0:0:
192,288,16049,6,0,P|203:210|281:178,1,160,2|2,0:0|0:0,0:0:0:0:
269,260,17513,1,8,0:0:0:0:
304,332,18000,2,0,L|431:340,1,120,2|2,0:0|0:0,0:0:0:0:
496,304,19220,2,0,L|476:216,1,79.9999999999999,2|0,0:0|0:0,0:0:0:0:
468,188,19952,6,0,B|408:212|396:264|332:272,1,160,2|2,0:0|0:0,0:0:0:0:
277,328,21415,1,8,0:0:0:0:
220,271,21903,1,2,0:0:0:0:
163,214,22391,2,0,L|79:214,1,79.9999999999999,8|2,0:0|0:0,0:0:0:0:
26,157,23366,1,8,0:0:0:0:
84,100,23854,6,0,B|116:68|116:68|152:84|184:68|184:68|213:101,1,160,2|2,0:0|0:0,0:0:0:0:
270,157,25318,1,8,0:0:0:0:
326,100,25805,2,0,L|406:100,1,79.9999999999999,2|8,0:0|0:0,0:0:0:0:
443,255,27269,5,8,0:0:0:0:
443,336,27757,2,0,P|374:298|371:215,1,160,2|2,0:0|0:0,0:0:0:0:
396,148,29220,5,8,0:0:0:0:
368,72,29708,2,0,B|336:48|336:48|256:48,1,120,4|4,0:0|0:0,0:0:0:0:
147,304,32635,6,0,P|116:327|77:332,2,79.9999999999999,2|2|4,0:0|0:0|0:0,0:0:0:0:
88,256,34098,1,8,0:0:0:0:
144,199,34586,1,2,0:0:0:0:
213,98,35318,2,0,L|291:77,1,79.9999999999999,2|0,0:0|0:0,0:0:0:0:
368,56,36293,2,0,L|424:56,1,40,0|2,0:0|0:0,0:0:0:0:
452,124,37025,2,0,L|374:145,1,79.9999999999999,8|2,0:0|0:0,0:0:0:0:
347,220,38000,6,0,L|269:240,1,79.9999999999999,8|2,0:0|0:0,0:0:0:0:
189,239,38976,1,8,0:0:0:0:
108,238,39464,2,0,P|148:168|236:172,1,160,2|2,0:0|0:0,0:0:0:0:
300,164,40927,1,8,0:0:0:0:
301,247,41415,6,0,P|369:208|373:127,1,160,2|2,0:0|0:0,0:0:0:0:
332,64,42879,1,8,0:0:0:0:
251,63,43366,2,0,P|212:69|180:92,1,79.9999999999999,2|8,0:0|0:0,0:0:0:0:
211,165,44342,2,0,L|183:250,1,79.9999999999999,2|8,0:0|0:0,0:0:0:0:
116,204,45318,6,0,P|98:127|136:56,1,160,2|2,0:0|0:0,0:0:0:0:
212,40,46781,1,8,0:0:0:0:
268,96,47269,2,0,L|329:163,2,79.9999999999999,2|8|2,0:0|0:0|0:0,0:0:0:0:
212,40,48732,1,8,0:0:0:0:
132,56,49220,6,0,P|92:121|127:190,1,160,4|2,0:0|0:0,0:0:0:0:
177,255,50683,1,8,0:0:0:0:
176,335,51171,2,0,P|245:298|246:213,1,160,2|2,0:0|0:0,0:0:0:0:
247,139,52635,1,8,0:0:0:0:
246,58,53122,2,0,P|179:94|177:180,1,160,2|2,0:0|0:0,0:0:0:0:
216,236,54586,5,8,0:0:0:0:
276,288,55074,2,0,P|224:315|168:300,1,120,4|4,0:0|0:0,0:0:0:0:
255,67,58000,6,0,L|334:84,1,79.9999999999999,2|2,0:0|0:0,0:0:0:0:
392,136,58976,1,4,0:0:0:0:
304,218,59708,2,0,L|176:184,1,120,2|8,0:0|0:0,0:0:0:0:
137,127,60927,1,2,0:0:0:0:
24,160,61659,2,0,L|88:272,1,120,2|8,0:0|0:0,0:0:0:0:
140,324,62879,6,0,P|217:335|287:298,1,160,2|2,0:3|0:3,0:3:0:0:
348,244,64342,1,8,0:0:0:0:
380,168,64830,2,0,L|434:105,2,79.9999999999999,2|8|2,0:0|0:0|0:0,0:0:0:0:
310,125,66293,1,8,0:0:0:0:
309,44,66781,6,0,P|248:72|236:159,1,160,4|2,0:0|0:0,0:0:0:0:
235,237,68244,2,0,L|197:224,1,40,8|0,0:0|0:0,0:0:0:0:
136,276,68976,2,0,L|56:276,1,79.9999999999999,2|2,0:0|0:0,0:0:0:0:
56,195,69952,2,0,L|87:164,1,40,0|8,3:0|3:0,3:0:0:0:
136,103,70683,6,0,P|177:61|234:47,1,120,2|2,0:0|0:0,0:0:0:0:
326,125,72147,1,8,0:0:0:0:
403,140,72635,2,0,P|388:176|356:200,1,79.9999999999999,2|8,0:0|0:0,0:0:0:0:
277,211,73610,2,0,L|277:291,1,79.9999999999999,2|8,0:0|0:0,0:0:0:0:
277,371,74586,6,0,P|237:364|206:333,1,79.9999999999999,2|8,0:0|0:0,0:0:0:0:
176,188,76049,1,8,0:0:0:0:
212,116,76537,1,2,0:0:0:0:
244,44,77025,2,0,L|312:85,2,79.9999999999999,8|2|8,0:0|0:0|0:0,0:0:0:0:
163,44,78488,2,0,L|94:85,1,79.9999999999999,2|8,0:0|0:0,0:0:0:0:
52,152,79464,1,2,0:0:0:0:
40,232,79952,5,8,0:0:0:0:
92,292,80439,2,0,B|130:316|130:316|166:304|203:322,1,120,4|4,0:0|0:0,0:0:0:0:
156,308,83366,6,0,L|76:308,1,79.9999999999999,2|2,0:0|0:0,0:0:0:0:
32,240,84342,1,4,0:0:0:0:
32,159,84830,1,8,0:0:0:0:
32,78,85318,2,0,P|99:114|106:192,1,160,2|2,0:0|0:0,0:0:0:0:
187,195,86781,5,8,0:0:0:0:
267,195,87269,2,0,L|335:131,1,79.9999999999999,2|8,0:0|0:0,0:0:0:0:
364,72,88244,2,0,P|403:149|360:212,1,160,2|2,0:0|0:0,0:0:0:0:
288,206,89708,1,8,0:0:0:0:
248,136,90196,2,0,P|208:205|248:276,1,160,2|2,0:0|0:0,0:0:0:0:
321,271,91659,1,8,0:0:0:0:
377,214,92147,6,0,L|457:214,1,79.9999999999999,4|8,0:0|0:0,0:0:0:0:
457,133,93122,1,2,0:0:0:0:
400,76,93610,1,8,0:0:0:0:
327,43,94098,2,0,P|290:32|251:38,1,79.9999999999999,2|8,0:0|0:0,0:0:0:0:
246,121,95074,6,0,P|176:80|176:4,2,160,2|2|2,0:0|0:0|0:0,0:0:0:0:
246,201,97513,1,8,0:0:0:0:
246,280,98000,2,8,P|315:242|317:165,1,160,2|2,0:0|0:0,0:0:0:0:
316,85,99464,1,8,0:0:0:0:
311,4,99952,6,0,P|246:43|243:120,2,160,4|2|2,0:0|0:0|0:0,0:0:0:0:
316,85,102391,1,8,0:0:0:0:
392,107,102879,1,2,0:0:0:0:
428,177,103366,1,8,0:0:0:0:
400,252,103854,2,0,L|323:211,2,79.9999999999999,2|8|2,0:0|0:0|0:0,0:0:0:0:
363,359,105805,6,0,B|239:295|239:295|214:304|214:304|191:268|153:268,1,240,2|8,0:0|0:0,0:0:0:0:
75,284,107757,6,0,P|94:213|182:193,1,160,4|2,0:0|0:0,0:0:0:0:
251,190,109220,1,8,0:0:0:0:
331,190,109708,2,0,P|404:168|424:80,1,160,2|2,0:0|0:0,0:0:0:0:
344,104,111171,1,8,0:0:0:0:
196,44,112147,1,8,0:0:0:0:
140,104,112635,6,0,P|84:124|43:168,2,120,2|2|8,0:0|0:0|0:0,0:0:0:0:
196,160,114586,2,0,P|179:195|149:221,2,79.9999999999999,2|8|2,0:0|0:0|0:0,0:0:0:0:
256,108,116049,1,8,0:0:0:0:
415,111,117025,6,0,P|442:139|452:177,2,79.9999999999999,8|2|8,0:0|0:0|0:0,0:0:0:0:
254,111,118976,2,0,L|174:111,2,79.9999999999999,8|2|8,0:0|0:0|0:0,0:0:0:0:
368,224,120927,1,8,0:0:0:0:
206,224,121903,1,8,0:0:0:0:
319,337,122879,6,0,L|399:337,2,79.9999999999999,8|2|8,0:0|0:0|0:0,0:0:0:0:
262,280,124342,1,2,0:0:0:0:
261,199,124830,2,0,P|304:210|331:237,2,79.9999999999999,8|2|8,0:0|0:0|0:0,0:0:0:0:
205,142,126293,2,0,L|125:142,2,79.9999999999999,2|8|2,0:0|0:0|0:0,0:0:0:0:
205,61,127757,2,0,P|271:96|275:184,1,160,8|8,0:0|0:0,0:0:0:0:
206,142,129220,5,4,0:0:0:0:
121,226,129952,2,0,B|121:354|233:354|233:354|288:284,1,280,4|8,0:0|0:0,0:0:0:0:
256,212,132147,6,0,L|256:128,1,79.9999999999999,2|2,0:0|0:0,0:0:0:0:
215,64,133122,1,4,0:0:0:0:
295,64,133610,1,8,0:0:0:0:
404,184,134586,1,8,0:0:0:0:
352,336,135561,1,8,0:0:0:0:
207,267,136537,1,8,0:0:0:0:
205,346,137025,6,0,P|269:314|273:226,1,160,2|2,0:0|0:0,0:0:0:0:
276,152,138488,2,0,P|271:75|204:38,1,160,2|2,0:0|0:0,0:0:0:0:
60,106,140439,1,8,0:0:0:0:
60,186,140927,6,0,P|121:158|131:67,1,160,4|2,0:0|0:0,0:0:0:0:
208,44,142391,1,8,0:0:0:0:
284,24,142879,2,0,L|376:44,1,79.9999999999999,2|0,0:0|0:0,0:0:0:0:
320,196,144342,1,8,0:0:0:0:
328,276,144830,6,0,P|392:234|384:148,1,160,2|2,0:0|0:0,0:0:0:0:
347,89,146293,1,8,0:0:0:0:
277,49,146781,2,0,L|197:42,1,79.9999999999999,0|2,0:0|0:0,0:0:0:0:
281,181,148244,1,8,0:0:0:0:
224,124,148732,6,0,P|200:188|264:260,1,160,2|2,0:0|0:0,0:0:0:0:
312,313,150196,1,8,0:0:0:0:
368,256,150683,2,0,L|424:199,1,79.9999999999999,2|8,0:0|0:0,0:0:0:0:
311,85,152147,1,8,0:0:0:0:
254,141,152635,2,0,L|148:83,1,120,2|2,0:0|0:0,0:0:0:0:
63,168,154098,5,8,0:0:0:0:
63,248,154586,2,0,L|167:307,1,120,4|4,0:0|0:0,0:0:0:0:
232,124,157513,6,0,P|191:106|152:112,1,79.9999999999999,2|2,0:0|0:0,0:0:0:0:
104,172,158488,1,4,0:0:0:0:
120,252,158976,1,8,0:0:0:0:
264,324,159952,1,8,0:0:0:0:
427,320,160927,2,0,B|472:244|400:212|448:160,1,160,8|8,0:0|0:0,0:0:0:0:
436,88,162391,6,0,L|352:88,1,79.9999999999999,2|8,0:0|0:0,0:0:0:0:
215,166,163854,1,8,0:0:0:0:
139,198,164342,2,0,P|147:120|214:83,1,160,2|2,0:0|0:0,0:0:0:0:
215,166,165805,1,8,0:0:0:0:
212,248,166293,6,0,P|276:217|280:120,2,160,4|2|2,0:0|0:0|0:0,0:0:0:0:
155,191,168732,1,8,0:0:0:0:
48,72,169708,5,8,0:0:0:0:
124,48,170196,2,0,B|164:36|164:36|204:36,1,79.9999999999999,2|8,0:0|0:0,0:0:0:0:
360,77,171659,1,8,0:0:0:0:
360,157,172147,2,0,P|408:189|432:217,2,79.9999999999999,2|8|2,0:0|0:0|0:0,0:0:0:0:
279,157,173610,1,8,0:0:0:0:
279,76,174098,6,0,P|212:112|212:200,1,160,2|2,0:0|0:0,0:0:0:0:
262,245,175561,1,8,0:0:0:0:
340,228,176049,2,0,P|322:300|239:323,1,160,2|2,0:0|0:0,0:0:0:0:
185,267,177513,1,8,0:0:0:0:
104,266,178000,2,0,P|139:198|215:190,1,160,2|2,0:0|0:0,0:0:0:0:
283,233,179464,5,8,0:0:0:0:
340,176,179952,2,0,L|256:90,1,120,4|4,0:0|0:0,0:0:0:0:
256,192,181415,12,4,183854,0:0:0:0:
