osu file format v7

[General]
AudioFilename: Vuvuzela.mp3
AudioLeadIn: 2000
PreviewTime: -1
Countdown: 1
SampleSet: Normal
StackLeniency: 0.7
Mode: 0
LetterboxInBreaks: 1

[Editor]
Bookmarks: 1998
DistanceSpacing: 1
BeatDivisor: 4
GridSize: 8

[Metadata]
Title:Vuvuzela
Artist:Instrument
Creator:[Dango]
Version:minyzela
Source:
Tags:

[Difficulty]
HPDrainRate:8
CircleSize:4
OverallDifficulty:7
SliderMultiplier:1.6
SliderTickRate:1

[Events]
//Background and Video events
0,0,"Vuvuzela.jpg"
//Break Periods
//Storyboard Layer 0 (Background)
//Storyboard Layer 1 (Fail)
//Storyboard Layer 2 (Pass)
//Storyboard Layer 3 (Foreground)
//Storyboard Sound Samples
//Background Colour Transformations
3,100,163,162,255

[TimingPoints]
1999,307.692307692308,4,1,1,72,1,0

[HitObjects]
256,192,1999,2,0,B|256:240,33,40
189,187,4691,1,2
222,114,4845,1,0
302,115,4999,1,2
335,187,5152,1,0
372,258,5306,1,0
408,242,5383,1,0
444,226,5460,1,0
397,160,5614,2,0,B|348:121|276:183|214:133,1,160,2|0
174,104,6075,1,2
112,155,6229,1,0
52,209,6383,1,2
111,262,6537,1,0
111,262,6845,5,4
111,262,7152,1,0
261,207,7460,1,2
260,287,7614,1,0
330,248,7768,1,0
345,235,7845,1,0
362,225,7922,1,0
424,175,8075,1,2
367,118,8229,1,0
300,162,8383,5,0
289,147,8460,1,0
278,130,8537,1,0
269,111,8614,1,0
257,94,8691,1,2
178,78,8845,1,0
185,96,8922,1,0
195,113,8999,1,0
204,130,9075,1,0
215,146,9152,1,2
218,226,9306,1,8
218,226,9460,1,8
29,269,9614,6,0,B|21:168|144:162,1,160,0|2
192,203,10075,2,0,B|298:192|299:58,1,160
232,45,10537,1,2
483,269,10845,6,0,B|491:168|368:162,1,160,0|2
320,203,11306,2,0,B|214:192|213:58,1,160
280,45,11768,1,2
257,297,12075,5,0
257,297,12229,1,2
171,248,12383,1,0
171,248,12537,1,2
173,150,12691,1,0
173,150,12845,1,0
257,88,12999,1,2
257,88,13152,1,0
339,150,13306,1,0
339,150,13383,1,0
339,150,13460,1,2
341,247,13614,1,0
341,247,13691,1,0
341,247,13768,1,2
256,299,13922,6,0,B|256:348,8,40
255,258,14614,1,0
190,149,14768,1,2
317,150,14922,1,2
256,192,15075,12,0,15768
