osu file format v7

[General]
AudioFilename: Vuvuzela.mp3
AudioLeadIn: 2000
PreviewTime: -1
Countdown: 1
SampleSet: Normal
StackLeniency: 0.7
Mode: 1
LetterboxInBreaks: 1

[Editor]
DistanceSpacing: 1.29999995231628
BeatDivisor: 8
GridSize: 8

[Metadata]
Title:Vuvuzela
Artist:Instrument
Creator:[Dango]
Version:lepizela! - Taiko Oni
Source:
Tags:

[Difficulty]
HPDrainRate:6
CircleSize:4
OverallDifficulty:8
SliderMultiplier:1.4
SliderTickRate:1

[Events]
//Background and Video events
0,0,"Vuvuzela.jpg"
//Break Periods
//Storyboard Layer 0 (Background)
//Storyboard Layer 1 (Fail)
//Storyboard Layer 2 (Pass)
//Storyboard Layer 3 (Foreground)
//Storyboard Sound Samples
//Background Colour Transformations
3,100,163,162,255

[TimingPoints]
1999,307.692307692308,4,1,0,100,1,0
9383,-50,4,1,0,100,0,0
9999,-100,4,1,0,100,0,0
10614,-100,4,1,0,100,0,1
16768,-100,4,1,0,100,0,0

[HitObjects]
168,176,1998,1,0
168,176,2037,1,0
168,176,2075,1,0
168,176,2152,1,0
168,176,2229,1,0
168,176,2306,1,0
168,176,2383,1,0
168,176,2460,1,0
168,176,2537,1,0
168,176,2614,1,0
168,176,2652,1,0
168,176,2691,1,0
168,176,2768,1,0
168,176,2845,1,0
168,176,2922,1,0
168,176,2999,1,0
168,176,3075,1,0
168,176,3152,1,0
168,176,3229,1,0
168,176,3268,1,0
168,176,3306,1,0
168,176,3383,1,0
168,176,3460,1,0
168,176,3537,1,0
168,176,3614,1,0
168,176,3691,1,0
168,176,3768,1,0
168,176,3845,1,0
168,176,3883,1,0
168,176,3922,1,0
168,176,3999,1,0
168,176,4076,1,0
168,176,4153,1,0
168,176,4230,1,0
168,176,4306,1,0
168,176,4460,5,0
168,176,4499,1,0
168,176,4537,1,0
168,176,4614,1,0
168,176,4691,1,0
168,176,4768,1,0
168,176,4845,1,0
168,176,4922,1,0
168,176,4999,1,0
168,176,5076,1,0
168,176,5114,1,0
168,176,5153,1,0
168,176,5230,1,0
168,176,5307,1,0
168,176,5384,1,0
168,176,5461,1,0
168,176,5537,1,0
168,176,5614,1,0
168,176,5691,1,0
168,176,5730,1,0
168,176,5768,1,0
168,176,5845,1,0
168,176,5922,1,0
168,176,5999,1,0
168,176,6076,1,0
168,176,6153,1,0
168,176,6230,1,0
168,176,6307,1,0
168,176,6345,1,0
168,176,6384,1,0
168,176,6461,1,0
168,176,6538,1,0
168,176,6615,1,0
168,176,6692,1,0
168,176,6768,1,0
168,176,6922,5,0
168,176,6961,1,0
168,176,6999,1,0
168,176,7076,1,0
168,176,7153,1,0
168,176,7230,1,0
168,176,7307,1,8
168,176,7384,1,0
168,176,7461,1,8
168,176,7538,1,0
168,176,7576,1,0
168,176,7615,1,0
168,176,7692,1,0
168,176,7769,1,0
168,176,7846,1,0
168,176,7923,1,8
168,176,7999,1,0
168,176,8076,1,8
168,176,8153,1,0
168,176,8192,1,0
168,176,8230,1,0
168,176,8307,1,0
168,176,8384,1,0
168,176,8461,1,0
168,176,8538,1,8
168,176,8615,1,0
168,176,8692,1,8
168,176,8769,1,0
168,176,8807,1,0
168,176,8846,1,0
168,176,8923,1,0
168,176,9000,1,0
168,176,9075,1,8
168,176,9114,1,8
168,176,9152,1,8
168,176,9229,1,8
168,176,9306,1,8
200,144,9383,2,0,L|368:48|64:272,1,560
176,328,10306,1,12
296,192,10614,5,0
312,176,10652,1,0
328,160,10691,1,0
328,160,10768,1,0
368,184,10845,1,0
384,224,10922,1,8
368,264,10999,1,8
328,288,11075,1,8
280,296,11152,1,8
296,192,11229,1,0
312,176,11267,1,0
328,160,11306,1,0
328,160,11383,1,0
368,184,11460,1,0
384,224,11537,1,8
368,264,11614,1,8
328,288,11690,1,8
280,296,11767,1,8
256,256,11845,1,0
240,240,11883,1,0
224,224,11922,1,0
200,184,11999,1,0
240,168,12075,1,8
280,152,12152,1,8
320,136,12229,1,8
368,128,12306,1,8
416,128,12383,1,8
416,176,12460,1,0
416,200,12499,1,0
416,224,12537,1,0
376,248,12614,1,8
328,256,12691,1,8
280,264,12768,1,8
192,240,12922,1,8
152,160,13075,5,0
144,136,13114,1,0
136,112,13152,1,0
184,104,13229,1,0
232,112,13306,1,0
280,120,13383,1,8
320,136,13460,1,8
360,160,13537,1,0
384,200,13614,1,0
360,240,13691,1,0
352,264,13729,1,0
336,280,13768,1,0
288,280,13845,1,0
240,280,13922,1,0
240,232,13999,1,8
280,120,14075,1,8
320,136,14152,1,0
360,160,14229,1,0
400,176,14306,1,8
424,184,14345,1,8
440,200,14383,1,8
432,248,14460,1,8
352,264,14537,1,8
312,248,14614,1,0
264,248,14691,1,0
216,240,14768,1,0
192,200,14845,1,0
360,160,14922,1,8
360,160,14960,1,8
360,160,14999,1,8
360,160,15075,1,8
360,160,15152,1,8
376,200,15229,1,0
384,248,15306,1,0
384,248,15383,1,0
352,264,15460,1,0
320,232,15537,1,0
304,216,15575,1,0
288,200,15614,1,0
208,120,15768,1,12
