osu file format v7

[General]
AudioFilename: Vuvuzela.mp3
AudioLeadIn: 2000
PreviewTime: -1
Countdown: 1
SampleSet: Soft
StackLeniency: 0.7
Mode: 0
LetterboxInBreaks: 1

[Editor]
Bookmarks: 15691
DistanceSpacing: 1
BeatDivisor: 4
GridSize: 8

[Metadata]
Title:Vuvuzela
Artist:Instrument
Creator:[Dango]
Version:VUVUZELA TIME!!!1 ~ Gladi
Source:
Tags:mapping of world

[Difficulty]
HPDrainRate:0
CircleSize:6
OverallDifficulty:7
SliderMultiplier:2.2
SliderTickRate:1

[Events]
//Background and Video events
0,0,"Vuvuzela.jpg"
//Break Periods
//Storyboard Layer 0 (Background)
//Storyboard Layer 1 (Fail)
//Storyboard Layer 2 (Pass)
//Storyboard Layer 3 (Foreground)
//Storyboard Sound Samples
//Background Colour Transformations
3,100,163,162,255

[TimingPoints]
-460,615.384615384615,4,2,0,50,1,0
1539,-100,4,2,0,60,0,0
1693,-100,4,2,0,50,0,0
2001,-100,4,2,0,60,0,0
2155,-100,4,2,0,50,0,0
7693,-100,4,2,0,60,0,0
8309,-100,4,2,0,50,0,0
10155,-100,4,2,0,50,0,0
11847,-100,4,2,0,60,0,0
12155,-100,4,2,0,50,0,0
13078,-100,4,2,0,60,0,0
13386,-100,4,2,0,50,0,0
14309,-100,4,2,0,60,0,0
14463,-100,4,2,0,50,0,0
15539,-100,4,2,0,60,0,0
15691,-200,4,2,0,70,0,0
16152,-100,4,2,0,0,0,0

[HitObjects]
160,112,463,1,0
144,168,616,1,0
184,208,770,2,0,B|224:232|304:240,1,110,2|0
376,168,1386,1,0
376,168,1539,2,0,B|392:200|400:240,1,55,2|0
352,112,1847,2,0,B|336:80|328:40,1,55,0|2
288,96,2155,6,0,B|216:80|168:80,1,110
128,96,2616,1,2
80,192,2924,1,0
80,192,3078,2,0,B|96:224|104:256,1,55,0|2
88,296,3386,2,2,B|144:304|208:336,1,110,2|0
248,336,3847,5,2
296,312,4001,1,0
248,216,4309,2,2,B|240:160|256:88,1,110,2|0
296,72,4770,2,0,B|296:48|288:16,2,55,0|2|2
400,120,5386,1,2
368,224,5693,1,0
368,224,5847,1,2
376,280,6001,6,2,B|312:288|256:304,1,110,0|2
224,336,6463,2,0,B|192:328|160:312,1,55,0|2
176,208,6924,1,4
176,208,7232,2,2,B|120:184|64:176,1,110,2|0
48,128,7693,1,2
200,64,8155,1,2
256,48,8309,6,0,B|312:80|376:88,1,110,0|2
384,136,8770,1,2
384,136,8924,2,0,B|376:168|376:192,1,55,0|2
400,240,9232,1,0
352,264,9386,2,2,B|288:256|216:280,1,110,2|0
200,304,9847,1,4
96,272,10155,1,0
80,216,10309,6,0,B|56:200|16:184,1,55
24,136,10616,2,2,B|80:128|144:88,1,110,2|8
184,88,11078,1,0
200,144,11232,1,0
200,144,11386,2,0,B|240:152|272:168,1,55,0|8
280,208,11693,2,0,B|320:200|352:184,1,55,8|2
360,144,12001,1,2
408,176,12155,2,0,B|424:232|416:296,1,110,8|0
384,328,12616,5,0
328,320,12770,1,8
280,352,12924,2,0,B|248:352|208:360,1,55,8|2
192,312,13232,1,2
144,336,13386,2,0,B|120:280|120:224,1,110,8|0
88,184,13847,2,0,B|80:160|64:128,1,55,0|8
80,80,14155,1,8
80,80,14309,1,2
136,88,14463,5,2
160,136,14616,2,8,B|192:144|224:160,1,55,8|0
264,144,14924,2,0,B|272:120|304:80,2,55,0|0|8
280,200,15386,1,8
328,232,15540,1,2
376,208,15693,2,2,B|416:208|480:224,1,82.5,6|0
