osu file format v7

[General]
AudioFilename: Vuvuzela.mp3
AudioLeadIn: 2000
PreviewTime: -1
Countdown: 1
SampleSet: Normal
StackLeniency: 0.7
Mode: 1
LetterboxInBreaks: 1

[Editor]
DistanceSpacing: 1
BeatDivisor: 4
GridSize: 8

[Metadata]
Title:Vuvuzela
Artist:Instrument
Creator:[Dango]
Version:Taikozela3nd
Source:
Tags:mapping of world

[Difficulty]
HPDrainRate:5
CircleSize:5
OverallDifficulty:5
SliderMultiplier:1.4
SliderTickRate:1

[Events]
//Background and Video events
0,0,"Vuvuzela.jpg"
//Break Periods
//Storyboard Layer 0 (Background)
//Storyboard Layer 1 (Fail)
//Storyboard Layer 2 (Pass)
//Storyboard Layer 3 (Foreground)
//Storyboard Sound Samples
//Background Colour Transformations
3,100,163,162,255

[TimingPoints]
1999,615.384615384615,4,1,0,100,1,0

[HitObjects]
93,84,1999,1,0
91,118,2152,1,0
90,153,2306,1,0
88,188,2460,1,0
88,223,2614,1,0
88,258,2768,1,0
91,292,2922,1,0
129,144,3075,1,0
155,121,3229,1,0
181,97,3383,1,0
125,217,3537,1,0
149,242,3691,1,0
172,268,3845,1,0
193,295,3998,1,0
290,100,4460,1,0
273,131,4614,1,0
253,160,4768,1,0
244,194,4922,1,0
251,227,5075,1,0
263,259,5229,1,0
284,286,5383,1,0
314,303,5537,1,0
348,306,5691,1,0
378,288,5845,1,0
406,268,5998,1,0
412,233,6152,1,0
415,198,6306,1,0
414,162,6460,1,0
397,131,6614,1,0
373,104,6768,1,0
340,91,6922,1,0
307,79,7075,1,0
68,84,7537,1,0
69,119,7691,1,0
62,153,7845,1,0
74,185,7998,1,0
61,217,8152,1,0
63,251,8306,1,0
64,286,8460,1,0
108,90,8614,1,0
142,84,8768,1,0
176,90,8922,1,0
204,110,9075,1,0
190,142,9229,1,0
167,169,9383,1,0
135,184,9537,1,0
101,195,9691,1,0
125,220,9845,1,0
150,243,9998,1,0
179,262,10152,1,0
208,281,10306,1,0
291,84,10614,1,0
325,79,10768,1,0
360,79,10922,1,0
394,75,11075,1,0
292,134,11229,1,0
288,168,11383,1,0
289,202,11537,1,0
291,236,11691,1,0
299,269,11845,1,0
333,270,11998,1,0
368,271,12152,1,0
402,269,12306,1,0
328,175,12460,1,0
363,173,12614,1,0
398,173,12768,1,0
165,268,13075,1,0
181,236,13229,1,0
193,203,13383,1,0
195,168,13537,1,0
210,136,13691,1,0
226,104,13845,1,0
237,71,13998,1,0
265,51,14152,1,0
284,80,14306,1,0
291,114,14460,1,0
299,147,14614,1,0
307,181,14768,1,0
305,216,14922,1,0
309,250,15075,1,0
318,283,15229,1,0
225,196,15383,1,0
259,192,15537,1,0
294,189,15845,1,12
