osu file format v7

[General]
AudioFilename: Vuvuzela.mp3
AudioLeadIn: 2000
PreviewTime: -1
Countdown: 1
SampleSet: Soft
StackLeniency: 0.2
Mode: 0
LetterboxInBreaks: 1

[Editor]
DistanceSpacing: 1.20000004768372
BeatDivisor: 2
GridSize: 8

[Metadata]
Title:Vuvuzela
Artist:Instrument
Creator:[Dango]
Version:Random Notes......Zela
Source:
Tags:mapping of world

[Difficulty]
HPDrainRate:10
CircleSize:3
OverallDifficulty:10
SliderMultiplier:3.6
SliderTickRate:0.5

[Events]
//Background and Video events
0,0,"Vuvuzela.jpg"
//Break Periods
//Storyboard Layer 0 (Background)
//Storyboard Layer 1 (Fail)
//Storyboard Layer 2 (Pass)
//Storyboard Layer 3 (Foreground)
//Storyboard Sound Samples
//Background Colour Transformations
3,100,163,162,255

[TimingPoints]
514,315.789473684211,4,2,0,50,1,0
19932,-100,4,1,0,0,0,0
20041,-100,4,1,0,100,0,0

[HitObjects]
136,144,514,1,0
176,200,671,1,0
288,96,829,1,0
208,160,987,1,0
384,176,1145,1,0
272,144,1303,1,0
136,144,1461,1,0
96,192,1777,1,0
192,240,1935,1,0
160,264,2092,1,0
208,160,2250,1,0
384,176,2408,1,0
184,80,2566,1,0
344,16,2724,1,0
336,96,2882,1,0
328,200,3040,1,0
264,128,3356,1,0
184,80,3514,1,0
96,192,4145,1,0
192,168,4303,1,0
328,200,4461,1,0
264,280,4619,1,0
192,168,4935,1,0
232,80,5092,1,0
312,152,5250,1,0
168,208,5408,1,0
112,232,5724,1,0
208,320,5882,1,0
264,280,6040,1,0
368,240,6356,1,0
408,184,6514,1,0
368,112,6671,1,0
144,80,6829,1,0
72,96,6987,1,0
296,208,7303,1,0
296,208,7461,1,0
296,208,7619,1,0
296,208,7777,1,0
296,208,7935,1,0
296,208,8092,1,0
296,208,8250,1,0
296,208,8408,1,0
296,208,8566,1,0
168,184,9040,1,0
264,96,9198,1,0
264,296,9514,1,0
400,112,9671,1,0
352,208,9829,1,0
208,176,9987,1,0
320,112,10303,1,0
160,320,10461,1,0
264,96,10777,1,0
144,120,10935,1,0
504,344,11250,1,0
304,208,11408,1,0
264,96,11724,1,0
320,240,11882,1,0
144,120,12040,1,0
272,264,12356,1,0
144,120,12513,1,0
240,128,12671,1,0
320,56,12987,1,0
416,184,13935,5,4
304,144,14092,1,4
216,176,14408,1,4
184,152,14566,1,4
168,120,14724,1,4
144,96,15040,1,4
120,144,15198,1,4
368,144,15513,1,4
456,168,15671,1,4
488,160,15987,1,4
352,184,16619,1,4
312,208,16935,1,4
256,232,17092,1,4
176,208,17250,1,4
184,112,17566,1,4
400,112,17724,1,4
504,160,17882,1,4
504,160,18829,1,4
408,178,18987,1,4
263,184,19145,1,4
343,137,19777,1,4
215,136,19777,1,4
