osu file format v7

[General]
AudioFilename: Vuvuzela.mp3
AudioLeadIn: 2000
PreviewTime: -1
Countdown: 1
SampleSet: Normal
StackLeniency: 0.2
Mode: 0
LetterboxInBreaks: 1

[Editor]
DistanceSpacing: 1.29999995231628
BeatDivisor: 1
GridSize: 8

[Metadata]
Title:Vuvuzela
Artist:Instrument
Creator:[Dango]
Version:Ph0XZZZZZZ
Source:
Tags:mapping of world

[Difficulty]
HPDrainRate:5
CircleSize:7
OverallDifficulty:10
SliderMultiplier:2
SliderTickRate:0.5

[Events]
//Background and Video events
0,0,"Vuvuzela.jpg"
//Break Periods
//Storyboard Layer 0 (Background)
//Storyboard Layer 1 (Fail)
//Storyboard Layer 2 (Pass)
//Storyboard Layer 3 (Foreground)
//Storyboard Sound Samples
//Background Colour Transformations
3,100,163,162,255

[TimingPoints]
1999,307.692307692308,4,1,0,49,1,0
15229,-100,4,1,0,49,0,1
16152,-100,4,1,0,49,0,0
19947,-100,4,2,0,0,0,0

[HitObjects]
418,88,1998,5,0
94,296,1999,5,0
415,102,2000,5,0
97,282,2001,5,0
412,116,2002,5,0
100,268,2003,5,0
409,129,2004,5,0
103,255,2005,5,0
405,142,2006,5,0
107,242,2007,5,0
401,154,2008,5,0
111,230,2009,5,0
396,166,2010,5,0
116,218,2011,5,0
391,178,2012,5,0
121,206,2013,5,0
385,190,2014,5,0
127,194,2015,5,0
378,200,2016,5,0
134,184,2017,5,0
371,211,2018,5,0
141,173,2019,5,0
363,220,2020,5,0
149,164,2021,5,0
355,229,2022,5,0
157,155,2023,5,0
345,238,2024,5,0
167,146,2025,5,0
335,245,2026,5,0
177,139,2027,5,0
325,251,2028,5,0
187,133,2029,5,0
314,256,2030,5,0
198,128,2031,5,0
302,260,2032,5,0
210,124,2033,5,0
290,262,2034,5,0
222,122,2035,5,0
278,263,2036,5,0
234,121,2037,5,0
266,262,2038,5,0
246,122,2039,5,0
254,259,2040,5,0
258,125,2041,5,0
243,255,2042,5,0
269,129,2043,5,0
233,248,2044,5,0
279,136,2045,5,0
224,240,2046,5,0
288,144,2047,5,0
216,230,2048,5,0
296,154,2049,5,0
211,219,2050,5,0
301,165,2051,5,0
209,207,2052,5,0
303,177,2053,5,0
209,195,2054,5,0
303,189,2055,5,0
212,183,2056,5,0
300,201,2057,5,0
218,172,2058,5,0
294,212,2059,5,0
227,163,2060,5,0
285,221,2061,5,0
238,158,2062,5,0
274,226,2063,5,0
250,156,2064,5,0
262,228,2065,5,0
263,158,2066,5,0
249,226,2067,5,0
274,164,2068,5,0
238,220,2069,5,0
282,173,2070,5,0
230,211,2071,5,0
285,185,2072,5,0
227,199,2073,5,0
284,198,2074,5,0
228,186,2075,5,0
277,209,2076,5,0
235,175,2077,5,0
433,118,2078,5,0
79,266,2079,5,0
428,131,2080,5,0
84,253,2081,5,0
423,144,2082,5,0
89,240,2083,5,0
417,156,2084,5,0
95,228,2085,5,0
411,168,2086,5,0
101,216,2087,5,0
405,180,2088,5,0
107,204,2089,5,0
398,191,2090,5,0
114,193,2091,5,0
391,202,2092,5,0
121,182,2093,5,0
383,212,2094,5,0
129,172,2095,5,0
375,221,2096,5,0
137,163,2097,5,0
366,230,2098,5,0
146,154,2099,5,0
357,239,2100,5,0
155,145,2101,5,0
347,246,2102,5,0
165,138,2103,5,0
336,252,2104,5,0
176,132,2105,5,0
325,258,2106,5,0
187,126,2107,5,0
314,262,2108,5,0
198,122,2109,5,0
302,265,2110,5,0
210,119,2111,5,0
290,267,2112,5,0
222,117,2113,5,0
278,267,2114,5,0
234,117,2115,5,0
265,266,2116,5,0
247,118,2117,5,0
254,263,2118,5,0
258,121,2119,5,0
242,258,2120,5,0
270,126,2121,5,0
232,251,2122,5,0
280,133,2123,5,0
223,243,2124,5,0
289,141,2125,5,0
216,234,2126,5,0
296,150,2127,5,0
210,223,2128,5,0
302,161,2129,5,0
207,211,2130,5,0
305,173,2131,5,0
207,199,2132,5,0
305,185,2133,5,0
209,186,2134,5,0
303,198,2135,5,0
214,175,2136,5,0
298,209,2137,5,0
222,166,2138,5,0
290,218,2139,5,0
232,159,2140,5,0
280,225,2141,5,0
244,155,2142,5,0
268,229,2143,5,0
257,155,2144,5,0
255,229,2145,5,0
268,159,2146,5,0
244,225,2147,5,0
278,167,2148,5,0
234,217,2149,5,0
285,178,2150,5,0
227,206,2151,5,0
286,191,2152,5,0
226,193,2153,5,0
283,203,2154,5,0
229,181,2155,5,0
274,212,2156,5,0
238,172,2157,5,0
443,150,2158,5,0
69,234,2159,5,0
436,162,2160,5,0
76,222,2161,5,0
429,174,2162,5,0
83,210,2163,5,0
421,185,2164,5,0
91,199,2165,5,0
413,196,2166,5,0
99,188,2167,5,0
405,206,2168,5,0
107,178,2169,5,0
396,216,2170,5,0
116,168,2171,5,0
387,225,2172,5,0
125,159,2173,5,0
378,234,2174,5,0
134,150,2175,5,0
368,242,2176,5,0
144,142,2177,5,0
358,249,2178,5,0
154,135,2179,5,0
347,255,2180,5,0
165,129,2181,5,0
336,261,2182,5,0
176,123,2183,5,0
324,265,2184,5,0
188,119,2185,5,0
313,269,2186,5,0
199,115,2187,5,0
301,271,2188,5,0
211,113,2189,5,0
288,272,2190,5,0
224,112,2191,5,0
276,272,2192,5,0
236,112,2193,5,0
264,270,2194,5,0
248,114,2195,5,0
253,266,2196,5,0
259,118,2197,5,0
241,261,2198,5,0
271,123,2199,5,0
231,254,2200,5,0
281,130,2201,5,0
222,246,2202,5,0
290,138,2203,5,0
215,237,2204,5,0
297,147,2205,5,0
209,226,2206,5,0
303,158,2207,5,0
206,214,2208,5,0
306,170,2209,5,0
205,202,2210,5,0
307,182,2211,5,0
206,190,2212,5,0
306,194,2213,5,0
211,178,2214,5,0
301,206,2215,5,0
218,168,2216,5,0
294,216,2217,5,0
227,160,2218,5,0
285,224,2219,5,0
238,155,2220,5,0
274,229,2221,5,0
251,154,2222,5,0
261,230,2223,5,0
263,156,2224,5,0
249,228,2225,5,0
274,162,2226,5,0
238,222,2227,5,0
282,171,2228,5,0
230,213,2229,5,0
286,183,2230,5,0
226,201,2231,5,0
286,196,2232,5,0
226,188,2233,5,0
280,207,2234,5,0
232,177,2235,5,0
270,215,2236,5,0
242,169,2237,5,0
448,183,2238,5,0
64,201,2239,5,0
439,194,2240,5,0
73,190,2241,5,0
429,204,2242,5,0
83,180,2243,5,0
420,214,2244,5,0
92,170,2245,5,0
410,223,2246,5,0
102,161,2247,5,0
400,232,2248,5,0
112,152,2249,5,0
390,240,2250,5,0
122,144,2251,5,0
379,247,2252,5,0
133,137,2253,5,0
369,254,2254,5,0
143,130,2255,5,0
358,260,2256,5,0
154,124,2257,5,0
346,266,2258,5,0
166,118,2259,5,0
335,270,2260,5,0
177,114,2261,5,0
323,274,2262,5,0
189,110,2263,5,0
311,276,2264,5,0
201,108,2265,5,0
298,277,2266,5,0
214,107,2267,5,0
286,278,2268,5,0
226,106,2269,5,0
274,276,2270,5,0
238,108,2271,5,0
262,274,2272,5,0
250,110,2273,5,0
251,270,2274,5,0
261,114,2275,5,0
240,264,2276,5,0
272,120,2277,5,0
230,258,2278,5,0
282,126,2279,5,0
221,249,2280,5,0
291,135,2281,5,0
213,240,2282,5,0
299,144,2283,5,0
208,229,2284,5,0
304,155,2285,5,0
204,217,2286,5,0
308,167,2287,5,0
203,205,2288,5,0
309,179,2289,5,0
204,193,2290,5,0
308,191,2291,5,0
207,181,2292,5,0
305,203,2293,5,0
214,171,2294,5,0
298,213,2295,5,0
222,162,2296,5,0
290,222,2297,5,0
233,156,2298,5,0
279,228,2299,5,0
245,153,2300,5,0
267,231,2301,5,0
258,153,2302,5,0
254,231,2303,5,0
269,158,2304,5,0
243,226,2305,5,0
279,165,2306,5,0
233,219,2307,5,0
285,176,2308,5,0
227,208,2309,5,0
288,189,2310,5,0
224,195,2311,5,0
285,201,2312,5,0
227,183,2313,5,0
277,211,2314,5,0
235,173,2315,5,0
266,217,2316,5,0
246,167,2317,5,0
446,216,2318,5,0
66,168,2319,5,0
436,225,2320,5,0
76,159,2321,5,0
425,234,2322,5,0
87,150,2323,5,0
414,242,2324,5,0
98,142,2325,5,0
402,249,2326,5,0
110,135,2327,5,0
391,256,2328,5,0
121,128,2329,5,0
380,262,2330,5,0
132,122,2331,5,0
368,268,2332,5,0
144,116,2333,5,0
356,273,2334,5,0
156,111,2335,5,0
344,277,2336,5,0
168,107,2337,5,0
332,280,2338,5,0
180,104,2339,5,0
320,283,2340,5,0
192,101,2341,5,0
307,284,2342,5,0
205,100,2343,5,0
295,284,2344,5,0
217,100,2345,5,0
283,283,2346,5,0
229,101,2347,5,0
271,281,2348,5,0
241,103,2349,5,0
259,278,2350,5,0
253,106,2351,5,0
248,274,2352,5,0
264,110,2353,5,0
237,268,2354,5,0
275,116,2355,5,0
227,261,2356,5,0
285,123,2357,5,0
219,252,2358,5,0
293,132,2359,5,0
211,242,2360,5,0
301,142,2361,5,0
206,231,2362,5,0
306,153,2363,5,0
202,220,2364,5,0
310,164,2365,5,0
200,208,2366,5,0
312,176,2367,5,0
201,196,2368,5,0
311,188,2369,5,0
204,184,2370,5,0
308,200,2371,5,0
210,173,2372,5,0
302,211,2373,5,0
218,164,2374,5,0
294,220,2375,5,0
228,157,2376,5,0
284,227,2377,5,0
240,152,2378,5,0
272,232,2379,5,0
252,151,2380,5,0
260,233,2381,5,0
264,154,2382,5,0
248,230,2383,5,0
275,160,2384,5,0
237,224,2385,5,0
283,170,2386,5,0
229,214,2387,5,0
288,182,2388,5,0
224,202,2389,5,0
288,194,2390,5,0
224,190,2391,5,0
283,206,2392,5,0
229,178,2393,5,0
274,215,2394,5,0
238,169,2395,5,0
262,219,2396,5,0
250,165,2397,5,0
439,249,2398,5,0
73,135,2399,5,0
427,256,2400,5,0
85,128,2401,5,0
415,263,2402,5,0
97,121,2403,5,0
403,268,2404,5,0
109,116,2405,5,0
390,274,2406,5,0
122,110,2407,5,0
378,279,2408,5,0
134,105,2409,5,0
365,283,2410,5,0
147,101,2411,5,0
353,286,2412,5,0
159,98,2413,5,0
341,289,2414,5,0
171,95,2415,5,0
328,291,2416,5,0
184,93,2417,5,0
316,292,2418,5,0
196,92,2419,5,0
303,292,2420,5,0
209,92,2421,5,0
291,291,2422,5,0
221,93,2423,5,0
279,290,2424,5,0
233,94,2425,5,0
267,287,2426,5,0
245,97,2427,5,0
255,283,2428,5,0
257,101,2429,5,0
244,277,2430,5,0
268,107,2431,5,0
234,271,2432,5,0
278,113,2433,5,0
224,263,2434,5,0
288,121,2435,5,0
216,254,2436,5,0
296,130,2437,5,0
209,245,2438,5,0
303,139,2439,5,0
203,234,2440,5,0
309,150,2441,5,0
200,222,2442,5,0
312,162,2443,5,0
198,210,2444,5,0
314,174,2445,5,0
198,198,2446,5,0
314,186,2447,5,0
201,186,2448,5,0
311,198,2449,5,0
207,175,2450,5,0
305,209,2451,5,0
214,165,2452,5,0
298,219,2453,5,0
224,158,2454,5,0
288,226,2455,5,0
235,152,2456,5,0
277,232,2457,5,0
247,150,2458,5,0
265,234,2459,5,0
259,151,2460,5,0
253,233,2461,5,0
271,156,2462,5,0
241,228,2463,5,0
280,164,2464,5,0
232,220,2465,5,0
287,175,2466,5,0
225,209,2467,5,0
289,187,2468,5,0
223,197,2469,5,0
287,200,2470,5,0
225,184,2471,5,0
280,210,2472,5,0
232,174,2473,5,0
269,217,2474,5,0
243,167,2475,5,0
257,219,2476,5,0
255,165,2477,5,0
427,280,2478,5,0
85,104,2479,5,0
413,285,2480,5,0
99,99,2481,5,0
400,289,2482,5,0
112,95,2483,5,0
387,293,2484,5,0
125,91,2485,5,0
374,296,2486,5,0
138,88,2487,5,0
361,298,2488,5,0
151,86,2489,5,0
348,300,2490,5,0
164,84,2491,5,0
335,302,2492,5,0
177,82,2493,5,0
322,302,2494,5,0
190,82,2495,5,0
310,302,2496,5,0
202,82,2497,5,0
297,301,2498,5,0
215,83,2499,5,0
285,299,2500,5,0
227,85,2501,5,0
273,296,2502,5,0
239,88,2503,5,0
261,292,2504,5,0
251,92,2505,5,0
250,287,2506,5,0
262,97,2507,5,0
239,281,2508,5,0
273,103,2509,5,0
229,274,2510,5,0
283,110,2511,5,0
220,266,2512,5,0
292,118,2513,5,0
212,257,2514,5,0
300,127,2515,5,0
206,247,2516,5,0
306,137,2517,5,0
200,236,2518,5,0
312,148,2519,5,0
197,224,2520,5,0
315,160,2521,5,0
195,212,2522,5,0
317,172,2523,5,0
196,200,2524,5,0
316,184,2525,5,0
198,188,2526,5,0
314,196,2527,5,0
203,177,2528,5,0
309,207,2529,5,0
210,167,2530,5,0
302,217,2531,5,0
219,158,2532,5,0
293,226,2533,5,0
230,152,2534,5,0
282,232,2535,5,0
242,149,2536,5,0
270,235,2537,5,0
254,149,2538,5,0
258,235,2539,5,0
266,153,2540,5,0
246,231,2541,5,0
277,159,2542,5,0
235,225,2543,5,0
285,169,2544,5,0
227,215,2545,5,0
289,181,2546,5,0
223,203,2547,5,0
289,193,2548,5,0
223,191,2549,5,0
285,205,2550,5,0
227,179,2551,5,0
276,214,2552,5,0
236,170,2553,5,0
265,219,2554,5,0
247,165,2555,5,0
252,219,2556,5,0
260,165,2557,5,0
409,308,2558,5,0
103,76,2559,5,0
395,311,2560,5,0
117,73,2561,5,0
381,313,2562,5,0
131,71,2563,5,0
368,314,2564,5,0
144,70,2565,5,0
354,315,2566,5,0
158,69,2567,5,0
341,315,2568,5,0
171,69,2569,5,0
328,315,2570,5,0
184,69,2571,5,0
315,314,2572,5,0
197,70,2573,5,0
302,312,2574,5,0
210,72,2575,5,0
290,310,2576,5,0
222,74,2577,5,0
278,306,2578,5,0
234,78,2579,5,0
266,302,2580,5,0
246,82,2581,5,0
255,297,2582,5,0
257,87,2583,5,0
244,291,2584,5,0
268,93,2585,5,0
234,285,2586,5,0
278,99,2587,5,0
224,277,2588,5,0
288,107,2589,5,0
216,268,2590,5,0
296,116,2591,5,0
208,259,2592,5,0
304,125,2593,5,0
202,248,2594,5,0
310,136,2595,5,0
197,237,2596,5,0
315,147,2597,5,0
194,225,2598,5,0
318,159,2599,5,0
192,213,2600,5,0
320,171,2601,5,0
193,201,2602,5,0
319,183,2603,5,0
195,189,2604,5,0
317,195,2605,5,0
200,178,2606,5,0
312,206,2607,5,0
207,168,2608,5,0
305,216,2609,5,0
215,159,2610,5,0
297,225,2611,5,0
226,153,2612,5,0
286,231,2613,5,0
237,149,2614,5,0
275,235,2615,5,0
250,147,2616,5,0
262,237,2617,5,0
262,150,2618,5,0
250,234,2619,5,0
273,155,2620,5,0
239,229,2621,5,0
282,163,2622,5,0
230,221,2623,5,0
288,174,2624,5,0
224,210,2625,5,0
291,186,2626,5,0
221,198,2627,5,0
289,199,2628,5,0
223,185,2629,5,0
282,210,2630,5,0
230,174,2631,5,0
272,217,2632,5,0
240,167,2633,5,0
260,220,2634,5,0
252,164,2635,5,0
248,218,2636,5,0
264,166,2637,5,0
386,333,2638,5,0
126,51,2639,5,0
372,333,2640,5,0
140,51,2641,5,0
358,332,2642,5,0
154,52,2643,5,0
345,331,2644,5,0
167,53,2645,5,0
331,330,2646,5,0
181,54,2647,5,0
318,328,2648,5,0
194,56,2649,5,0
305,325,2650,5,0
207,59,2651,5,0
293,322,2652,5,0
219,62,2653,5,0
281,318,2654,5,0
231,66,2655,5,0
269,314,2656,5,0
243,70,2657,5,0
258,308,2658,5,0
254,76,2659,5,0
247,302,2660,5,0
265,82,2661,5,0
236,296,2662,5,0
276,88,2663,5,0
227,288,2664,5,0
285,96,2665,5,0
218,279,2666,5,0
294,105,2667,5,0
210,270,2668,5,0
302,114,2669,5,0
203,260,2670,5,0
309,124,2671,5,0
197,249,2672,5,0
315,135,2673,5,0
193,238,2674,5,0
319,146,2675,5,0
190,226,2676,5,0
322,158,2677,5,0
189,214,2678,5,0
323,170,2679,5,0
190,202,2680,5,0
322,182,2681,5,0
192,190,2682,5,0
320,194,2683,5,0
197,179,2684,5,0
315,205,2685,5,0
203,168,2686,5,0
309,216,2687,5,0
212,159,2688,5,0
300,225,2689,5,0
222,153,2690,5,0
290,231,2691,5,0
233,148,2692,5,0
279,236,2693,5,0
245,146,2694,5,0
267,238,2695,5,0
257,147,2696,5,0
255,237,2697,5,0
269,151,2698,5,0
243,233,2699,5,0
279,158,2700,5,0
233,226,2701,5,0
287,168,2702,5,0
225,216,2703,5,0
291,180,2704,5,0
221,204,2705,5,0
291,193,2706,5,0
221,191,2707,5,0
287,204,2708,5,0
225,180,2709,5,0
279,214,2710,5,0
233,170,2711,5,0
268,220,2712,5,0
244,164,2713,5,0
255,221,2714,5,0
257,163,2715,5,0
243,216,2716,5,0
269,168,2717,5,0
360,354,2718,5,0
152,30,2719,5,0
346,351,2720,5,0
166,33,2721,5,0
332,348,2722,5,0
180,36,2723,5,0
319,345,2724,5,0
193,39,2725,5,0
306,341,2726,5,0
206,43,2727,5,0
294,337,2728,5,0
218,47,2729,5,0
282,332,2730,5,0
230,52,2731,5,0
270,327,2732,5,0
242,57,2733,5,0
258,321,2734,5,0
254,63,2735,5,0
248,314,2736,5,0
264,70,2737,5,0
237,307,2738,5,0
275,77,2739,5,0
228,299,2740,5,0
284,85,2741,5,0
219,291,2742,5,0
293,93,2743,5,0
210,281,2744,5,0
302,103,2745,5,0
203,271,2746,5,0
309,113,2747,5,0
197,261,2748,5,0
315,123,2749,5,0
192,250,2750,5,0
320,134,2751,5,0
188,238,2752,5,0
324,146,2753,5,0
186,226,2754,5,0
326,158,2755,5,0
185,214,2756,5,0
327,170,2757,5,0
186,202,2758,5,0
326,182,2759,5,0
189,190,2760,5,0
323,194,2761,5,0
193,179,2762,5,0
319,205,2763,5,0
200,169,2764,5,0
312,215,2765,5,0
208,160,2766,5,0
304,224,2767,5,0
218,152,2768,5,0
294,232,2769,5,0
229,147,2770,5,0
283,237,2771,5,0
241,145,2772,5,0
271,239,2773,5,0
253,145,2774,5,0
259,239,2775,5,0
265,148,2776,5,0
247,236,2777,5,0
276,154,2778,5,0
236,230,2779,5,0
285,163,2780,5,0
227,221,2781,5,0
290,174,2782,5,0
222,210,2783,5,0
292,186,2784,5,0
220,198,2785,5,0
290,199,2786,5,0
222,185,2787,5,0
284,210,2788,5,0
228,174,2789,5,0
275,218,2790,5,0
237,166,2791,5,0
263,221,2792,5,0
249,163,2793,5,0
250,220,2794,5,0
262,164,2795,5,0
239,213,2796,5,0
273,171,2797,5,0
330,369,2798,5,0
182,15,2799,5,0
317,364,2800,5,0
195,20,2801,5,0
304,359,2802,5,0
208,25,2803,5,0
292,353,2804,5,0
220,31,2805,5,0
280,347,2806,5,0
232,37,2807,5,0
268,341,2808,5,0
244,43,2809,5,0
257,334,2810,5,0
255,50,2811,5,0
246,327,2812,5,0
266,57,2813,5,0
236,319,2814,5,0
276,65,2815,5,0
227,311,2816,5,0
285,73,2817,5,0
218,302,2818,5,0
294,82,2819,5,0
209,293,2820,5,0
303,91,2821,5,0
202,283,2822,5,0
310,101,2823,5,0
196,272,2824,5,0
316,112,2825,5,0
190,261,2826,5,0
322,123,2827,5,0
186,250,2828,5,0
326,134,2829,5,0
183,238,2830,5,0
329,146,2831,5,0
181,226,2832,5,0
331,158,2833,5,0
181,214,2834,5,0
331,170,2835,5,0
182,201,2836,5,0
330,183,2837,5,0
185,190,2838,5,0
327,194,2839,5,0
190,178,2840,5,0
322,206,2841,5,0
197,168,2842,5,0
315,216,2843,5,0
205,159,2844,5,0
307,225,2845,5,0
214,152,2846,5,0
298,232,2847,5,0
225,146,2848,5,0
287,238,2849,5,0
237,143,2850,5,0
275,241,2851,5,0
249,143,2852,5,0
263,241,2853,5,0
262,145,2854,5,0
250,239,2855,5,0
273,150,2856,5,0
239,234,2857,5,0
282,158,2858,5,0
230,226,2859,5,0
289,168,2860,5,0
223,216,2861,5,0
293,180,2862,5,0
219,204,2863,5,0
293,193,2864,5,0
219,191,2865,5,0
289,204,2866,5,0
223,180,2867,5,0
281,214,2868,5,0
231,170,2869,5,0
270,221,2870,5,0
242,163,2871,5,0
257,222,2872,5,0
255,162,2873,5,0
245,219,2874,5,0
267,165,2875,5,0
236,210,2876,5,0
276,174,2877,5,0
298,379,2878,5,0
214,5,2879,5,0
286,372,2880,5,0
226,12,2881,5,0
274,365,2882,5,0
238,19,2883,5,0
263,357,2884,5,0
249,27,2885,5,0
252,349,2886,5,0
260,35,2887,5,0
242,341,2888,5,0
270,43,2889,5,0
232,332,2890,5,0
280,52,2891,5,0
223,323,2892,5,0
289,61,2893,5,0
214,314,2894,5,0
298,70,2895,5,0
206,304,2896,5,0
306,80,2897,5,0
199,294,2898,5,0
313,90,2899,5,0
193,283,2900,5,0
319,101,2901,5,0
187,272,2902,5,0
325,112,2903,5,0
183,260,2904,5,0
329,124,2905,5,0
179,249,2906,5,0
333,135,2907,5,0
177,237,2908,5,0
335,147,2909,5,0
176,224,2910,5,0
336,160,2911,5,0
176,212,2912,5,0
336,172,2913,5,0
178,200,2914,5,0
334,184,2915,5,0
182,189,2916,5,0
330,195,2917,5,0
187,177,2918,5,0
325,207,2919,5,0
194,167,2920,5,0
318,217,2921,5,0
202,158,2922,5,0
310,226,2923,5,0
211,151,2924,5,0
301,233,2925,5,0
222,145,2926,5,0
290,239,2927,5,0
234,142,2928,5,0
278,242,2929,5,0
246,141,2930,5,0
266,243,2931,5,0
258,142,2932,5,0
254,242,2933,5,0
270,147,2934,5,0
242,237,2935,5,0
280,154,2936,5,0
232,230,2937,5,0
288,163,2938,5,0
224,221,2939,5,0
293,174,2940,5,0
219,210,2941,5,0
294,187,2942,5,0
218,197,2943,5,0
292,199,2944,5,0
220,185,2945,5,0
286,210,2946,5,0
226,174,2947,5,0
277,218,2948,5,0
235,166,2949,5,0
265,222,2950,5,0
247,162,2951,5,0
252,222,2952,5,0
260,162,2953,5,0
241,216,2954,5,0
271,168,2955,5,0
233,206,2956,5,0
279,178,2957,5,0
265,384,2958,5,0
247,0,2959,5,0
254,375,2960,5,0
258,9,2961,5,0
244,365,2962,5,0
268,19,2963,5,0
234,356,2964,5,0
278,28,2965,5,0
225,346,2966,5,0
287,38,2967,5,0
216,336,2968,5,0
296,48,2969,5,0
208,326,2970,5,0
304,58,2971,5,0
201,315,2972,5,0
311,69,2973,5,0
194,305,2974,5,0
318,79,2975,5,0
188,294,2976,5,0
324,90,2977,5,0
182,282,2978,5,0
330,102,2979,5,0
178,271,2980,5,0
334,113,2981,5,0
174,259,2982,5,0
338,125,2983,5,0
172,247,2984,5,0
340,137,2985,5,0
171,234,2986,5,0
341,150,2987,5,0
170,222,2988,5,0
342,162,2989,5,0
172,210,2990,5,0
340,174,2991,5,0
174,198,2992,5,0
338,186,2993,5,0
178,187,2994,5,0
334,197,2995,5,0
184,176,2996,5,0
328,208,2997,5,0
190,166,2998,5,0
322,218,2999,5,0
199,157,3000,5,0
313,227,3001,5,0
208,149,3002,5,0
304,235,3003,5,0
219,144,3004,5,0
293,240,3005,5,0
231,140,3006,5,0
281,244,3007,5,0
243,139,3008,5,0
269,245,3009,5,0
255,140,3010,5,0
257,244,3011,5,0
267,143,3012,5,0
245,241,3013,5,0
277,150,3014,5,0
235,234,3015,5,0
286,158,3016,5,0
226,226,3017,5,0
292,169,3018,5,0
220,215,3019,5,0
295,181,3020,5,0
217,203,3021,5,0
295,194,3022,5,0
217,190,3023,5,0
290,205,3024,5,0
222,179,3025,5,0
283,215,3026,5,0
229,169,3027,5,0
272,221,3028,5,0
240,163,3029,5,0
259,224,3030,5,0
253,160,3031,5,0
247,221,3032,5,0
265,163,3033,5,0
237,213,3034,5,0
275,171,3035,5,0
231,202,3036,5,0
281,182,3037,5,0
232,382,3038,5,0
280,2,3039,5,0
223,372,3040,5,0
289,12,3041,5,0
214,361,3042,5,0
298,23,3043,5,0
206,350,3044,5,0
306,34,3045,5,0
199,338,3046,5,0
313,46,3047,5,0
192,327,3048,5,0
320,57,3049,5,0
186,316,3050,5,0
326,68,3051,5,0
180,304,3052,5,0
332,80,3053,5,0
175,292,3054,5,0
337,92,3055,5,0
171,280,3056,5,0
341,104,3057,5,0
168,268,3058,5,0
344,116,3059,5,0
165,256,3060,5,0
347,128,3061,5,0
164,243,3062,5,0
348,141,3063,5,0
164,231,3064,5,0
348,153,3065,5,0
165,219,3066,5,0
347,165,3067,5,0
167,207,3068,5,0
345,177,3069,5,0
170,195,3070,5,0
342,189,3071,5,0
174,184,3072,5,0
338,200,3073,5,0
180,173,3074,5,0
332,211,3075,5,0
187,163,3076,5,0
325,221,3077,5,0
196,155,3078,5,0
316,229,3079,5,0
206,147,3080,5,0
306,237,3081,5,0
217,142,3082,5,0
295,242,3083,5,0
228,138,3084,5,0
284,246,3085,5,0
240,136,3086,5,0
272,248,3087,5,0
252,137,3088,5,0
260,247,3089,5,0
264,140,3090,5,0
248,244,3091,5,0
275,146,3092,5,0
237,238,3093,5,0
284,154,3094,5,0
228,230,3095,5,0
291,164,3096,5,0
221,220,3097,5,0
296,176,3098,5,0
216,208,3099,5,0
297,188,3100,5,0
215,196,3101,5,0
294,200,3102,5,0
218,184,3103,5,0
288,211,3104,5,0
224,173,3105,5,0
278,219,3106,5,0
234,165,3107,5,0
266,224,3108,5,0
246,160,3109,5,0
254,224,3110,5,0
258,160,3111,5,0
242,219,3112,5,0
270,165,3113,5,0
233,210,3114,5,0
279,174,3115,5,0
229,198,3116,5,0
283,186,3117,5,0
199,375,3118,5,0
313,9,3119,5,0
192,363,3120,5,0
320,21,3121,5,0
185,351,3122,5,0
327,33,3123,5,0
180,339,3124,5,0
332,45,3125,5,0
174,326,3126,5,0
338,58,3127,5,0
169,314,3128,5,0
343,70,3129,5,0
165,301,3130,5,0
347,83,3131,5,0
162,289,3132,5,0
350,95,3133,5,0
159,277,3134,5,0
353,107,3135,5,0
157,264,3136,5,0
355,120,3137,5,0
156,252,3138,5,0
356,132,3139,5,0
156,239,3140,5,0
356,145,3141,5,0
157,227,3142,5,0
355,157,3143,5,0
158,215,3144,5,0
354,169,3145,5,0
161,203,3146,5,0
351,181,3147,5,0
165,191,3148,5,0
347,193,3149,5,0
171,180,3150,5,0
341,204,3151,5,0
177,170,3152,5,0
335,214,3153,5,0
185,160,3154,5,0
327,224,3155,5,0
194,152,3156,5,0
318,232,3157,5,0
203,145,3158,5,0
309,239,3159,5,0
214,139,3160,5,0
298,245,3161,5,0
226,136,3162,5,0
286,248,3163,5,0
238,134,3164,5,0
274,250,3165,5,0
250,134,3166,5,0
262,250,3167,5,0
262,137,3168,5,0
250,247,3169,5,0
273,143,3170,5,0
239,241,3171,5,0
283,150,3172,5,0
229,234,3173,5,0
290,160,3174,5,0
222,224,3175,5,0
296,171,3176,5,0
216,213,3177,5,0
298,183,3178,5,0
214,201,3179,5,0
297,195,3180,5,0
215,189,3181,5,0
292,207,3182,5,0
220,177,3183,5,0
284,216,3184,5,0
228,168,3185,5,0
273,223,3186,5,0
239,161,3187,5,0
261,225,3188,5,0
251,159,3189,5,0
248,223,3190,5,0
264,161,3191,5,0
238,216,3192,5,0
274,168,3193,5,0
231,205,3194,5,0
281,179,3195,5,0
229,193,3196,5,0
283,191,3197,5,0
168,363,3198,5,0
344,21,3199,5,0
163,349,3200,5,0
349,35,3201,5,0
159,336,3202,5,0
353,48,3203,5,0
155,323,3204,5,0
357,61,3205,5,0
152,310,3206,5,0
360,74,3207,5,0
150,297,3208,5,0
362,87,3209,5,0
148,284,3210,5,0
364,100,3211,5,0
146,271,3212,5,0
366,113,3213,5,0
146,258,3214,5,0
366,126,3215,5,0
146,246,3216,5,0
366,138,3217,5,0
147,233,3218,5,0
365,151,3219,5,0
149,221,3220,5,0
363,163,3221,5,0
152,209,3222,5,0
360,175,3223,5,0
156,197,3224,5,0
356,187,3225,5,0
161,186,3226,5,0
351,198,3227,5,0
167,175,3228,5,0
345,209,3229,5,0
174,165,3230,5,0
338,219,3231,5,0
182,156,3232,5,0
330,228,3233,5,0
191,148,3234,5,0
321,236,3235,5,0
201,142,3236,5,0
311,242,3237,5,0
212,136,3238,5,0
300,248,3239,5,0
224,133,3240,5,0
288,251,3241,5,0
236,131,3242,5,0
276,253,3243,5,0
248,132,3244,5,0
264,252,3245,5,0
260,134,3246,5,0
252,250,3247,5,0
271,139,3248,5,0
241,245,3249,5,0
281,146,3250,5,0
231,238,3251,5,0
290,155,3252,5,0
222,229,3253,5,0
296,166,3254,5,0
216,218,3255,5,0
299,178,3256,5,0
213,206,3257,5,0
299,190,3258,5,0
213,194,3259,5,0
295,202,3260,5,0
217,182,3261,5,0
289,213,3262,5,0
223,171,3263,5,0
279,221,3264,5,0
233,163,3265,5,0
267,225,3266,5,0
245,159,3267,5,0
255,225,3268,5,0
257,159,3269,5,0
243,221,3270,5,0
269,163,3271,5,0
234,212,3272,5,0
278,172,3273,5,0
229,201,3274,5,0
283,183,3275,5,0
229,188,3276,5,0
283,196,3277,5,0
140,345,3278,5,0
372,39,3279,5,0
137,331,3280,5,0
375,53,3281,5,0
135,317,3282,5,0
377,67,3283,5,0
134,304,3284,5,0
378,80,3285,5,0
133,290,3286,5,0
379,94,3287,5,0
133,277,3288,5,0
379,107,3289,5,0
133,264,3290,5,0
379,120,3291,5,0
134,251,3292,5,0
378,133,3293,5,0
136,238,3294,5,0
376,146,3295,5,0
138,226,3296,5,0
374,158,3297,5,0
142,214,3298,5,0
370,170,3299,5,0
146,202,3300,5,0
366,182,3301,5,0
151,191,3302,5,0
361,193,3303,5,0
157,180,3304,5,0
355,204,3305,5,0
163,170,3306,5,0
349,214,3307,5,0
171,160,3308,5,0
341,224,3309,5,0
180,152,3310,5,0
332,232,3311,5,0
189,144,3312,5,0
323,240,3313,5,0
200,138,3314,5,0
312,246,3315,5,0
211,133,3316,5,0
301,251,3317,5,0
223,130,3318,5,0
289,254,3319,5,0
235,128,3320,5,0
277,256,3321,5,0
247,129,3322,5,0
265,255,3323,5,0
259,131,3324,5,0
253,253,3325,5,0
270,136,3326,5,0
242,248,3327,5,0
280,143,3328,5,0
232,241,3329,5,0
289,151,3330,5,0
223,233,3331,5,0
295,162,3332,5,0
217,222,3333,5,0
299,173,3334,5,0
213,211,3335,5,0
301,186,3336,5,0
211,198,3337,5,0
298,198,3338,5,0
214,186,3339,5,0
293,209,3340,5,0
219,175,3341,5,0
285,218,3342,5,0
227,166,3343,5,0
274,224,3344,5,0
238,160,3345,5,0
262,227,3346,5,0
250,157,3347,5,0
249,225,3348,5,0
263,159,3349,5,0
238,218,3350,5,0
274,166,3351,5,0
231,208,3352,5,0
281,176,3353,5,0
228,196,3354,5,0
284,188,3355,5,0
230,184,3356,5,0
282,200,3357,5,0
115,322,3358,5,0
397,62,3359,5,0
115,308,3360,5,0
397,76,3361,5,0
116,294,3362,5,0
396,90,3363,5,0
117,281,3364,5,0
395,103,3365,5,0
118,267,3366,5,0
394,117,3367,5,0
120,254,3368,5,0
392,130,3369,5,0
123,241,3370,5,0
389,143,3371,5,0
126,229,3372,5,0
386,155,3373,5,0
130,217,3374,5,0
382,167,3375,5,0
134,205,3376,5,0
378,179,3377,5,0
140,194,3378,5,0
372,190,3379,5,0
146,183,3380,5,0
366,201,3381,5,0
152,172,3382,5,0
360,212,3383,5,0
160,163,3384,5,0
352,221,3385,5,0
169,154,3386,5,0
343,230,3387,5,0
178,146,3388,5,0
334,238,3389,5,0
188,139,3390,5,0
324,245,3391,5,0
199,133,3392,5,0
313,251,3393,5,0
210,129,3394,5,0
302,255,3395,5,0
222,126,3396,5,0
290,258,3397,5,0
234,125,3398,5,0
278,259,3399,5,0
246,126,3400,5,0
266,258,3401,5,0
258,128,3402,5,0
254,256,3403,5,0
269,133,3404,5,0
243,251,3405,5,0
280,139,3406,5,0
232,245,3407,5,0
289,148,3408,5,0
223,236,3409,5,0
295,158,3410,5,0
217,226,3411,5,0
300,169,3412,5,0
212,215,3413,5,0
302,181,3414,5,0
210,203,3415,5,0
301,193,3416,5,0
211,191,3417,5,0
297,205,3418,5,0
215,179,3419,5,0
290,215,3420,5,0
222,169,3421,5,0
280,223,3422,5,0
232,161,3423,5,0
268,227,3424,5,0
244,157,3425,5,0
255,227,3426,5,0
257,157,3427,5,0
244,223,3428,5,0
268,161,3429,5,0
234,215,3430,5,0
278,169,3431,5,0
228,204,3432,5,0
284,180,3433,5,0
227,191,3434,5,0
285,193,3435,5,0
232,179,3436,5,0
280,205,3437,5,0
94,296,3438,5,0
418,88,3439,5,0
97,282,3440,5,0
415,102,3441,5,0
100,268,3442,5,0
412,116,3443,5,0
103,255,3444,5,0
409,129,3445,5,0
107,242,3446,5,0
405,142,3447,5,0
111,230,3448,5,0
401,154,3449,5,0
116,218,3450,5,0
396,166,3451,5,0
121,206,3452,5,0
391,178,3453,5,0
127,194,3454,5,0
385,190,3455,5,0
134,184,3456,5,0
378,200,3457,5,0
141,173,3458,5,0
371,211,3459,5,0
149,164,3460,5,0
363,220,3461,5,0
157,155,3462,5,0
355,229,3463,5,0
167,146,3464,5,0
345,238,3465,5,0
177,139,3466,5,0
335,245,3467,5,0
187,133,3468,5,0
325,251,3469,5,0
198,128,3470,5,0
314,256,3471,5,0
210,124,3472,5,0
302,260,3473,5,0
222,122,3474,5,0
290,262,3475,5,0
234,121,3476,5,0
278,263,3477,5,0
246,122,3478,5,0
266,262,3479,5,0
258,125,3480,5,0
254,259,3481,5,0
269,129,3482,5,0
243,255,3483,5,0
279,136,3484,5,0
233,248,3485,5,0
288,144,3486,5,0
224,240,3487,5,0
296,154,3488,5,0
216,230,3489,5,0
301,165,3490,5,0
211,219,3491,5,0
303,177,3492,5,0
209,207,3493,5,0
303,189,3494,5,0
209,195,3495,5,0
300,201,3496,5,0
212,183,3497,5,0
294,212,3498,5,0
218,172,3499,5,0
285,221,3500,5,0
227,163,3501,5,0
274,226,3502,5,0
238,158,3503,5,0
262,228,3504,5,0
250,156,3505,5,0
249,226,3506,5,0
263,158,3507,5,0
238,220,3508,5,0
274,164,3509,5,0
230,211,3510,5,0
282,173,3511,5,0
227,199,3512,5,0
285,185,3513,5,0
228,186,3514,5,0
284,198,3515,5,0
235,175,3516,5,0
277,209,3517,5,0
79,266,3518,5,0
433,118,3519,5,0
84,253,3520,5,0
428,131,3521,5,0
89,240,3522,5,0
423,144,3523,5,0
95,228,3524,5,0
417,156,3525,5,0
101,216,3526,5,0
411,168,3527,5,0
107,204,3528,5,0
405,180,3529,5,0
114,193,3530,5,0
398,191,3531,5,0
121,182,3532,5,0
391,202,3533,5,0
129,172,3534,5,0
383,212,3535,5,0
137,163,3536,5,0
375,221,3537,5,0
146,154,3538,5,0
366,230,3539,5,0
155,145,3540,5,0
357,239,3541,5,0
165,138,3542,5,0
347,246,3543,5,0
176,132,3544,5,0
336,252,3545,5,0
187,126,3546,5,0
325,258,3547,5,0
198,122,3548,5,0
314,262,3549,5,0
210,119,3550,5,0
302,265,3551,5,0
222,117,3552,5,0
290,267,3553,5,0
234,117,3554,5,0
278,267,3555,5,0
247,118,3556,5,0
265,266,3557,5,0
258,121,3558,5,0
254,263,3559,5,0
270,126,3560,5,0
242,258,3561,5,0
280,133,3562,5,0
232,251,3563,5,0
289,141,3564,5,0
223,243,3565,5,0
296,150,3566,5,0
216,234,3567,5,0
302,161,3568,5,0
210,223,3569,5,0
305,173,3570,5,0
207,211,3571,5,0
305,185,3572,5,0
207,199,3573,5,0
303,198,3574,5,0
209,186,3575,5,0
298,209,3576,5,0
214,175,3577,5,0
290,218,3578,5,0
222,166,3579,5,0
280,225,3580,5,0
232,159,3581,5,0
268,229,3582,5,0
244,155,3583,5,0
255,229,3584,5,0
257,155,3585,5,0
244,225,3586,5,0
268,159,3587,5,0
234,217,3588,5,0
278,167,3589,5,0
227,206,3590,5,0
285,178,3591,5,0
226,193,3592,5,0
286,191,3593,5,0
229,181,3594,5,0
283,203,3595,5,0
238,172,3596,5,0
274,212,3597,5,0
69,234,3598,5,0
443,150,3599,5,0
76,222,3600,5,0
436,162,3601,5,0
83,210,3602,5,0
429,174,3603,5,0
91,199,3604,5,0
421,185,3605,5,0
99,188,3606,5,0
413,196,3607,5,0
107,178,3608,5,0
405,206,3609,5,0
116,168,3610,5,0
396,216,3611,5,0
125,159,3612,5,0
387,225,3613,5,0
134,150,3614,5,0
378,234,3615,5,0
144,142,3616,5,0
368,242,3617,5,0
154,135,3618,5,0
358,249,3619,5,0
165,129,3620,5,0
347,255,3621,5,0
176,123,3622,5,0
336,261,3623,5,0
188,119,3624,5,0
324,265,3625,5,0
199,115,3626,5,0
313,269,3627,5,0
211,113,3628,5,0
301,271,3629,5,0
224,112,3630,5,0
288,272,3631,5,0
236,112,3632,5,0
276,272,3633,5,0
248,114,3634,5,0
264,270,3635,5,0
259,118,3636,5,0
253,266,3637,5,0
271,123,3638,5,0
241,261,3639,5,0
281,130,3640,5,0
231,254,3641,5,0
290,138,3642,5,0
222,246,3643,5,0
297,147,3644,5,0
215,237,3645,5,0
303,158,3646,5,0
209,226,3647,5,0
306,170,3648,5,0
206,214,3649,5,0
307,182,3650,5,0
205,202,3651,5,0
306,194,3652,5,0
206,190,3653,5,0
301,206,3654,5,0
211,178,3655,5,0
294,216,3656,5,0
218,168,3657,5,0
285,224,3658,5,0
227,160,3659,5,0
274,229,3660,5,0
238,155,3661,5,0
261,230,3662,5,0
251,154,3663,5,0
249,228,3664,5,0
263,156,3665,5,0
238,222,3666,5,0
274,162,3667,5,0
230,213,3668,5,0
282,171,3669,5,0
226,201,3670,5,0
286,183,3671,5,0
226,188,3672,5,0
286,196,3673,5,0
232,177,3674,5,0
280,207,3675,5,0
242,169,3676,5,0
270,215,3677,5,0
64,201,3678,5,0
448,183,3679,5,0
73,190,3680,5,0
439,194,3681,5,0
83,180,3682,5,0
429,204,3683,5,0
92,170,3684,5,0
420,214,3685,5,0
102,161,3686,5,0
410,223,3687,5,0
112,152,3688,5,0
400,232,3689,5,0
122,144,3690,5,0
390,240,3691,5,0
133,137,3692,5,0
379,247,3693,5,0
143,130,3694,5,0
369,254,3695,5,0
154,124,3696,5,0
358,260,3697,5,0
166,118,3698,5,0
346,266,3699,5,0
177,114,3700,5,0
335,270,3701,5,0
189,110,3702,5,0
323,274,3703,5,0
201,108,3704,5,0
311,276,3705,5,0
214,107,3706,5,0
298,277,3707,5,0
226,106,3708,5,0
286,278,3709,5,0
238,108,3710,5,0
274,276,3711,5,0
250,110,3712,5,0
262,274,3713,5,0
261,114,3714,5,0
251,270,3715,5,0
272,120,3716,5,0
240,264,3717,5,0
282,126,3718,5,0
230,258,3719,5,0
291,135,3720,5,0
221,249,3721,5,0
299,144,3722,5,0
213,240,3723,5,0
304,155,3724,5,0
208,229,3725,5,0
308,167,3726,5,0
204,217,3727,5,0
309,179,3728,5,0
203,205,3729,5,0
308,191,3730,5,0
204,193,3731,5,0
305,203,3732,5,0
207,181,3733,5,0
298,213,3734,5,0
214,171,3735,5,0
290,222,3736,5,0
222,162,3737,5,0
279,228,3738,5,0
233,156,3739,5,0
267,231,3740,5,0
245,153,3741,5,0
254,231,3742,5,0
258,153,3743,5,0
243,226,3744,5,0
269,158,3745,5,0
233,219,3746,5,0
279,165,3747,5,0
227,208,3748,5,0
285,176,3749,5,0
224,195,3750,5,0
288,189,3751,5,0
227,183,3752,5,0
285,201,3753,5,0
235,173,3754,5,0
277,211,3755,5,0
246,167,3756,5,0
266,217,3757,5,0
66,168,3758,5,0
446,216,3759,5,0
76,159,3760,5,0
436,225,3761,5,0
87,150,3762,5,0
425,234,3763,5,0
98,142,3764,5,0
414,242,3765,5,0
110,135,3766,5,0
402,249,3767,5,0
121,128,3768,5,0
391,256,3769,5,0
132,122,3770,5,0
380,262,3771,5,0
144,116,3772,5,0
368,268,3773,5,0
156,111,3774,5,0
356,273,3775,5,0
168,107,3776,5,0
344,277,3777,5,0
180,104,3778,5,0
332,280,3779,5,0
192,101,3780,5,0
320,283,3781,5,0
205,100,3782,5,0
307,284,3783,5,0
217,100,3784,5,0
295,284,3785,5,0
229,101,3786,5,0
283,283,3787,5,0
241,103,3788,5,0
271,281,3789,5,0
253,106,3790,5,0
259,278,3791,5,0
264,110,3792,5,0
248,274,3793,5,0
275,116,3794,5,0
237,268,3795,5,0
285,123,3796,5,0
227,261,3797,5,0
293,132,3798,5,0
219,252,3799,5,0
301,142,3800,5,0
211,242,3801,5,0
306,153,3802,5,0
206,231,3803,5,0
310,164,3804,5,0
202,220,3805,5,0
312,176,3806,5,0
200,208,3807,5,0
311,188,3808,5,0
201,196,3809,5,0
308,200,3810,5,0
204,184,3811,5,0
302,211,3812,5,0
210,173,3813,5,0
294,220,3814,5,0
218,164,3815,5,0
284,227,3816,5,0
228,157,3817,5,0
272,232,3818,5,0
240,152,3819,5,0
260,233,3820,5,0
252,151,3821,5,0
248,230,3822,5,0
264,154,3823,5,0
237,224,3824,5,0
275,160,3825,5,0
229,214,3826,5,0
283,170,3827,5,0
224,202,3828,5,0
288,182,3829,5,0
224,190,3830,5,0
288,194,3831,5,0
229,178,3832,5,0
283,206,3833,5,0
238,169,3834,5,0
274,215,3835,5,0
250,165,3836,5,0
262,219,3837,5,0
73,135,3838,5,0
439,249,3839,5,0
85,128,3840,5,0
427,256,3841,5,0
97,121,3842,5,0
415,263,3843,5,0
109,116,3844,5,0
403,268,3845,5,0
122,110,3846,5,0
390,274,3847,5,0
134,105,3848,5,0
378,279,3849,5,0
147,101,3850,5,0
365,283,3851,5,0
159,98,3852,5,0
353,286,3853,5,0
171,95,3854,5,0
341,289,3855,5,0
184,93,3856,5,0
328,291,3857,5,0
196,92,3858,5,0
316,292,3859,5,0
209,92,3860,5,0
303,292,3861,5,0
221,93,3862,5,0
291,291,3863,5,0
233,94,3864,5,0
279,290,3865,5,0
245,97,3866,5,0
267,287,3867,5,0
257,101,3868,5,0
255,283,3869,5,0
268,107,3870,5,0
244,277,3871,5,0
278,113,3872,5,0
234,271,3873,5,0
288,121,3874,5,0
224,263,3875,5,0
296,130,3876,5,0
216,254,3877,5,0
303,139,3878,5,0
209,245,3879,5,0
309,150,3880,5,0
203,234,3881,5,0
312,162,3882,5,0
200,222,3883,5,0
314,174,3884,5,0
198,210,3885,5,0
314,186,3886,5,0
198,198,3887,5,0
311,198,3888,5,0
201,186,3889,5,0
305,209,3890,5,0
207,175,3891,5,0
298,219,3892,5,0
214,165,3893,5,0
288,226,3894,5,0
224,158,3895,5,0
277,232,3896,5,0
235,152,3897,5,0
265,234,3898,5,0
247,150,3899,5,0
253,233,3900,5,0
259,151,3901,5,0
241,228,3902,5,0
271,156,3903,5,0
232,220,3904,5,0
280,164,3905,5,0
225,209,3906,5,0
287,175,3907,5,0
223,197,3908,5,0
289,187,3909,5,0
225,184,3910,5,0
287,200,3911,5,0
232,174,3912,5,0
280,210,3913,5,0
243,167,3914,5,0
269,217,3915,5,0
255,165,3916,5,0
257,219,3917,5,0
85,104,3918,5,0
427,280,3919,5,0
99,99,3920,5,0
413,285,3921,5,0
112,95,3922,5,0
400,289,3923,5,0
125,91,3924,5,0
387,293,3925,5,0
138,88,3926,5,0
374,296,3927,5,0
151,86,3928,5,0
361,298,3929,5,0
164,84,3930,5,0
348,300,3931,5,0
177,82,3932,5,0
335,302,3933,5,0
190,82,3934,5,0
322,302,3935,5,0
202,82,3936,5,0
310,302,3937,5,0
215,83,3938,5,0
297,301,3939,5,0
227,85,3940,5,0
285,299,3941,5,0
239,88,3942,5,0
273,296,3943,5,0
251,92,3944,5,0
261,292,3945,5,0
262,97,3946,5,0
250,287,3947,5,0
273,103,3948,5,0
239,281,3949,5,0
283,110,3950,5,0
229,274,3951,5,0
292,118,3952,5,0
220,266,3953,5,0
300,127,3954,5,0
212,257,3955,5,0
306,137,3956,5,0
206,247,3957,5,0
312,148,3958,5,0
200,236,3959,5,0
315,160,3960,5,0
197,224,3961,5,0
317,172,3962,5,0
195,212,3963,5,0
316,184,3964,5,0
196,200,3965,5,0
314,196,3966,5,0
198,188,3967,5,0
309,207,3968,5,0
203,177,3969,5,0
302,217,3970,5,0
210,167,3971,5,0
293,226,3972,5,0
219,158,3973,5,0
282,232,3974,5,0
230,152,3975,5,0
270,235,3976,5,0
242,149,3977,5,0
258,235,3978,5,0
254,149,3979,5,0
246,231,3980,5,0
266,153,3981,5,0
235,225,3982,5,0
277,159,3983,5,0
227,215,3984,5,0
285,169,3985,5,0
223,203,3986,5,0
289,181,3987,5,0
223,191,3988,5,0
289,193,3989,5,0
227,179,3990,5,0
285,205,3991,5,0
236,170,3992,5,0
276,214,3993,5,0
247,165,3994,5,0
265,219,3995,5,0
260,165,3996,5,0
252,219,3997,5,0
103,76,3998,5,0
409,308,3999,5,0
117,73,4000,5,0
395,311,4001,5,0
131,71,4002,5,0
381,313,4003,5,0
144,70,4004,5,0
368,314,4005,5,0
158,69,4006,5,0
354,315,4007,5,0
171,69,4008,5,0
341,315,4009,5,0
184,69,4010,5,0
328,315,4011,5,0
197,70,4012,5,0
315,314,4013,5,0
210,72,4014,5,0
302,312,4015,5,0
222,74,4016,5,0
290,310,4017,5,0
234,78,4018,5,0
278,306,4019,5,0
246,82,4020,5,0
266,302,4021,5,0
257,87,4022,5,0
255,297,4023,5,0
268,93,4024,5,0
244,291,4025,5,0
278,99,4026,5,0
234,285,4027,5,0
288,107,4028,5,0
224,277,4029,5,0
296,116,4030,5,0
216,268,4031,5,0
304,125,4032,5,0
208,259,4033,5,0
310,136,4034,5,0
202,248,4035,5,0
315,147,4036,5,0
197,237,4037,5,0
318,159,4038,5,0
194,225,4039,5,0
320,171,4040,5,0
192,213,4041,5,0
319,183,4042,5,0
193,201,4043,5,0
317,195,4044,5,0
195,189,4045,5,0
312,206,4046,5,0
200,178,4047,5,0
305,216,4048,5,0
207,168,4049,5,0
297,225,4050,5,0
215,159,4051,5,0
286,231,4052,5,0
226,153,4053,5,0
275,235,4054,5,0
237,149,4055,5,0
262,237,4056,5,0
250,147,4057,5,0
250,234,4058,5,0
262,150,4059,5,0
239,229,4060,5,0
273,155,4061,5,0
230,221,4062,5,0
282,163,4063,5,0
224,210,4064,5,0
288,174,4065,5,0
221,198,4066,5,0
291,186,4067,5,0
223,185,4068,5,0
289,199,4069,5,0
230,174,4070,5,0
282,210,4071,5,0
240,167,4072,5,0
272,217,4073,5,0
252,164,4074,5,0
260,220,4075,5,0
264,166,4076,5,0
248,218,4077,5,0
126,51,4078,5,0
386,333,4079,5,0
140,51,4080,5,0
372,333,4081,5,0
154,52,4082,5,0
358,332,4083,5,0
167,53,4084,5,0
345,331,4085,5,0
181,54,4086,5,0
331,330,4087,5,0
194,56,4088,5,0
318,328,4089,5,0
207,59,4090,5,0
305,325,4091,5,0
219,62,4092,5,0
293,322,4093,5,0
231,66,4094,5,0
281,318,4095,5,0
243,70,4096,5,0
269,314,4097,5,0
254,76,4098,5,0
258,308,4099,5,0
265,82,4100,5,0
247,302,4101,5,0
276,88,4102,5,0
236,296,4103,5,0
285,96,4104,5,0
227,288,4105,5,0
294,105,4106,5,0
218,279,4107,5,0
302,114,4108,5,0
210,270,4109,5,0
309,124,4110,5,0
203,260,4111,5,0
315,135,4112,5,0
197,249,4113,5,0
319,146,4114,5,0
193,238,4115,5,0
322,158,4116,5,0
190,226,4117,5,0
323,170,4118,5,0
189,214,4119,5,0
322,182,4120,5,0
190,202,4121,5,0
320,194,4122,5,0
192,190,4123,5,0
315,205,4124,5,0
197,179,4125,5,0
309,216,4126,5,0
203,168,4127,5,0
300,225,4128,5,0
212,159,4129,5,0
290,231,4130,5,0
222,153,4131,5,0
279,236,4132,5,0
233,148,4133,5,0
267,238,4134,5,0
245,146,4135,5,0
255,237,4136,5,0
257,147,4137,5,0
243,233,4138,5,0
269,151,4139,5,0
233,226,4140,5,0
279,158,4141,5,0
225,216,4142,5,0
287,168,4143,5,0
221,204,4144,5,0
291,180,4145,5,0
221,191,4146,5,0
291,193,4147,5,0
225,180,4148,5,0
287,204,4149,5,0
233,170,4150,5,0
279,214,4151,5,0
244,164,4152,5,0
268,220,4153,5,0
257,163,4154,5,0
255,221,4155,5,0
269,168,4156,5,0
243,216,4157,5,0
152,30,4158,5,0
360,354,4159,5,0
166,33,4160,5,0
346,351,4161,5,0
180,36,4162,5,0
332,348,4163,5,0
193,39,4164,5,0
319,345,4165,5,0
206,43,4166,5,0
306,341,4167,5,0
218,47,4168,5,0
294,337,4169,5,0
230,52,4170,5,0
282,332,4171,5,0
242,57,4172,5,0
270,327,4173,5,0
254,63,4174,5,0
258,321,4175,5,0
264,70,4176,5,0
248,314,4177,5,0
275,77,4178,5,0
237,307,4179,5,0
284,85,4180,5,0
228,299,4181,5,0
293,93,4182,5,0
219,291,4183,5,0
302,103,4184,5,0
210,281,4185,5,0
309,113,4186,5,0
203,271,4187,5,0
315,123,4188,5,0
197,261,4189,5,0
320,134,4190,5,0
192,250,4191,5,0
324,146,4192,5,0
188,238,4193,5,0
326,158,4194,5,0
186,226,4195,5,0
327,170,4196,5,0
185,214,4197,5,0
326,182,4198,5,0
186,202,4199,5,0
323,194,4200,5,0
189,190,4201,5,0
319,205,4202,5,0
193,179,4203,5,0
312,215,4204,5,0
200,169,4205,5,0
304,224,4206,5,0
208,160,4207,5,0
294,232,4208,5,0
218,152,4209,5,0
283,237,4210,5,0
229,147,4211,5,0
271,239,4212,5,0
241,145,4213,5,0
259,239,4214,5,0
253,145,4215,5,0
247,236,4216,5,0
265,148,4217,5,0
236,230,4218,5,0
276,154,4219,5,0
227,221,4220,5,0
285,163,4221,5,0
222,210,4222,5,0
290,174,4223,5,0
220,198,4224,5,0
292,186,4225,5,0
222,185,4226,5,0
290,199,4227,5,0
228,174,4228,5,0
284,210,4229,5,0
237,166,4230,5,0
275,218,4231,5,0
249,163,4232,5,0
263,221,4233,5,0
262,164,4234,5,0
250,220,4235,5,0
273,171,4236,5,0
239,213,4237,5,0
182,15,4238,5,0
330,369,4239,5,0
195,20,4240,5,0
317,364,4241,5,0
208,25,4242,5,0
304,359,4243,5,0
220,31,4244,5,0
292,353,4245,5,0
232,37,4246,5,0
280,347,4247,5,0
244,43,4248,5,0
268,341,4249,5,0
255,50,4250,5,0
257,334,4251,5,0
266,57,4252,5,0
246,327,4253,5,0
276,65,4254,5,0
236,319,4255,5,0
285,73,4256,5,0
227,311,4257,5,0
294,82,4258,5,0
218,302,4259,5,0
303,91,4260,5,0
209,293,4261,5,0
310,101,4262,5,0
202,283,4263,5,0
316,112,4264,5,0
196,272,4265,5,0
322,123,4266,5,0
190,261,4267,5,0
326,134,4268,5,0
186,250,4269,5,0
329,146,4270,5,0
183,238,4271,5,0
331,158,4272,5,0
181,226,4273,5,0
331,170,4274,5,0
181,214,4275,5,0
330,183,4276,5,0
182,201,4277,5,0
327,194,4278,5,0
185,190,4279,5,0
322,206,4280,5,0
190,178,4281,5,0
315,216,4282,5,0
197,168,4283,5,0
307,225,4284,5,0
205,159,4285,5,0
298,232,4286,5,0
214,152,4287,5,0
287,238,4288,5,0
225,146,4289,5,0
275,241,4290,5,0
237,143,4291,5,0
263,241,4292,5,0
249,143,4293,5,0
250,239,4294,5,0
262,145,4295,5,0
239,234,4296,5,0
273,150,4297,5,0
230,226,4298,5,0
282,158,4299,5,0
223,216,4300,5,0
289,168,4301,5,0
219,204,4302,5,0
293,180,4303,5,0
219,191,4304,5,0
293,193,4305,5,0
223,180,4306,5,0
289,204,4307,5,0
231,170,4308,5,0
281,214,4309,5,0
242,163,4310,5,0
270,221,4311,5,0
255,162,4312,5,0
257,222,4313,5,0
267,165,4314,5,0
245,219,4315,5,0
276,174,4316,5,0
236,210,4317,5,0
214,5,4318,5,0
298,379,4319,5,0
226,12,4320,5,0
286,372,4321,5,0
238,19,4322,5,0
274,365,4323,5,0
249,27,4324,5,0
263,357,4325,5,0
260,35,4326,5,0
252,349,4327,5,0
270,43,4328,5,0
242,341,4329,5,0
280,52,4330,5,0
232,332,4331,5,0
289,61,4332,5,0
223,323,4333,5,0
298,70,4334,5,0
214,314,4335,5,0
306,80,4336,5,0
206,304,4337,5,0
313,90,4338,5,0
199,294,4339,5,0
319,101,4340,5,0
193,283,4341,5,0
325,112,4342,5,0
187,272,4343,5,0
329,124,4344,5,0
183,260,4345,5,0
333,135,4346,5,0
179,249,4347,5,0
335,147,4348,5,0
177,237,4349,5,0
336,160,4350,5,0
176,224,4351,5,0
336,172,4352,5,0
176,212,4353,5,0
334,184,4354,5,0
178,200,4355,5,0
330,195,4356,5,0
182,189,4357,5,0
325,207,4358,5,0
187,177,4359,5,0
318,217,4360,5,0
194,167,4361,5,0
310,226,4362,5,0
202,158,4363,5,0
301,233,4364,5,0
211,151,4365,5,0
290,239,4366,5,0
222,145,4367,5,0
278,242,4368,5,0
234,142,4369,5,0
266,243,4370,5,0
246,141,4371,5,0
254,242,4372,5,0
258,142,4373,5,0
242,237,4374,5,0
270,147,4375,5,0
232,230,4376,5,0
280,154,4377,5,0
224,221,4378,5,0
288,163,4379,5,0
219,210,4380,5,0
293,174,4381,5,0
218,197,4382,5,0
294,187,4383,5,0
220,185,4384,5,0
292,199,4385,5,0
226,174,4386,5,0
286,210,4387,5,0
235,166,4388,5,0
277,218,4389,5,0
247,162,4390,5,0
265,222,4391,5,0
260,162,4392,5,0
252,222,4393,5,0
271,168,4394,5,0
241,216,4395,5,0
279,178,4396,5,0
233,206,4397,5,0
247,0,4398,5,0
265,384,4399,5,0
258,9,4400,5,0
254,375,4401,5,0
268,19,4402,5,0
244,365,4403,5,0
278,28,4404,5,0
234,356,4405,5,0
287,38,4406,5,0
225,346,4407,5,0
296,48,4408,5,0
216,336,4409,5,0
304,58,4410,5,0
208,326,4411,5,0
311,69,4412,5,0
201,315,4413,5,0
318,79,4414,5,0
194,305,4415,5,0
324,90,4416,5,0
188,294,4417,5,0
330,102,4418,5,0
182,282,4419,5,0
334,113,4420,5,0
178,271,4421,5,0
338,125,4422,5,0
174,259,4423,5,0
340,137,4424,5,0
172,247,4425,5,0
341,150,4426,5,0
171,234,4427,5,0
342,162,4428,5,0
170,222,4429,5,0
340,174,4430,5,0
172,210,4431,5,0
338,186,4432,5,0
174,198,4433,5,0
334,197,4434,5,0
178,187,4435,5,0
328,208,4436,5,0
184,176,4437,5,0
322,218,4438,5,0
190,166,4439,5,0
313,227,4440,5,0
199,157,4441,5,0
304,235,4442,5,0
208,149,4443,5,0
293,240,4444,5,0
219,144,4445,5,0
281,244,4446,5,0
231,140,4447,5,0
269,245,4448,5,0
243,139,4449,5,0
257,244,4450,5,0
255,140,4451,5,0
245,241,4452,5,0
267,143,4453,5,0
235,234,4454,5,0
277,150,4455,5,0
226,226,4456,5,0
286,158,4457,5,0
220,215,4458,5,0
292,169,4459,5,0
217,203,4460,5,0
295,181,4461,5,0
217,190,4462,5,0
295,194,4463,5,0
222,179,4464,5,0
290,205,4465,5,0
229,169,4466,5,0
283,215,4467,5,0
240,163,4468,5,0
272,221,4469,5,0
253,160,4470,5,0
259,224,4471,5,0
265,163,4472,5,0
247,221,4473,5,0
275,171,4474,5,0
237,213,4475,5,0
281,182,4476,5,0
231,202,4477,5,0
280,2,4478,5,0
232,382,4479,5,0
289,12,4480,5,0
223,372,4481,5,0
298,23,4482,5,0
214,361,4483,5,0
306,34,4484,5,0
206,350,4485,5,0
313,46,4486,5,0
199,338,4487,5,0
320,57,4488,5,0
192,327,4489,5,0
326,68,4490,5,0
186,316,4491,5,0
332,80,4492,5,0
180,304,4493,5,0
337,92,4494,5,0
175,292,4495,5,0
341,104,4496,5,0
171,280,4497,5,0
344,116,4498,5,0
168,268,4499,5,0
347,128,4500,5,0
165,256,4501,5,0
348,141,4502,5,0
164,243,4503,5,0
348,153,4504,5,0
164,231,4505,5,0
347,165,4506,5,0
165,219,4507,5,0
345,177,4508,5,0
167,207,4509,5,0
342,189,4510,5,0
170,195,4511,5,0
338,200,4512,5,0
174,184,4513,5,0
332,211,4514,5,0
180,173,4515,5,0
325,221,4516,5,0
187,163,4517,5,0
316,229,4518,5,0
196,155,4519,5,0
306,237,4520,5,0
206,147,4521,5,0
295,242,4522,5,0
217,142,4523,5,0
284,246,4524,5,0
228,138,4525,5,0
272,248,4526,5,0
240,136,4527,5,0
260,247,4528,5,0
252,137,4529,5,0
248,244,4530,5,0
264,140,4531,5,0
237,238,4532,5,0
275,146,4533,5,0
228,230,4534,5,0
284,154,4535,5,0
221,220,4536,5,0
291,164,4537,5,0
216,208,4538,5,0
296,176,4539,5,0
215,196,4540,5,0
297,188,4541,5,0
218,184,4542,5,0
294,200,4543,5,0
224,173,4544,5,0
288,211,4545,5,0
234,165,4546,5,0
278,219,4547,5,0
246,160,4548,5,0
266,224,4549,5,0
258,160,4550,5,0
254,224,4551,5,0
270,165,4552,5,0
242,219,4553,5,0
279,174,4554,5,0
233,210,4555,5,0
283,186,4556,5,0
229,198,4557,5,0
313,9,4558,5,0
199,375,4559,5,0
320,21,4560,5,0
192,363,4561,5,0
327,33,4562,5,0
185,351,4563,5,0
332,45,4564,5,0
180,339,4565,5,0
338,58,4566,5,0
174,326,4567,5,0
343,70,4568,5,0
169,314,4569,5,0
347,83,4570,5,0
165,301,4571,5,0
350,95,4572,5,0
162,289,4573,5,0
353,107,4574,5,0
159,277,4575,5,0
355,120,4576,5,0
157,264,4577,5,0
356,132,4578,5,0
156,252,4579,5,0
356,145,4580,5,0
156,239,4581,5,0
355,157,4582,5,0
157,227,4583,5,0
354,169,4584,5,0
158,215,4585,5,0
351,181,4586,5,0
161,203,4587,5,0
347,193,4588,5,0
165,191,4589,5,0
341,204,4590,5,0
171,180,4591,5,0
335,214,4592,5,0
177,170,4593,5,0
327,224,4594,5,0
185,160,4595,5,0
318,232,4596,5,0
194,152,4597,5,0
309,239,4598,5,0
203,145,4599,5,0
298,245,4600,5,0
214,139,4601,5,0
286,248,4602,5,0
226,136,4603,5,0
274,250,4604,5,0
238,134,4605,5,0
262,250,4606,5,0
250,134,4607,5,0
250,247,4608,5,0
262,137,4609,5,0
239,241,4610,5,0
273,143,4611,5,0
229,234,4612,5,0
283,150,4613,5,0
222,224,4614,5,0
290,160,4615,5,0
216,213,4616,5,0
296,171,4617,5,0
214,201,4618,5,0
298,183,4619,5,0
215,189,4620,5,0
297,195,4621,5,0
220,177,4622,5,0
292,207,4623,5,0
228,168,4624,5,0
284,216,4625,5,0
239,161,4626,5,0
273,223,4627,5,0
251,159,4628,5,0
261,225,4629,5,0
264,161,4630,5,0
248,223,4631,5,0
274,168,4632,5,0
238,216,4633,5,0
281,179,4634,5,0
231,205,4635,5,0
283,191,4636,5,0
229,193,4637,5,0
344,21,4638,5,0
168,363,4639,5,0
349,35,4640,5,0
163,349,4641,5,0
353,48,4642,5,0
159,336,4643,5,0
357,61,4644,5,0
155,323,4645,5,0
360,74,4646,5,0
152,310,4647,5,0
362,87,4648,5,0
150,297,4649,5,0
364,100,4650,5,0
148,284,4651,5,0
366,113,4652,5,0
146,271,4653,5,0
366,126,4654,5,0
146,258,4655,5,0
366,138,4656,5,0
146,246,4657,5,0
365,151,4658,5,0
147,233,4659,5,0
363,163,4660,5,0
149,221,4661,5,0
360,175,4662,5,0
152,209,4663,5,0
356,187,4664,5,0
156,197,4665,5,0
351,198,4666,5,0
161,186,4667,5,0
345,209,4668,5,0
167,175,4669,5,0
338,219,4670,5,0
174,165,4671,5,0
330,228,4672,5,0
182,156,4673,5,0
321,236,4674,5,0
191,148,4675,5,0
311,242,4676,5,0
201,142,4677,5,0
300,248,4678,5,0
212,136,4679,5,0
288,251,4680,5,0
224,133,4681,5,0
276,253,4682,5,0
236,131,4683,5,0
264,252,4684,5,0
248,132,4685,5,0
252,250,4686,5,0
260,134,4687,5,0
241,245,4688,5,0
271,139,4689,5,0
231,238,4690,5,0
281,146,4691,5,0
222,229,4692,5,0
290,155,4693,5,0
216,218,4694,5,0
296,166,4695,5,0
213,206,4696,5,0
299,178,4697,5,0
213,194,4698,5,0
299,190,4699,5,0
217,182,4700,5,0
295,202,4701,5,0
223,171,4702,5,0
289,213,4703,5,0
233,163,4704,5,0
279,221,4705,5,0
245,159,4706,5,0
267,225,4707,5,0
257,159,4708,5,0
255,225,4709,5,0
269,163,4710,5,0
243,221,4711,5,0
278,172,4712,5,0
234,212,4713,5,0
283,183,4714,5,0
229,201,4715,5,0
283,196,4716,5,0
229,188,4717,5,0
372,39,4718,5,0
140,345,4719,5,0
375,53,4720,5,0
137,331,4721,5,0
377,67,4722,5,0
135,317,4723,5,0
378,80,4724,5,0
134,304,4725,5,0
379,94,4726,5,0
133,290,4727,5,0
379,107,4728,5,0
133,277,4729,5,0
379,120,4730,5,0
133,264,4731,5,0
378,133,4732,5,0
134,251,4733,5,0
376,146,4734,5,0
136,238,4735,5,0
374,158,4736,5,0
138,226,4737,5,0
370,170,4738,5,0
142,214,4739,5,0
366,182,4740,5,0
146,202,4741,5,0
361,193,4742,5,0
151,191,4743,5,0
355,204,4744,5,0
157,180,4745,5,0
349,214,4746,5,0
163,170,4747,5,0
341,224,4748,5,0
171,160,4749,5,0
332,232,4750,5,0
180,152,4751,5,0
323,240,4752,5,0
189,144,4753,5,0
312,246,4754,5,0
200,138,4755,5,0
301,251,4756,5,0
211,133,4757,5,0
289,254,4758,5,0
223,130,4759,5,0
277,256,4760,5,0
235,128,4761,5,0
265,255,4762,5,0
247,129,4763,5,0
253,253,4764,5,0
259,131,4765,5,0
242,248,4766,5,0
270,136,4767,5,0
232,241,4768,5,0
280,143,4769,5,0
223,233,4770,5,0
289,151,4771,5,0
217,222,4772,5,0
295,162,4773,5,0
213,211,4774,5,0
299,173,4775,5,0
211,198,4776,5,0
301,186,4777,5,0
214,186,4778,5,0
298,198,4779,5,0
219,175,4780,5,0
293,209,4781,5,0
227,166,4782,5,0
285,218,4783,5,0
238,160,4784,5,0
274,224,4785,5,0
250,157,4786,5,0
262,227,4787,5,0
263,159,4788,5,0
249,225,4789,5,0
274,166,4790,5,0
238,218,4791,5,0
281,176,4792,5,0
231,208,4793,5,0
284,188,4794,5,0
228,196,4795,5,0
282,200,4796,5,0
230,184,4797,5,0
397,62,4798,5,0
115,322,4799,5,0
397,76,4800,5,0
115,308,4801,5,0
396,90,4802,5,0
116,294,4803,5,0
395,103,4804,5,0
117,281,4805,5,0
394,117,4806,5,0
118,267,4807,5,0
392,130,4808,5,0
120,254,4809,5,0
389,143,4810,5,0
123,241,4811,5,0
386,155,4812,5,0
126,229,4813,5,0
382,167,4814,5,0
130,217,4815,5,0
378,179,4816,5,0
134,205,4817,5,0
372,190,4818,5,0
140,194,4819,5,0
366,201,4820,5,0
146,183,4821,5,0
360,212,4822,5,0
152,172,4823,5,0
352,221,4824,5,0
160,163,4825,5,0
343,230,4826,5,0
169,154,4827,5,0
334,238,4828,5,0
178,146,4829,5,0
324,245,4830,5,0
188,139,4831,5,0
313,251,4832,5,0
199,133,4833,5,0
302,255,4834,5,0
210,129,4835,5,0
290,258,4836,5,0
222,126,4837,5,0
278,259,4838,5,0
234,125,4839,5,0
266,258,4840,5,0
246,126,4841,5,0
254,256,4842,5,0
258,128,4843,5,0
243,251,4844,5,0
269,133,4845,5,0
232,245,4846,5,0
280,139,4847,5,0
223,236,4848,5,0
289,148,4849,5,0
217,226,4850,5,0
295,158,4851,5,0
212,215,4852,5,0
300,169,4853,5,0
210,203,4854,5,0
302,181,4855,5,0
211,191,4856,5,0
301,193,4857,5,0
215,179,4858,5,0
297,205,4859,5,0
222,169,4860,5,0
290,215,4861,5,0
232,161,4862,5,0
280,223,4863,5,0
244,157,4864,5,0
268,227,4865,5,0
257,157,4866,5,0
255,227,4867,5,0
268,161,4868,5,0
244,223,4869,5,0
278,169,4870,5,0
234,215,4871,5,0
284,180,4872,5,0
228,204,4873,5,0
285,193,4874,5,0
227,191,4875,5,0
280,205,4876,5,0
232,179,4877,5,0
418,88,4878,5,0
94,296,4879,5,0
415,102,4880,5,0
97,282,4881,5,0
412,116,4882,5,0
100,268,4883,5,0
409,129,4884,5,0
103,255,4885,5,0
405,142,4886,5,0
107,242,4887,5,0
401,154,4888,5,0
111,230,4889,5,0
396,166,4890,5,0
116,218,4891,5,0
391,178,4892,5,0
121,206,4893,5,0
385,190,4894,5,0
127,194,4895,5,0
378,200,4896,5,0
134,184,4897,5,0
371,211,4898,5,0
141,173,4899,5,0
363,220,4900,5,0
149,164,4901,5,0
355,229,4902,5,0
157,155,4903,5,0
345,238,4904,5,0
167,146,4905,5,0
335,245,4906,5,0
177,139,4907,5,0
325,251,4908,5,0
187,133,4909,5,0
314,256,4910,5,0
198,128,4911,5,0
302,260,4912,5,0
210,124,4913,5,0
290,262,4914,5,0
222,122,4915,5,0
278,263,4916,5,0
234,121,4917,5,0
266,262,4918,5,0
246,122,4919,5,0
254,259,4920,5,0
258,125,4921,5,0
243,255,4922,5,0
269,129,4923,5,0
233,248,4924,5,0
279,136,4925,5,0
224,240,4926,5,0
288,144,4927,5,0
216,230,4928,5,0
296,154,4929,5,0
211,219,4930,5,0
301,165,4931,5,0
209,207,4932,5,0
303,177,4933,5,0
209,195,4934,5,0
303,189,4935,5,0
212,183,4936,5,0
300,201,4937,5,0
218,172,4938,5,0
294,212,4939,5,0
227,163,4940,5,0
285,221,4941,5,0
238,158,4942,5,0
274,226,4943,5,0
250,156,4944,5,0
262,228,4945,5,0
263,158,4946,5,0
249,226,4947,5,0
274,164,4948,5,0
238,220,4949,5,0
282,173,4950,5,0
230,211,4951,5,0
285,185,4952,5,0
227,199,4953,5,0
284,198,4954,5,0
228,186,4955,5,0
277,209,4956,5,0
235,175,4957,5,0
433,118,4958,5,0
79,266,4959,5,0
428,131,4960,5,0
84,253,4961,5,0
423,144,4962,5,0
89,240,4963,5,0
417,156,4964,5,0
95,228,4965,5,0
411,168,4966,5,0
101,216,4967,5,0
405,180,4968,5,0
107,204,4969,5,0
398,191,4970,5,0
114,193,4971,5,0
391,202,4972,5,0
121,182,4973,5,0
383,212,4974,5,0
129,172,4975,5,0
375,221,4976,5,0
137,163,4977,5,0
366,230,4978,5,0
146,154,4979,5,0
357,239,4980,5,0
155,145,4981,5,0
347,246,4982,5,0
165,138,4983,5,0
336,252,4984,5,0
176,132,4985,5,0
325,258,4986,5,0
187,126,4987,5,0
314,262,4988,5,0
198,122,4989,5,0
302,265,4990,5,0
210,119,4991,5,0
290,267,4992,5,0
222,117,4993,5,0
278,267,4994,5,0
234,117,4995,5,0
265,266,4996,5,0
247,118,4997,5,0
254,263,4998,5,0
258,121,4999,5,0
242,258,5000,5,0
270,126,5001,5,0
232,251,5002,5,0
280,133,5003,5,0
223,243,5004,5,0
289,141,5005,5,0
216,234,5006,5,0
296,150,5007,5,0
210,223,5008,5,0
302,161,5009,5,0
207,211,5010,5,0
305,173,5011,5,0
207,199,5012,5,0
305,185,5013,5,0
209,186,5014,5,0
303,198,5015,5,0
214,175,5016,5,0
298,209,5017,5,0
222,166,5018,5,0
290,218,5019,5,0
232,159,5020,5,0
280,225,5021,5,0
244,155,5022,5,0
268,229,5023,5,0
257,155,5024,5,0
255,229,5025,5,0
268,159,5026,5,0
244,225,5027,5,0
278,167,5028,5,0
234,217,5029,5,0
285,178,5030,5,0
227,206,5031,5,0
286,191,5032,5,0
226,193,5033,5,0
283,203,5034,5,0
229,181,5035,5,0
274,212,5036,5,0
238,172,5037,5,0
443,150,5038,5,0
69,234,5039,5,0
436,162,5040,5,0
76,222,5041,5,0
429,174,5042,5,0
83,210,5043,5,0
421,185,5044,5,0
91,199,5045,5,0
413,196,5046,5,0
99,188,5047,5,0
405,206,5048,5,0
107,178,5049,5,0
396,216,5050,5,0
116,168,5051,5,0
387,225,5052,5,0
125,159,5053,5,0
378,234,5054,5,0
134,150,5055,5,0
368,242,5056,5,0
144,142,5057,5,0
358,249,5058,5,0
154,135,5059,5,0
347,255,5060,5,0
165,129,5061,5,0
336,261,5062,5,0
176,123,5063,5,0
324,265,5064,5,0
188,119,5065,5,0
313,269,5066,5,0
199,115,5067,5,0
301,271,5068,5,0
211,113,5069,5,0
288,272,5070,5,0
224,112,5071,5,0
276,272,5072,5,0
236,112,5073,5,0
264,270,5074,5,0
248,114,5075,5,0
253,266,5076,5,0
259,118,5077,5,0
241,261,5078,5,0
271,123,5079,5,0
231,254,5080,5,0
281,130,5081,5,0
222,246,5082,5,0
290,138,5083,5,0
215,237,5084,5,0
297,147,5085,5,0
209,226,5086,5,0
303,158,5087,5,0
206,214,5088,5,0
306,170,5089,5,0
205,202,5090,5,0
307,182,5091,5,0
206,190,5092,5,0
306,194,5093,5,0
211,178,5094,5,0
301,206,5095,5,0
218,168,5096,5,0
294,216,5097,5,0
227,160,5098,5,0
285,224,5099,5,0
238,155,5100,5,0
274,229,5101,5,0
251,154,5102,5,0
261,230,5103,5,0
263,156,5104,5,0
249,228,5105,5,0
274,162,5106,5,0
238,222,5107,5,0
282,171,5108,5,0
230,213,5109,5,0
286,183,5110,5,0
226,201,5111,5,0
286,196,5112,5,0
226,188,5113,5,0
280,207,5114,5,0
232,177,5115,5,0
270,215,5116,5,0
242,169,5117,5,0
448,183,5118,5,0
64,201,5119,5,0
439,194,5120,5,0
73,190,5121,5,0
429,204,5122,5,0
83,180,5123,5,0
420,214,5124,5,0
92,170,5125,5,0
410,223,5126,5,0
102,161,5127,5,0
400,232,5128,5,0
112,152,5129,5,0
390,240,5130,5,0
122,144,5131,5,0
379,247,5132,5,0
133,137,5133,5,0
369,254,5134,5,0
143,130,5135,5,0
358,260,5136,5,0
154,124,5137,5,0
346,266,5138,5,0
166,118,5139,5,0
335,270,5140,5,0
177,114,5141,5,0
323,274,5142,5,0
189,110,5143,5,0
311,276,5144,5,0
201,108,5145,5,0
298,277,5146,5,0
214,107,5147,5,0
286,278,5148,5,0
226,106,5149,5,0
274,276,5150,5,0
238,108,5151,5,0
262,274,5152,5,0
250,110,5153,5,0
251,270,5154,5,0
261,114,5155,5,0
240,264,5156,5,0
272,120,5157,5,0
230,258,5158,5,0
282,126,5159,5,0
221,249,5160,5,0
291,135,5161,5,0
213,240,5162,5,0
299,144,5163,5,0
208,229,5164,5,0
304,155,5165,5,0
204,217,5166,5,0
308,167,5167,5,0
203,205,5168,5,0
309,179,5169,5,0
204,193,5170,5,0
308,191,5171,5,0
207,181,5172,5,0
305,203,5173,5,0
214,171,5174,5,0
298,213,5175,5,0
222,162,5176,5,0
290,222,5177,5,0
233,156,5178,5,0
279,228,5179,5,0
245,153,5180,5,0
267,231,5181,5,0
258,153,5182,5,0
254,231,5183,5,0
269,158,5184,5,0
243,226,5185,5,0
279,165,5186,5,0
233,219,5187,5,0
285,176,5188,5,0
227,208,5189,5,0
288,189,5190,5,0
224,195,5191,5,0
285,201,5192,5,0
227,183,5193,5,0
277,211,5194,5,0
235,173,5195,5,0
266,217,5196,5,0
246,167,5197,5,0
446,216,5198,5,0
66,168,5199,5,0
436,225,5200,5,0
76,159,5201,5,0
425,234,5202,5,0
87,150,5203,5,0
414,242,5204,5,0
98,142,5205,5,0
402,249,5206,5,0
110,135,5207,5,0
391,256,5208,5,0
121,128,5209,5,0
380,262,5210,5,0
132,122,5211,5,0
368,268,5212,5,0
144,116,5213,5,0
356,273,5214,5,0
156,111,5215,5,0
344,277,5216,5,0
168,107,5217,5,0
332,280,5218,5,0
180,104,5219,5,0
320,283,5220,5,0
192,101,5221,5,0
307,284,5222,5,0
205,100,5223,5,0
295,284,5224,5,0
217,100,5225,5,0
283,283,5226,5,0
229,101,5227,5,0
271,281,5228,5,0
241,103,5229,5,0
259,278,5230,5,0
253,106,5231,5,0
248,274,5232,5,0
264,110,5233,5,0
237,268,5234,5,0
275,116,5235,5,0
227,261,5236,5,0
285,123,5237,5,0
219,252,5238,5,0
293,132,5239,5,0
211,242,5240,5,0
301,142,5241,5,0
206,231,5242,5,0
306,153,5243,5,0
202,220,5244,5,0
310,164,5245,5,0
200,208,5246,5,0
312,176,5247,5,0
201,196,5248,5,0
311,188,5249,5,0
204,184,5250,5,0
308,200,5251,5,0
210,173,5252,5,0
302,211,5253,5,0
218,164,5254,5,0
294,220,5255,5,0
228,157,5256,5,0
284,227,5257,5,0
240,152,5258,5,0
272,232,5259,5,0
252,151,5260,5,0
260,233,5261,5,0
264,154,5262,5,0
248,230,5263,5,0
275,160,5264,5,0
237,224,5265,5,0
283,170,5266,5,0
229,214,5267,5,0
288,182,5268,5,0
224,202,5269,5,0
288,194,5270,5,0
224,190,5271,5,0
283,206,5272,5,0
229,178,5273,5,0
274,215,5274,5,0
238,169,5275,5,0
262,219,5276,5,0
250,165,5277,5,0
439,249,5278,5,0
73,135,5279,5,0
427,256,5280,5,0
85,128,5281,5,0
415,263,5282,5,0
97,121,5283,5,0
403,268,5284,5,0
109,116,5285,5,0
390,274,5286,5,0
122,110,5287,5,0
378,279,5288,5,0
134,105,5289,5,0
365,283,5290,5,0
147,101,5291,5,0
353,286,5292,5,0
159,98,5293,5,0
341,289,5294,5,0
171,95,5295,5,0
328,291,5296,5,0
184,93,5297,5,0
316,292,5298,5,0
196,92,5299,5,0
303,292,5300,5,0
209,92,5301,5,0
291,291,5302,5,0
221,93,5303,5,0
279,290,5304,5,0
233,94,5305,5,0
267,287,5306,5,0
245,97,5307,5,0
255,283,5308,5,0
257,101,5309,5,0
244,277,5310,5,0
268,107,5311,5,0
234,271,5312,5,0
278,113,5313,5,0
224,263,5314,5,0
288,121,5315,5,0
216,254,5316,5,0
296,130,5317,5,0
209,245,5318,5,0
303,139,5319,5,0
203,234,5320,5,0
309,150,5321,5,0
200,222,5322,5,0
312,162,5323,5,0
198,210,5324,5,0
314,174,5325,5,0
198,198,5326,5,0
314,186,5327,5,0
201,186,5328,5,0
311,198,5329,5,0
207,175,5330,5,0
305,209,5331,5,0
214,165,5332,5,0
298,219,5333,5,0
224,158,5334,5,0
288,226,5335,5,0
235,152,5336,5,0
277,232,5337,5,0
247,150,5338,5,0
265,234,5339,5,0
259,151,5340,5,0
253,233,5341,5,0
271,156,5342,5,0
241,228,5343,5,0
280,164,5344,5,0
232,220,5345,5,0
287,175,5346,5,0
225,209,5347,5,0
289,187,5348,5,0
223,197,5349,5,0
287,200,5350,5,0
225,184,5351,5,0
280,210,5352,5,0
232,174,5353,5,0
269,217,5354,5,0
243,167,5355,5,0
257,219,5356,5,0
255,165,5357,5,0
427,280,5358,5,0
85,104,5359,5,0
413,285,5360,5,0
99,99,5361,5,0
400,289,5362,5,0
112,95,5363,5,0
387,293,5364,5,0
125,91,5365,5,0
374,296,5366,5,0
138,88,5367,5,0
361,298,5368,5,0
151,86,5369,5,0
348,300,5370,5,0
164,84,5371,5,0
335,302,5372,5,0
177,82,5373,5,0
322,302,5374,5,0
190,82,5375,5,0
310,302,5376,5,0
202,82,5377,5,0
297,301,5378,5,0
215,83,5379,5,0
285,299,5380,5,0
227,85,5381,5,0
273,296,5382,5,0
239,88,5383,5,0
261,292,5384,5,0
251,92,5385,5,0
250,287,5386,5,0
262,97,5387,5,0
239,281,5388,5,0
273,103,5389,5,0
229,274,5390,5,0
283,110,5391,5,0
220,266,5392,5,0
292,118,5393,5,0
212,257,5394,5,0
300,127,5395,5,0
206,247,5396,5,0
306,137,5397,5,0
200,236,5398,5,0
312,148,5399,5,0
197,224,5400,5,0
315,160,5401,5,0
195,212,5402,5,0
317,172,5403,5,0
196,200,5404,5,0
316,184,5405,5,0
198,188,5406,5,0
314,196,5407,5,0
203,177,5408,5,0
309,207,5409,5,0
210,167,5410,5,0
302,217,5411,5,0
219,158,5412,5,0
293,226,5413,5,0
230,152,5414,5,0
282,232,5415,5,0
242,149,5416,5,0
270,235,5417,5,0
254,149,5418,5,0
258,235,5419,5,0
266,153,5420,5,0
246,231,5421,5,0
277,159,5422,5,0
235,225,5423,5,0
285,169,5424,5,0
227,215,5425,5,0
289,181,5426,5,0
223,203,5427,5,0
289,193,5428,5,0
223,191,5429,5,0
285,205,5430,5,0
227,179,5431,5,0
276,214,5432,5,0
236,170,5433,5,0
265,219,5434,5,0
247,165,5435,5,0
252,219,5436,5,0
260,165,5437,5,0
409,308,5438,5,0
103,76,5439,5,0
395,311,5440,5,0
117,73,5441,5,0
381,313,5442,5,0
131,71,5443,5,0
368,314,5444,5,0
144,70,5445,5,0
354,315,5446,5,0
158,69,5447,5,0
341,315,5448,5,0
171,69,5449,5,0
328,315,5450,5,0
184,69,5451,5,0
315,314,5452,5,0
197,70,5453,5,0
302,312,5454,5,0
210,72,5455,5,0
290,310,5456,5,0
222,74,5457,5,0
278,306,5458,5,0
234,78,5459,5,0
266,302,5460,5,0
246,82,5461,5,0
255,297,5462,5,0
257,87,5463,5,0
244,291,5464,5,0
268,93,5465,5,0
234,285,5466,5,0
278,99,5467,5,0
224,277,5468,5,0
288,107,5469,5,0
216,268,5470,5,0
296,116,5471,5,0
208,259,5472,5,0
304,125,5473,5,0
202,248,5474,5,0
310,136,5475,5,0
197,237,5476,5,0
315,147,5477,5,0
194,225,5478,5,0
318,159,5479,5,0
192,213,5480,5,0
320,171,5481,5,0
193,201,5482,5,0
319,183,5483,5,0
195,189,5484,5,0
317,195,5485,5,0
200,178,5486,5,0
312,206,5487,5,0
207,168,5488,5,0
305,216,5489,5,0
215,159,5490,5,0
297,225,5491,5,0
226,153,5492,5,0
286,231,5493,5,0
237,149,5494,5,0
275,235,5495,5,0
250,147,5496,5,0
262,237,5497,5,0
262,150,5498,5,0
250,234,5499,5,0
273,155,5500,5,0
239,229,5501,5,0
282,163,5502,5,0
230,221,5503,5,0
288,174,5504,5,0
224,210,5505,5,0
291,186,5506,5,0
221,198,5507,5,0
289,199,5508,5,0
223,185,5509,5,0
282,210,5510,5,0
230,174,5511,5,0
272,217,5512,5,0
240,167,5513,5,0
260,220,5514,5,0
252,164,5515,5,0
248,218,5516,5,0
264,166,5517,5,0
386,333,5518,5,0
126,51,5519,5,0
372,333,5520,5,0
140,51,5521,5,0
358,332,5522,5,0
154,52,5523,5,0
345,331,5524,5,0
167,53,5525,5,0
331,330,5526,5,0
181,54,5527,5,0
318,328,5528,5,0
194,56,5529,5,0
305,325,5530,5,0
207,59,5531,5,0
293,322,5532,5,0
219,62,5533,5,0
281,318,5534,5,0
231,66,5535,5,0
269,314,5536,5,0
243,70,5537,5,0
258,308,5538,5,0
254,76,5539,5,0
247,302,5540,5,0
265,82,5541,5,0
236,296,5542,5,0
276,88,5543,5,0
227,288,5544,5,0
285,96,5545,5,0
218,279,5546,5,0
294,105,5547,5,0
210,270,5548,5,0
302,114,5549,5,0
203,260,5550,5,0
309,124,5551,5,0
197,249,5552,5,0
315,135,5553,5,0
193,238,5554,5,0
319,146,5555,5,0
190,226,5556,5,0
322,158,5557,5,0
189,214,5558,5,0
323,170,5559,5,0
190,202,5560,5,0
322,182,5561,5,0
192,190,5562,5,0
320,194,5563,5,0
197,179,5564,5,0
315,205,5565,5,0
203,168,5566,5,0
309,216,5567,5,0
212,159,5568,5,0
300,225,5569,5,0
222,153,5570,5,0
290,231,5571,5,0
233,148,5572,5,0
279,236,5573,5,0
245,146,5574,5,0
267,238,5575,5,0
257,147,5576,5,0
255,237,5577,5,0
269,151,5578,5,0
243,233,5579,5,0
279,158,5580,5,0
233,226,5581,5,0
287,168,5582,5,0
225,216,5583,5,0
291,180,5584,5,0
221,204,5585,5,0
291,193,5586,5,0
221,191,5587,5,0
287,204,5588,5,0
225,180,5589,5,0
279,214,5590,5,0
233,170,5591,5,0
268,220,5592,5,0
244,164,5593,5,0
255,221,5594,5,0
257,163,5595,5,0
243,216,5596,5,0
269,168,5597,5,0
360,354,5598,5,0
152,30,5599,5,0
346,351,5600,5,0
166,33,5601,5,0
332,348,5602,5,0
180,36,5603,5,0
319,345,5604,5,0
193,39,5605,5,0
306,341,5606,5,0
206,43,5607,5,0
294,337,5608,5,0
218,47,5609,5,0
282,332,5610,5,0
230,52,5611,5,0
270,327,5612,5,0
242,57,5613,5,0
258,321,5614,5,0
254,63,5615,5,0
248,314,5616,5,0
264,70,5617,5,0
237,307,5618,5,0
275,77,5619,5,0
228,299,5620,5,0
284,85,5621,5,0
219,291,5622,5,0
293,93,5623,5,0
210,281,5624,5,0
302,103,5625,5,0
203,271,5626,5,0
309,113,5627,5,0
197,261,5628,5,0
315,123,5629,5,0
192,250,5630,5,0
320,134,5631,5,0
188,238,5632,5,0
324,146,5633,5,0
186,226,5634,5,0
326,158,5635,5,0
185,214,5636,5,0
327,170,5637,5,0
186,202,5638,5,0
326,182,5639,5,0
189,190,5640,5,0
323,194,5641,5,0
193,179,5642,5,0
319,205,5643,5,0
200,169,5644,5,0
312,215,5645,5,0
208,160,5646,5,0
304,224,5647,5,0
218,152,5648,5,0
294,232,5649,5,0
229,147,5650,5,0
283,237,5651,5,0
241,145,5652,5,0
271,239,5653,5,0
253,145,5654,5,0
259,239,5655,5,0
265,148,5656,5,0
247,236,5657,5,0
276,154,5658,5,0
236,230,5659,5,0
285,163,5660,5,0
227,221,5661,5,0
290,174,5662,5,0
222,210,5663,5,0
292,186,5664,5,0
220,198,5665,5,0
290,199,5666,5,0
222,185,5667,5,0
284,210,5668,5,0
228,174,5669,5,0
275,218,5670,5,0
237,166,5671,5,0
263,221,5672,5,0
249,163,5673,5,0
250,220,5674,5,0
262,164,5675,5,0
239,213,5676,5,0
273,171,5677,5,0
330,369,5678,5,0
182,15,5679,5,0
317,364,5680,5,0
195,20,5681,5,0
304,359,5682,5,0
208,25,5683,5,0
292,353,5684,5,0
220,31,5685,5,0
280,347,5686,5,0
232,37,5687,5,0
268,341,5688,5,0
244,43,5689,5,0
257,334,5690,5,0
255,50,5691,5,0
246,327,5692,5,0
266,57,5693,5,0
236,319,5694,5,0
276,65,5695,5,0
227,311,5696,5,0
285,73,5697,5,0
218,302,5698,5,0
294,82,5699,5,0
209,293,5700,5,0
303,91,5701,5,0
202,283,5702,5,0
310,101,5703,5,0
196,272,5704,5,0
316,112,5705,5,0
190,261,5706,5,0
322,123,5707,5,0
186,250,5708,5,0
326,134,5709,5,0
183,238,5710,5,0
329,146,5711,5,0
181,226,5712,5,0
331,158,5713,5,0
181,214,5714,5,0
331,170,5715,5,0
182,201,5716,5,0
330,183,5717,5,0
185,190,5718,5,0
327,194,5719,5,0
190,178,5720,5,0
322,206,5721,5,0
197,168,5722,5,0
315,216,5723,5,0
205,159,5724,5,0
307,225,5725,5,0
214,152,5726,5,0
298,232,5727,5,0
225,146,5728,5,0
287,238,5729,5,0
237,143,5730,5,0
275,241,5731,5,0
249,143,5732,5,0
263,241,5733,5,0
262,145,5734,5,0
250,239,5735,5,0
273,150,5736,5,0
239,234,5737,5,0
282,158,5738,5,0
230,226,5739,5,0
289,168,5740,5,0
223,216,5741,5,0
293,180,5742,5,0
219,204,5743,5,0
293,193,5744,5,0
219,191,5745,5,0
289,204,5746,5,0
223,180,5747,5,0
281,214,5748,5,0
231,170,5749,5,0
270,221,5750,5,0
242,163,5751,5,0
257,222,5752,5,0
255,162,5753,5,0
245,219,5754,5,0
267,165,5755,5,0
236,210,5756,5,0
276,174,5757,5,0
298,379,5758,5,0
214,5,5759,5,0
286,372,5760,5,0
226,12,5761,5,0
274,365,5762,5,0
238,19,5763,5,0
263,357,5764,5,0
249,27,5765,5,0
252,349,5766,5,0
260,35,5767,5,0
242,341,5768,5,0
270,43,5769,5,0
232,332,5770,5,0
280,52,5771,5,0
223,323,5772,5,0
289,61,5773,5,0
214,314,5774,5,0
298,70,5775,5,0
206,304,5776,5,0
306,80,5777,5,0
199,294,5778,5,0
313,90,5779,5,0
193,283,5780,5,0
319,101,5781,5,0
187,272,5782,5,0
325,112,5783,5,0
183,260,5784,5,0
329,124,5785,5,0
179,249,5786,5,0
333,135,5787,5,0
177,237,5788,5,0
335,147,5789,5,0
176,224,5790,5,0
336,160,5791,5,0
176,212,5792,5,0
336,172,5793,5,0
178,200,5794,5,0
334,184,5795,5,0
182,189,5796,5,0
330,195,5797,5,0
187,177,5798,5,0
325,207,5799,5,0
194,167,5800,5,0
318,217,5801,5,0
202,158,5802,5,0
310,226,5803,5,0
211,151,5804,5,0
301,233,5805,5,0
222,145,5806,5,0
290,239,5807,5,0
234,142,5808,5,0
278,242,5809,5,0
246,141,5810,5,0
266,243,5811,5,0
258,142,5812,5,0
254,242,5813,5,0
270,147,5814,5,0
242,237,5815,5,0
280,154,5816,5,0
232,230,5817,5,0
288,163,5818,5,0
224,221,5819,5,0
293,174,5820,5,0
219,210,5821,5,0
294,187,5822,5,0
218,197,5823,5,0
292,199,5824,5,0
220,185,5825,5,0
286,210,5826,5,0
226,174,5827,5,0
277,218,5828,5,0
235,166,5829,5,0
265,222,5830,5,0
247,162,5831,5,0
252,222,5832,5,0
260,162,5833,5,0
241,216,5834,5,0
271,168,5835,5,0
233,206,5836,5,0
279,178,5837,5,0
265,384,5838,5,0
247,0,5839,5,0
254,375,5840,5,0
258,9,5841,5,0
244,365,5842,5,0
268,19,5843,5,0
234,356,5844,5,0
278,28,5845,5,0
225,346,5846,5,0
287,38,5847,5,0
216,336,5848,5,0
296,48,5849,5,0
208,326,5850,5,0
304,58,5851,5,0
201,315,5852,5,0
311,69,5853,5,0
194,305,5854,5,0
318,79,5855,5,0
188,294,5856,5,0
324,90,5857,5,0
182,282,5858,5,0
330,102,5859,5,0
178,271,5860,5,0
334,113,5861,5,0
174,259,5862,5,0
338,125,5863,5,0
172,247,5864,5,0
340,137,5865,5,0
171,234,5866,5,0
341,150,5867,5,0
170,222,5868,5,0
342,162,5869,5,0
172,210,5870,5,0
340,174,5871,5,0
174,198,5872,5,0
338,186,5873,5,0
178,187,5874,5,0
334,197,5875,5,0
184,176,5876,5,0
328,208,5877,5,0
190,166,5878,5,0
322,218,5879,5,0
199,157,5880,5,0
313,227,5881,5,0
208,149,5882,5,0
304,235,5883,5,0
219,144,5884,5,0
293,240,5885,5,0
231,140,5886,5,0
281,244,5887,5,0
243,139,5888,5,0
269,245,5889,5,0
255,140,5890,5,0
257,244,5891,5,0
267,143,5892,5,0
245,241,5893,5,0
277,150,5894,5,0
235,234,5895,5,0
286,158,5896,5,0
226,226,5897,5,0
292,169,5898,5,0
220,215,5899,5,0
295,181,5900,5,0
217,203,5901,5,0
295,194,5902,5,0
217,190,5903,5,0
290,205,5904,5,0
222,179,5905,5,0
283,215,5906,5,0
229,169,5907,5,0
272,221,5908,5,0
240,163,5909,5,0
259,224,5910,5,0
253,160,5911,5,0
247,221,5912,5,0
265,163,5913,5,0
237,213,5914,5,0
275,171,5915,5,0
231,202,5916,5,0
281,182,5917,5,0
232,382,5918,5,0
280,2,5919,5,0
223,372,5920,5,0
289,12,5921,5,0
214,361,5922,5,0
298,23,5923,5,0
206,350,5924,5,0
306,34,5925,5,0
199,338,5926,5,0
313,46,5927,5,0
192,327,5928,5,0
320,57,5929,5,0
186,316,5930,5,0
326,68,5931,5,0
180,304,5932,5,0
332,80,5933,5,0
175,292,5934,5,0
337,92,5935,5,0
171,280,5936,5,0
341,104,5937,5,0
168,268,5938,5,0
344,116,5939,5,0
165,256,5940,5,0
347,128,5941,5,0
164,243,5942,5,0
348,141,5943,5,0
164,231,5944,5,0
348,153,5945,5,0
165,219,5946,5,0
347,165,5947,5,0
167,207,5948,5,0
345,177,5949,5,0
170,195,5950,5,0
342,189,5951,5,0
174,184,5952,5,0
338,200,5953,5,0
180,173,5954,5,0
332,211,5955,5,0
187,163,5956,5,0
325,221,5957,5,0
196,155,5958,5,0
316,229,5959,5,0
206,147,5960,5,0
306,237,5961,5,0
217,142,5962,5,0
295,242,5963,5,0
228,138,5964,5,0
284,246,5965,5,0
240,136,5966,5,0
272,248,5967,5,0
252,137,5968,5,0
260,247,5969,5,0
264,140,5970,5,0
248,244,5971,5,0
275,146,5972,5,0
237,238,5973,5,0
284,154,5974,5,0
228,230,5975,5,0
291,164,5976,5,0
221,220,5977,5,0
296,176,5978,5,0
216,208,5979,5,0
297,188,5980,5,0
215,196,5981,5,0
294,200,5982,5,0
218,184,5983,5,0
288,211,5984,5,0
224,173,5985,5,0
278,219,5986,5,0
234,165,5987,5,0
266,224,5988,5,0
246,160,5989,5,0
254,224,5990,5,0
258,160,5991,5,0
242,219,5992,5,0
270,165,5993,5,0
233,210,5994,5,0
279,174,5995,5,0
229,198,5996,5,0
283,186,5997,5,0
199,375,5998,5,0
313,9,5999,5,0
192,363,6000,5,0
320,21,6001,5,0
185,351,6002,5,0
327,33,6003,5,0
180,339,6004,5,0
332,45,6005,5,0
174,326,6006,5,0
338,58,6007,5,0
169,314,6008,5,0
343,70,6009,5,0
165,301,6010,5,0
347,83,6011,5,0
162,289,6012,5,0
350,95,6013,5,0
159,277,6014,5,0
353,107,6015,5,0
157,264,6016,5,0
355,120,6017,5,0
156,252,6018,5,0
356,132,6019,5,0
156,239,6020,5,0
356,145,6021,5,0
157,227,6022,5,0
355,157,6023,5,0
158,215,6024,5,0
354,169,6025,5,0
161,203,6026,5,0
351,181,6027,5,0
165,191,6028,5,0
347,193,6029,5,0
171,180,6030,5,0
341,204,6031,5,0
177,170,6032,5,0
335,214,6033,5,0
185,160,6034,5,0
327,224,6035,5,0
194,152,6036,5,0
318,232,6037,5,0
203,145,6038,5,0
309,239,6039,5,0
214,139,6040,5,0
298,245,6041,5,0
226,136,6042,5,0
286,248,6043,5,0
238,134,6044,5,0
274,250,6045,5,0
250,134,6046,5,0
262,250,6047,5,0
262,137,6048,5,0
250,247,6049,5,0
273,143,6050,5,0
239,241,6051,5,0
283,150,6052,5,0
229,234,6053,5,0
290,160,6054,5,0
222,224,6055,5,0
296,171,6056,5,0
216,213,6057,5,0
298,183,6058,5,0
214,201,6059,5,0
297,195,6060,5,0
215,189,6061,5,0
292,207,6062,5,0
220,177,6063,5,0
284,216,6064,5,0
228,168,6065,5,0
273,223,6066,5,0
239,161,6067,5,0
261,225,6068,5,0
251,159,6069,5,0
248,223,6070,5,0
264,161,6071,5,0
238,216,6072,5,0
274,168,6073,5,0
231,205,6074,5,0
281,179,6075,5,0
229,193,6076,5,0
283,191,6077,5,0
168,363,6078,5,0
344,21,6079,5,0
163,349,6080,5,0
349,35,6081,5,0
159,336,6082,5,0
353,48,6083,5,0
155,323,6084,5,0
357,61,6085,5,0
152,310,6086,5,0
360,74,6087,5,0
150,297,6088,5,0
362,87,6089,5,0
148,284,6090,5,0
364,100,6091,5,0
146,271,6092,5,0
366,113,6093,5,0
146,258,6094,5,0
366,126,6095,5,0
146,246,6096,5,0
366,138,6097,5,0
147,233,6098,5,0
365,151,6099,5,0
149,221,6100,5,0
363,163,6101,5,0
152,209,6102,5,0
360,175,6103,5,0
156,197,6104,5,0
356,187,6105,5,0
161,186,6106,5,0
351,198,6107,5,0
167,175,6108,5,0
345,209,6109,5,0
174,165,6110,5,0
338,219,6111,5,0
182,156,6112,5,0
330,228,6113,5,0
191,148,6114,5,0
321,236,6115,5,0
201,142,6116,5,0
311,242,6117,5,0
212,136,6118,5,0
300,248,6119,5,0
224,133,6120,5,0
288,251,6121,5,0
236,131,6122,5,0
276,253,6123,5,0
248,132,6124,5,0
264,252,6125,5,0
260,134,6126,5,0
252,250,6127,5,0
271,139,6128,5,0
241,245,6129,5,0
281,146,6130,5,0
231,238,6131,5,0
290,155,6132,5,0
222,229,6133,5,0
296,166,6134,5,0
216,218,6135,5,0
299,178,6136,5,0
213,206,6137,5,0
299,190,6138,5,0
213,194,6139,5,0
295,202,6140,5,0
217,182,6141,5,0
289,213,6142,5,0
223,171,6143,5,0
279,221,6144,5,0
233,163,6145,5,0
267,225,6146,5,0
245,159,6147,5,0
255,225,6148,5,0
257,159,6149,5,0
243,221,6150,5,0
269,163,6151,5,0
234,212,6152,5,0
278,172,6153,5,0
229,201,6154,5,0
283,183,6155,5,0
229,188,6156,5,0
283,196,6157,5,0
140,345,6158,5,0
372,39,6159,5,0
137,331,6160,5,0
375,53,6161,5,0
135,317,6162,5,0
377,67,6163,5,0
134,304,6164,5,0
378,80,6165,5,0
133,290,6166,5,0
379,94,6167,5,0
133,277,6168,5,0
379,107,6169,5,0
133,264,6170,5,0
379,120,6171,5,0
134,251,6172,5,0
378,133,6173,5,0
136,238,6174,5,0
376,146,6175,5,0
138,226,6176,5,0
374,158,6177,5,0
142,214,6178,5,0
370,170,6179,5,0
146,202,6180,5,0
366,182,6181,5,0
151,191,6182,5,0
361,193,6183,5,0
157,180,6184,5,0
355,204,6185,5,0
163,170,6186,5,0
349,214,6187,5,0
171,160,6188,5,0
341,224,6189,5,0
180,152,6190,5,0
332,232,6191,5,0
189,144,6192,5,0
323,240,6193,5,0
200,138,6194,5,0
312,246,6195,5,0
211,133,6196,5,0
301,251,6197,5,0
223,130,6198,5,0
289,254,6199,5,0
235,128,6200,5,0
277,256,6201,5,0
247,129,6202,5,0
265,255,6203,5,0
259,131,6204,5,0
253,253,6205,5,0
270,136,6206,5,0
242,248,6207,5,0
280,143,6208,5,0
232,241,6209,5,0
289,151,6210,5,0
223,233,6211,5,0
295,162,6212,5,0
217,222,6213,5,0
299,173,6214,5,0
213,211,6215,5,0
301,186,6216,5,0
211,198,6217,5,0
298,198,6218,5,0
214,186,6219,5,0
293,209,6220,5,0
219,175,6221,5,0
285,218,6222,5,0
227,166,6223,5,0
274,224,6224,5,0
238,160,6225,5,0
262,227,6226,5,0
250,157,6227,5,0
249,225,6228,5,0
263,159,6229,5,0
238,218,6230,5,0
274,166,6231,5,0
231,208,6232,5,0
281,176,6233,5,0
228,196,6234,5,0
284,188,6235,5,0
230,184,6236,5,0
282,200,6237,5,0
115,322,6238,5,0
397,62,6239,5,0
115,308,6240,5,0
397,76,6241,5,0
116,294,6242,5,0
396,90,6243,5,0
117,281,6244,5,0
395,103,6245,5,0
118,267,6246,5,0
394,117,6247,5,0
120,254,6248,5,0
392,130,6249,5,0
123,241,6250,5,0
389,143,6251,5,0
126,229,6252,5,0
386,155,6253,5,0
130,217,6254,5,0
382,167,6255,5,0
134,205,6256,5,0
378,179,6257,5,0
140,194,6258,5,0
372,190,6259,5,0
146,183,6260,5,0
366,201,6261,5,0
152,172,6262,5,0
360,212,6263,5,0
160,163,6264,5,0
352,221,6265,5,0
169,154,6266,5,0
343,230,6267,5,0
178,146,6268,5,0
334,238,6269,5,0
188,139,6270,5,0
324,245,6271,5,0
199,133,6272,5,0
313,251,6273,5,0
210,129,6274,5,0
302,255,6275,5,0
222,126,6276,5,0
290,258,6277,5,0
234,125,6278,5,0
278,259,6279,5,0
246,126,6280,5,0
266,258,6281,5,0
258,128,6282,5,0
254,256,6283,5,0
269,133,6284,5,0
243,251,6285,5,0
280,139,6286,5,0
232,245,6287,5,0
289,148,6288,5,0
223,236,6289,5,0
295,158,6290,5,0
217,226,6291,5,0
300,169,6292,5,0
212,215,6293,5,0
302,181,6294,5,0
210,203,6295,5,0
301,193,6296,5,0
211,191,6297,5,0
297,205,6298,5,0
215,179,6299,5,0
290,215,6300,5,0
222,169,6301,5,0
280,223,6302,5,0
232,161,6303,5,0
268,227,6304,5,0
244,157,6305,5,0
255,227,6306,5,0
257,157,6307,5,0
244,223,6308,5,0
268,161,6309,5,0
234,215,6310,5,0
278,169,6311,5,0
228,204,6312,5,0
284,180,6313,5,0
227,191,6314,5,0
285,193,6315,5,0
232,179,6316,5,0
280,205,6317,5,0
94,296,6318,5,0
418,88,6319,5,0
97,282,6320,5,0
415,102,6321,5,0
100,268,6322,5,0
412,116,6323,5,0
103,255,6324,5,0
409,129,6325,5,0
107,242,6326,5,0
405,142,6327,5,0
111,230,6328,5,0
401,154,6329,5,0
116,218,6330,5,0
396,166,6331,5,0
121,206,6332,5,0
391,178,6333,5,0
127,194,6334,5,0
385,190,6335,5,0
134,184,6336,5,0
378,200,6337,5,0
141,173,6338,5,0
371,211,6339,5,0
149,164,6340,5,0
363,220,6341,5,0
157,155,6342,5,0
355,229,6343,5,0
167,146,6344,5,0
345,238,6345,5,0
177,139,6346,5,0
335,245,6347,5,0
187,133,6348,5,0
325,251,6349,5,0
198,128,6350,5,0
314,256,6351,5,0
210,124,6352,5,0
302,260,6353,5,0
222,122,6354,5,0
290,262,6355,5,0
234,121,6356,5,0
278,263,6357,5,0
246,122,6358,5,0
266,262,6359,5,0
258,125,6360,5,0
254,259,6361,5,0
269,129,6362,5,0
243,255,6363,5,0
279,136,6364,5,0
233,248,6365,5,0
288,144,6366,5,0
224,240,6367,5,0
296,154,6368,5,0
216,230,6369,5,0
301,165,6370,5,0
211,219,6371,5,0
303,177,6372,5,0
209,207,6373,5,0
303,189,6374,5,0
209,195,6375,5,0
300,201,6376,5,0
212,183,6377,5,0
294,212,6378,5,0
218,172,6379,5,0
285,221,6380,5,0
227,163,6381,5,0
274,226,6382,5,0
238,158,6383,5,0
262,228,6384,5,0
250,156,6385,5,0
249,226,6386,5,0
263,158,6387,5,0
238,220,6388,5,0
274,164,6389,5,0
230,211,6390,5,0
282,173,6391,5,0
227,199,6392,5,0
285,185,6393,5,0
228,186,6394,5,0
284,198,6395,5,0
235,175,6396,5,0
277,209,6397,5,0
79,266,6398,5,0
433,118,6399,5,0
84,253,6400,5,0
428,131,6401,5,0
89,240,6402,5,0
423,144,6403,5,0
95,228,6404,5,0
417,156,6405,5,0
101,216,6406,5,0
411,168,6407,5,0
107,204,6408,5,0
405,180,6409,5,0
114,193,6410,5,0
398,191,6411,5,0
121,182,6412,5,0
391,202,6413,5,0
129,172,6414,5,0
383,212,6415,5,0
137,163,6416,5,0
375,221,6417,5,0
146,154,6418,5,0
366,230,6419,5,0
155,145,6420,5,0
357,239,6421,5,0
165,138,6422,5,0
347,246,6423,5,0
176,132,6424,5,0
336,252,6425,5,0
187,126,6426,5,0
325,258,6427,5,0
198,122,6428,5,0
314,262,6429,5,0
210,119,6430,5,0
302,265,6431,5,0
222,117,6432,5,0
290,267,6433,5,0
234,117,6434,5,0
278,267,6435,5,0
247,118,6436,5,0
265,266,6437,5,0
258,121,6438,5,0
254,263,6439,5,0
270,126,6440,5,0
242,258,6441,5,0
280,133,6442,5,0
232,251,6443,5,0
289,141,6444,5,0
223,243,6445,5,0
296,150,6446,5,0
216,234,6447,5,0
302,161,6448,5,0
210,223,6449,5,0
305,173,6450,5,0
207,211,6451,5,0
305,185,6452,5,0
207,199,6453,5,0
303,198,6454,5,0
209,186,6455,5,0
298,209,6456,5,0
214,175,6457,5,0
290,218,6458,5,0
222,166,6459,5,0
280,225,6460,5,0
232,159,6461,5,0
268,229,6462,5,0
244,155,6463,5,0
255,229,6464,5,0
257,155,6465,5,0
244,225,6466,5,0
268,159,6467,5,0
234,217,6468,5,0
278,167,6469,5,0
227,206,6470,5,0
285,178,6471,5,0
226,193,6472,5,0
286,191,6473,5,0
229,181,6474,5,0
283,203,6475,5,0
238,172,6476,5,0
274,212,6477,5,0
69,234,6478,5,0
443,150,6479,5,0
76,222,6480,5,0
436,162,6481,5,0
83,210,6482,5,0
429,174,6483,5,0
91,199,6484,5,0
421,185,6485,5,0
99,188,6486,5,0
413,196,6487,5,0
107,178,6488,5,0
405,206,6489,5,0
116,168,6490,5,0
396,216,6491,5,0
125,159,6492,5,0
387,225,6493,5,0
134,150,6494,5,0
378,234,6495,5,0
144,142,6496,5,0
368,242,6497,5,0
154,135,6498,5,0
358,249,6499,5,0
165,129,6500,5,0
347,255,6501,5,0
176,123,6502,5,0
336,261,6503,5,0
188,119,6504,5,0
324,265,6505,5,0
199,115,6506,5,0
313,269,6507,5,0
211,113,6508,5,0
301,271,6509,5,0
224,112,6510,5,0
288,272,6511,5,0
236,112,6512,5,0
276,272,6513,5,0
248,114,6514,5,0
264,270,6515,5,0
259,118,6516,5,0
253,266,6517,5,0
271,123,6518,5,0
241,261,6519,5,0
281,130,6520,5,0
231,254,6521,5,0
290,138,6522,5,0
222,246,6523,5,0
297,147,6524,5,0
215,237,6525,5,0
303,158,6526,5,0
209,226,6527,5,0
306,170,6528,5,0
206,214,6529,5,0
307,182,6530,5,0
205,202,6531,5,0
306,194,6532,5,0
206,190,6533,5,0
301,206,6534,5,0
211,178,6535,5,0
294,216,6536,5,0
218,168,6537,5,0
285,224,6538,5,0
227,160,6539,5,0
274,229,6540,5,0
238,155,6541,5,0
261,230,6542,5,0
251,154,6543,5,0
249,228,6544,5,0
263,156,6545,5,0
238,222,6546,5,0
274,162,6547,5,0
230,213,6548,5,0
282,171,6549,5,0
226,201,6550,5,0
286,183,6551,5,0
226,188,6552,5,0
286,196,6553,5,0
232,177,6554,5,0
280,207,6555,5,0
242,169,6556,5,0
270,215,6557,5,0
64,201,6558,5,0
448,183,6559,5,0
73,190,6560,5,0
439,194,6561,5,0
83,180,6562,5,0
429,204,6563,5,0
92,170,6564,5,0
420,214,6565,5,0
102,161,6566,5,0
410,223,6567,5,0
112,152,6568,5,0
400,232,6569,5,0
122,144,6570,5,0
390,240,6571,5,0
133,137,6572,5,0
379,247,6573,5,0
143,130,6574,5,0
369,254,6575,5,0
154,124,6576,5,0
358,260,6577,5,0
166,118,6578,5,0
346,266,6579,5,0
177,114,6580,5,0
335,270,6581,5,0
189,110,6582,5,0
323,274,6583,5,0
201,108,6584,5,0
311,276,6585,5,0
214,107,6586,5,0
298,277,6587,5,0
226,106,6588,5,0
286,278,6589,5,0
238,108,6590,5,0
274,276,6591,5,0
250,110,6592,5,0
262,274,6593,5,0
261,114,6594,5,0
251,270,6595,5,0
272,120,6596,5,0
240,264,6597,5,0
282,126,6598,5,0
230,258,6599,5,0
291,135,6600,5,0
221,249,6601,5,0
299,144,6602,5,0
213,240,6603,5,0
304,155,6604,5,0
208,229,6605,5,0
308,167,6606,5,0
204,217,6607,5,0
309,179,6608,5,0
203,205,6609,5,0
308,191,6610,5,0
204,193,6611,5,0
305,203,6612,5,0
207,181,6613,5,0
298,213,6614,5,0
214,171,6615,5,0
290,222,6616,5,0
222,162,6617,5,0
279,228,6618,5,0
233,156,6619,5,0
267,231,6620,5,0
245,153,6621,5,0
254,231,6622,5,0
258,153,6623,5,0
243,226,6624,5,0
269,158,6625,5,0
233,219,6626,5,0
279,165,6627,5,0
227,208,6628,5,0
285,176,6629,5,0
224,195,6630,5,0
288,189,6631,5,0
227,183,6632,5,0
285,201,6633,5,0
235,173,6634,5,0
277,211,6635,5,0
246,167,6636,5,0
266,217,6637,5,0
66,168,6638,5,0
446,216,6639,5,0
76,159,6640,5,0
436,225,6641,5,0
87,150,6642,5,0
425,234,6643,5,0
98,142,6644,5,0
414,242,6645,5,0
110,135,6646,5,0
402,249,6647,5,0
121,128,6648,5,0
391,256,6649,5,0
132,122,6650,5,0
380,262,6651,5,0
144,116,6652,5,0
368,268,6653,5,0
156,111,6654,5,0
356,273,6655,5,0
168,107,6656,5,0
344,277,6657,5,0
180,104,6658,5,0
332,280,6659,5,0
192,101,6660,5,0
320,283,6661,5,0
205,100,6662,5,0
307,284,6663,5,0
217,100,6664,5,0
295,284,6665,5,0
229,101,6666,5,0
283,283,6667,5,0
241,103,6668,5,0
271,281,6669,5,0
253,106,6670,5,0
259,278,6671,5,0
264,110,6672,5,0
248,274,6673,5,0
275,116,6674,5,0
237,268,6675,5,0
285,123,6676,5,0
227,261,6677,5,0
293,132,6678,5,0
219,252,6679,5,0
301,142,6680,5,0
211,242,6681,5,0
306,153,6682,5,0
206,231,6683,5,0
310,164,6684,5,0
202,220,6685,5,0
312,176,6686,5,0
200,208,6687,5,0
311,188,6688,5,0
201,196,6689,5,0
308,200,6690,5,0
204,184,6691,5,0
302,211,6692,5,0
210,173,6693,5,0
294,220,6694,5,0
218,164,6695,5,0
284,227,6696,5,0
228,157,6697,5,0
272,232,6698,5,0
240,152,6699,5,0
260,233,6700,5,0
252,151,6701,5,0
248,230,6702,5,0
264,154,6703,5,0
237,224,6704,5,0
275,160,6705,5,0
229,214,6706,5,0
283,170,6707,5,0
224,202,6708,5,0
288,182,6709,5,0
224,190,6710,5,0
288,194,6711,5,0
229,178,6712,5,0
283,206,6713,5,0
238,169,6714,5,0
274,215,6715,5,0
250,165,6716,5,0
262,219,6717,5,0
73,135,6718,5,0
439,249,6719,5,0
85,128,6720,5,0
427,256,6721,5,0
97,121,6722,5,0
415,263,6723,5,0
109,116,6724,5,0
403,268,6725,5,0
122,110,6726,5,0
390,274,6727,5,0
134,105,6728,5,0
378,279,6729,5,0
147,101,6730,5,0
365,283,6731,5,0
159,98,6732,5,0
353,286,6733,5,0
171,95,6734,5,0
341,289,6735,5,0
184,93,6736,5,0
328,291,6737,5,0
196,92,6738,5,0
316,292,6739,5,0
209,92,6740,5,0
303,292,6741,5,0
221,93,6742,5,0
291,291,6743,5,0
233,94,6744,5,0
279,290,6745,5,0
245,97,6746,5,0
267,287,6747,5,0
257,101,6748,5,0
255,283,6749,5,0
268,107,6750,5,0
244,277,6751,5,0
278,113,6752,5,0
234,271,6753,5,0
288,121,6754,5,0
224,263,6755,5,0
296,130,6756,5,0
216,254,6757,5,0
303,139,6758,5,0
209,245,6759,5,0
309,150,6760,5,0
203,234,6761,5,0
312,162,6762,5,0
200,222,6763,5,0
314,174,6764,5,0
198,210,6765,5,0
314,186,6766,5,0
198,198,6767,5,0
311,198,6768,5,0
201,186,6769,5,0
305,209,6770,5,0
207,175,6771,5,0
298,219,6772,5,0
214,165,6773,5,0
288,226,6774,5,0
224,158,6775,5,0
277,232,6776,5,0
235,152,6777,5,0
265,234,6778,5,0
247,150,6779,5,0
253,233,6780,5,0
259,151,6781,5,0
241,228,6782,5,0
271,156,6783,5,0
232,220,6784,5,0
280,164,6785,5,0
225,209,6786,5,0
287,175,6787,5,0
223,197,6788,5,0
289,187,6789,5,0
225,184,6790,5,0
287,200,6791,5,0
232,174,6792,5,0
280,210,6793,5,0
243,167,6794,5,0
269,217,6795,5,0
255,165,6796,5,0
257,219,6797,5,0
85,104,6798,5,0
427,280,6799,5,0
99,99,6800,5,0
413,285,6801,5,0
112,95,6802,5,0
400,289,6803,5,0
125,91,6804,5,0
387,293,6805,5,0
138,88,6806,5,0
374,296,6807,5,0
151,86,6808,5,0
361,298,6809,5,0
164,84,6810,5,0
348,300,6811,5,0
177,82,6812,5,0
335,302,6813,5,0
190,82,6814,5,0
322,302,6815,5,0
202,82,6816,5,0
310,302,6817,5,0
215,83,6818,5,0
297,301,6819,5,0
227,85,6820,5,0
285,299,6821,5,0
239,88,6822,5,0
273,296,6823,5,0
251,92,6824,5,0
261,292,6825,5,0
262,97,6826,5,0
250,287,6827,5,0
273,103,6828,5,0
239,281,6829,5,0
283,110,6830,5,0
229,274,6831,5,0
292,118,6832,5,0
220,266,6833,5,0
300,127,6834,5,0
212,257,6835,5,0
306,137,6836,5,0
206,247,6837,5,0
312,148,6838,5,0
200,236,6839,5,0
315,160,6840,5,0
197,224,6841,5,0
317,172,6842,5,0
195,212,6843,5,0
316,184,6844,5,0
196,200,6845,5,0
314,196,6846,5,0
198,188,6847,5,0
309,207,6848,5,0
203,177,6849,5,0
302,217,6850,5,0
210,167,6851,5,0
293,226,6852,5,0
219,158,6853,5,0
282,232,6854,5,0
230,152,6855,5,0
270,235,6856,5,0
242,149,6857,5,0
258,235,6858,5,0
254,149,6859,5,0
246,231,6860,5,0
266,153,6861,5,0
235,225,6862,5,0
277,159,6863,5,0
227,215,6864,5,0
285,169,6865,5,0
223,203,6866,5,0
289,181,6867,5,0
223,191,6868,5,0
289,193,6869,5,0
227,179,6870,5,0
285,205,6871,5,0
236,170,6872,5,0
276,214,6873,5,0
247,165,6874,5,0
265,219,6875,5,0
260,165,6876,5,0
252,219,6877,5,0
103,76,6878,5,0
409,308,6879,5,0
117,73,6880,5,0
395,311,6881,5,0
131,71,6882,5,0
381,313,6883,5,0
144,70,6884,5,0
368,314,6885,5,0
158,69,6886,5,0
354,315,6887,5,0
171,69,6888,5,0
341,315,6889,5,0
184,69,6890,5,0
328,315,6891,5,0
197,70,6892,5,0
315,314,6893,5,0
210,72,6894,5,0
302,312,6895,5,0
222,74,6896,5,0
290,310,6897,5,0
234,78,6898,5,0
278,306,6899,5,0
246,82,6900,5,0
266,302,6901,5,0
257,87,6902,5,0
255,297,6903,5,0
268,93,6904,5,0
244,291,6905,5,0
278,99,6906,5,0
234,285,6907,5,0
288,107,6908,5,0
224,277,6909,5,0
296,116,6910,5,0
216,268,6911,5,0
304,125,6912,5,0
208,259,6913,5,0
310,136,6914,5,0
202,248,6915,5,0
315,147,6916,5,0
197,237,6917,5,0
318,159,6918,5,0
194,225,6919,5,0
320,171,6920,5,0
192,213,6921,5,0
319,183,6922,5,0
193,201,6923,5,0
317,195,6924,5,0
195,189,6925,5,0
312,206,6926,5,0
200,178,6927,5,0
305,216,6928,5,0
207,168,6929,5,0
297,225,6930,5,0
215,159,6931,5,0
286,231,6932,5,0
226,153,6933,5,0
275,235,6934,5,0
237,149,6935,5,0
262,237,6936,5,0
250,147,6937,5,0
250,234,6938,5,0
262,150,6939,5,0
239,229,6940,5,0
273,155,6941,5,0
230,221,6942,5,0
282,163,6943,5,0
224,210,6944,5,0
288,174,6945,5,0
221,198,6946,5,0
291,186,6947,5,0
223,185,6948,5,0
289,199,6949,5,0
230,174,6950,5,0
282,210,6951,5,0
240,167,6952,5,0
272,217,6953,5,0
252,164,6954,5,0
260,220,6955,5,0
264,166,6956,5,0
248,218,6957,5,0
126,51,6958,5,0
386,333,6959,5,0
140,51,6960,5,0
372,333,6961,5,0
154,52,6962,5,0
358,332,6963,5,0
167,53,6964,5,0
345,331,6965,5,0
181,54,6966,5,0
331,330,6967,5,0
194,56,6968,5,0
318,328,6969,5,0
207,59,6970,5,0
305,325,6971,5,0
219,62,6972,5,0
293,322,6973,5,0
231,66,6974,5,0
281,318,6975,5,0
243,70,6976,5,0
269,314,6977,5,0
254,76,6978,5,0
258,308,6979,5,0
265,82,6980,5,0
247,302,6981,5,0
276,88,6982,5,0
236,296,6983,5,0
285,96,6984,5,0
227,288,6985,5,0
294,105,6986,5,0
218,279,6987,5,0
302,114,6988,5,0
210,270,6989,5,0
309,124,6990,5,0
203,260,6991,5,0
315,135,6992,5,0
197,249,6993,5,0
319,146,6994,5,0
193,238,6995,5,0
322,158,6996,5,0
190,226,6997,5,0
323,170,6998,5,0
189,214,6999,5,0
322,182,7000,5,0
190,202,7001,5,0
320,194,7002,5,0
192,190,7003,5,0
315,205,7004,5,0
197,179,7005,5,0
309,216,7006,5,0
203,168,7007,5,0
300,225,7008,5,0
212,159,7009,5,0
290,231,7010,5,0
222,153,7011,5,0
279,236,7012,5,0
233,148,7013,5,0
267,238,7014,5,0
245,146,7015,5,0
255,237,7016,5,0
257,147,7017,5,0
243,233,7018,5,0
269,151,7019,5,0
233,226,7020,5,0
279,158,7021,5,0
225,216,7022,5,0
287,168,7023,5,0
221,204,7024,5,0
291,180,7025,5,0
221,191,7026,5,0
291,193,7027,5,0
225,180,7028,5,0
287,204,7029,5,0
233,170,7030,5,0
279,214,7031,5,0
244,164,7032,5,0
268,220,7033,5,0
257,163,7034,5,0
255,221,7035,5,0
269,168,7036,5,0
243,216,7037,5,0
152,30,7038,5,0
360,354,7039,5,0
166,33,7040,5,0
346,351,7041,5,0
180,36,7042,5,0
332,348,7043,5,0
193,39,7044,5,0
319,345,7045,5,0
206,43,7046,5,0
306,341,7047,5,0
218,47,7048,5,0
294,337,7049,5,0
230,52,7050,5,0
282,332,7051,5,0
242,57,7052,5,0
270,327,7053,5,0
254,63,7054,5,0
258,321,7055,5,0
264,70,7056,5,0
248,314,7057,5,0
275,77,7058,5,0
237,307,7059,5,0
284,85,7060,5,0
228,299,7061,5,0
293,93,7062,5,0
219,291,7063,5,0
302,103,7064,5,0
210,281,7065,5,0
309,113,7066,5,0
203,271,7067,5,0
315,123,7068,5,0
197,261,7069,5,0
320,134,7070,5,0
192,250,7071,5,0
324,146,7072,5,0
188,238,7073,5,0
326,158,7074,5,0
186,226,7075,5,0
327,170,7076,5,0
185,214,7077,5,0
326,182,7078,5,0
186,202,7079,5,0
323,194,7080,5,0
189,190,7081,5,0
319,205,7082,5,0
193,179,7083,5,0
312,215,7084,5,0
200,169,7085,5,0
304,224,7086,5,0
208,160,7087,5,0
294,232,7088,5,0
218,152,7089,5,0
283,237,7090,5,0
229,147,7091,5,0
271,239,7092,5,0
241,145,7093,5,0
259,239,7094,5,0
253,145,7095,5,0
247,236,7096,5,0
265,148,7097,5,0
236,230,7098,5,0
276,154,7099,5,0
227,221,7100,5,0
285,163,7101,5,0
222,210,7102,5,0
290,174,7103,5,0
220,198,7104,5,0
292,186,7105,5,0
222,185,7106,5,0
290,199,7107,5,0
228,174,7108,5,0
284,210,7109,5,0
237,166,7110,5,0
275,218,7111,5,0
249,163,7112,5,0
263,221,7113,5,0
262,164,7114,5,0
250,220,7115,5,0
273,171,7116,5,0
239,213,7117,5,0
182,15,7118,5,0
330,369,7119,5,0
195,20,7120,5,0
317,364,7121,5,0
208,25,7122,5,0
304,359,7123,5,0
220,31,7124,5,0
292,353,7125,5,0
232,37,7126,5,0
280,347,7127,5,0
244,43,7128,5,0
268,341,7129,5,0
255,50,7130,5,0
257,334,7131,5,0
266,57,7132,5,0
246,327,7133,5,0
276,65,7134,5,0
236,319,7135,5,0
285,73,7136,5,0
227,311,7137,5,0
294,82,7138,5,0
218,302,7139,5,0
303,91,7140,5,0
209,293,7141,5,0
310,101,7142,5,0
202,283,7143,5,0
316,112,7144,5,0
196,272,7145,5,0
322,123,7146,5,0
190,261,7147,5,0
326,134,7148,5,0
186,250,7149,5,0
329,146,7150,5,0
183,238,7151,5,0
331,158,7152,5,0
181,226,7153,5,0
331,170,7154,5,0
181,214,7155,5,0
330,183,7156,5,0
182,201,7157,5,0
327,194,7158,5,0
185,190,7159,5,0
322,206,7160,5,0
190,178,7161,5,0
315,216,7162,5,0
197,168,7163,5,0
307,225,7164,5,0
205,159,7165,5,0
298,232,7166,5,0
214,152,7167,5,0
287,238,7168,5,0
225,146,7169,5,0
275,241,7170,5,0
237,143,7171,5,0
263,241,7172,5,0
249,143,7173,5,0
250,239,7174,5,0
262,145,7175,5,0
239,234,7176,5,0
273,150,7177,5,0
230,226,7178,5,0
282,158,7179,5,0
223,216,7180,5,0
289,168,7181,5,0
219,204,7182,5,0
293,180,7183,5,0
219,191,7184,5,0
293,193,7185,5,0
223,180,7186,5,0
289,204,7187,5,0
231,170,7188,5,0
281,214,7189,5,0
242,163,7190,5,0
270,221,7191,5,0
255,162,7192,5,0
257,222,7193,5,0
267,165,7194,5,0
245,219,7195,5,0
276,174,7196,5,0
236,210,7197,5,0
214,5,7198,5,0
298,379,7199,5,0
226,12,7200,5,0
286,372,7201,5,0
238,19,7202,5,0
274,365,7203,5,0
249,27,7204,5,0
263,357,7205,5,0
260,35,7206,5,0
252,349,7207,5,0
270,43,7208,5,0
242,341,7209,5,0
280,52,7210,5,0
232,332,7211,5,0
289,61,7212,5,0
223,323,7213,5,0
298,70,7214,5,0
214,314,7215,5,0
306,80,7216,5,0
206,304,7217,5,0
313,90,7218,5,0
199,294,7219,5,0
319,101,7220,5,0
193,283,7221,5,0
325,112,7222,5,0
187,272,7223,5,0
329,124,7224,5,0
183,260,7225,5,0
333,135,7226,5,0
179,249,7227,5,0
335,147,7228,5,0
177,237,7229,5,0
336,160,7230,5,0
176,224,7231,5,0
336,172,7232,5,0
176,212,7233,5,0
334,184,7234,5,0
178,200,7235,5,0
330,195,7236,5,0
182,189,7237,5,0
325,207,7238,5,0
187,177,7239,5,0
318,217,7240,5,0
194,167,7241,5,0
310,226,7242,5,0
202,158,7243,5,0
301,233,7244,5,0
211,151,7245,5,0
290,239,7246,5,0
222,145,7247,5,0
278,242,7248,5,0
234,142,7249,5,0
266,243,7250,5,0
246,141,7251,5,0
254,242,7252,5,0
258,142,7253,5,0
242,237,7254,5,0
270,147,7255,5,0
232,230,7256,5,0
280,154,7257,5,0
224,221,7258,5,0
288,163,7259,5,0
219,210,7260,5,0
293,174,7261,5,0
218,197,7262,5,0
294,187,7263,5,0
220,185,7264,5,0
292,199,7265,5,0
226,174,7266,5,0
286,210,7267,5,0
235,166,7268,5,0
277,218,7269,5,0
247,162,7270,5,0
265,222,7271,5,0
260,162,7272,5,0
252,222,7273,5,0
271,168,7274,5,0
241,216,7275,5,0
279,178,7276,5,0
233,206,7277,5,0
247,0,7278,5,0
265,384,7279,5,0
258,9,7280,5,0
254,375,7281,5,0
268,19,7282,5,0
244,365,7283,5,0
278,28,7284,5,0
234,356,7285,5,0
287,38,7286,5,0
225,346,7287,5,0
296,48,7288,5,0
216,336,7289,5,0
304,58,7290,5,0
208,326,7291,5,0
311,69,7292,5,0
201,315,7293,5,0
318,79,7294,5,0
194,305,7295,5,0
324,90,7296,5,0
188,294,7297,5,0
330,102,7298,5,0
182,282,7299,5,0
334,113,7300,5,0
178,271,7301,5,0
338,125,7302,5,0
174,259,7303,5,0
340,137,7304,5,0
172,247,7305,5,0
341,150,7306,5,0
171,234,7307,5,0
342,162,7308,5,0
170,222,7309,5,0
340,174,7310,5,0
172,210,7311,5,0
338,186,7312,5,0
174,198,7313,5,0
334,197,7314,5,0
178,187,7315,5,0
328,208,7316,5,0
184,176,7317,5,0
322,218,7318,5,0
190,166,7319,5,0
313,227,7320,5,0
199,157,7321,5,0
304,235,7322,5,0
208,149,7323,5,0
293,240,7324,5,0
219,144,7325,5,0
281,244,7326,5,0
231,140,7327,5,0
269,245,7328,5,0
243,139,7329,5,0
257,244,7330,5,0
255,140,7331,5,0
245,241,7332,5,0
267,143,7333,5,0
235,234,7334,5,0
277,150,7335,5,0
226,226,7336,5,0
286,158,7337,5,0
220,215,7338,5,0
292,169,7339,5,0
217,203,7340,5,0
295,181,7341,5,0
217,190,7342,5,0
295,194,7343,5,0
222,179,7344,5,0
290,205,7345,5,0
229,169,7346,5,0
283,215,7347,5,0
240,163,7348,5,0
272,221,7349,5,0
253,160,7350,5,0
259,224,7351,5,0
265,163,7352,5,0
247,221,7353,5,0
275,171,7354,5,0
237,213,7355,5,0
281,182,7356,5,0
231,202,7357,5,0
280,2,7358,5,0
232,382,7359,5,0
289,12,7360,5,0
223,372,7361,5,0
298,23,7362,5,0
214,361,7363,5,0
306,34,7364,5,0
206,350,7365,5,0
313,46,7366,5,0
199,338,7367,5,0
320,57,7368,5,0
192,327,7369,5,0
326,68,7370,5,0
186,316,7371,5,0
332,80,7372,5,0
180,304,7373,5,0
337,92,7374,5,0
175,292,7375,5,0
341,104,7376,5,0
171,280,7377,5,0
344,116,7378,5,0
168,268,7379,5,0
347,128,7380,5,0
165,256,7381,5,0
348,141,7382,5,0
164,243,7383,5,0
348,153,7384,5,0
164,231,7385,5,0
347,165,7386,5,0
165,219,7387,5,0
345,177,7388,5,0
167,207,7389,5,0
342,189,7390,5,0
170,195,7391,5,0
338,200,7392,5,0
174,184,7393,5,0
332,211,7394,5,0
180,173,7395,5,0
325,221,7396,5,0
187,163,7397,5,0
316,229,7398,5,0
196,155,7399,5,0
306,237,7400,5,0
206,147,7401,5,0
295,242,7402,5,0
217,142,7403,5,0
284,246,7404,5,0
228,138,7405,5,0
272,248,7406,5,0
240,136,7407,5,0
260,247,7408,5,0
252,137,7409,5,0
248,244,7410,5,0
264,140,7411,5,0
237,238,7412,5,0
275,146,7413,5,0
228,230,7414,5,0
284,154,7415,5,0
221,220,7416,5,0
291,164,7417,5,0
216,208,7418,5,0
296,176,7419,5,0
215,196,7420,5,0
297,188,7421,5,0
218,184,7422,5,0
294,200,7423,5,0
224,173,7424,5,0
288,211,7425,5,0
234,165,7426,5,0
278,219,7427,5,0
246,160,7428,5,0
266,224,7429,5,0
258,160,7430,5,0
254,224,7431,5,0
270,165,7432,5,0
242,219,7433,5,0
279,174,7434,5,0
233,210,7435,5,0
283,186,7436,5,0
229,198,7437,5,0
313,9,7438,5,0
199,375,7439,5,0
320,21,7440,5,0
192,363,7441,5,0
327,33,7442,5,0
185,351,7443,5,0
332,45,7444,5,0
180,339,7445,5,0
338,58,7446,5,0
174,326,7447,5,0
343,70,7448,5,0
169,314,7449,5,0
347,83,7450,5,0
165,301,7451,5,0
350,95,7452,5,0
162,289,7453,5,0
353,107,7454,5,0
159,277,7455,5,0
355,120,7456,5,0
157,264,7457,5,0
356,132,7458,5,0
156,252,7459,5,0
356,145,7460,5,0
156,239,7461,5,0
355,157,7462,5,0
157,227,7463,5,0
354,169,7464,5,0
158,215,7465,5,0
351,181,7466,5,0
161,203,7467,5,0
347,193,7468,5,0
165,191,7469,5,0
341,204,7470,5,0
171,180,7471,5,0
335,214,7472,5,0
177,170,7473,5,0
327,224,7474,5,0
185,160,7475,5,0
318,232,7476,5,0
194,152,7477,5,0
309,239,7478,5,0
203,145,7479,5,0
298,245,7480,5,0
214,139,7481,5,0
286,248,7482,5,0
226,136,7483,5,0
274,250,7484,5,0
238,134,7485,5,0
262,250,7486,5,0
250,134,7487,5,0
250,247,7488,5,0
262,137,7489,5,0
239,241,7490,5,0
273,143,7491,5,0
229,234,7492,5,0
283,150,7493,5,0
222,224,7494,5,0
290,160,7495,5,0
216,213,7496,5,0
296,171,7497,5,0
214,201,7498,5,0
298,183,7499,5,0
215,189,7500,5,0
297,195,7501,5,0
220,177,7502,5,0
292,207,7503,5,0
228,168,7504,5,0
284,216,7505,5,0
239,161,7506,5,0
273,223,7507,5,0
251,159,7508,5,0
261,225,7509,5,0
264,161,7510,5,0
248,223,7511,5,0
274,168,7512,5,0
238,216,7513,5,0
281,179,7514,5,0
231,205,7515,5,0
283,191,7516,5,0
229,193,7517,5,0
344,21,7518,5,0
168,363,7519,5,0
349,35,7520,5,0
163,349,7521,5,0
353,48,7522,5,0
159,336,7523,5,0
357,61,7524,5,0
155,323,7525,5,0
360,74,7526,5,0
152,310,7527,5,0
362,87,7528,5,0
150,297,7529,5,0
364,100,7530,5,0
148,284,7531,5,0
366,113,7532,5,0
146,271,7533,5,0
366,126,7534,5,0
146,258,7535,5,0
366,138,7536,5,0
146,246,7537,5,0
365,151,7538,5,0
147,233,7539,5,0
363,163,7540,5,0
149,221,7541,5,0
360,175,7542,5,0
152,209,7543,5,0
356,187,7544,5,0
156,197,7545,5,0
351,198,7546,5,0
161,186,7547,5,0
345,209,7548,5,0
167,175,7549,5,0
338,219,7550,5,0
174,165,7551,5,0
330,228,7552,5,0
182,156,7553,5,0
321,236,7554,5,0
191,148,7555,5,0
311,242,7556,5,0
201,142,7557,5,0
300,248,7558,5,0
212,136,7559,5,0
288,251,7560,5,0
224,133,7561,5,0
276,253,7562,5,0
236,131,7563,5,0
264,252,7564,5,0
248,132,7565,5,0
252,250,7566,5,0
260,134,7567,5,0
241,245,7568,5,0
271,139,7569,5,0
231,238,7570,5,0
281,146,7571,5,0
222,229,7572,5,0
290,155,7573,5,0
216,218,7574,5,0
296,166,7575,5,0
213,206,7576,5,0
299,178,7577,5,0
213,194,7578,5,0
299,190,7579,5,0
217,182,7580,5,0
295,202,7581,5,0
223,171,7582,5,0
289,213,7583,5,0
233,163,7584,5,0
279,221,7585,5,0
245,159,7586,5,0
267,225,7587,5,0
257,159,7588,5,0
255,225,7589,5,0
269,163,7590,5,0
243,221,7591,5,0
278,172,7592,5,0
234,212,7593,5,0
283,183,7594,5,0
229,201,7595,5,0
283,196,7596,5,0
229,188,7597,5,0
372,39,7598,5,0
140,345,7599,5,0
375,53,7600,5,0
137,331,7601,5,0
377,67,7602,5,0
135,317,7603,5,0
378,80,7604,5,0
134,304,7605,5,0
379,94,7606,5,0
133,290,7607,5,0
379,107,7608,5,0
133,277,7609,5,0
379,120,7610,5,0
133,264,7611,5,0
378,133,7612,5,0
134,251,7613,5,0
376,146,7614,5,0
136,238,7615,5,0
374,158,7616,5,0
138,226,7617,5,0
370,170,7618,5,0
142,214,7619,5,0
366,182,7620,5,0
146,202,7621,5,0
361,193,7622,5,0
151,191,7623,5,0
355,204,7624,5,0
157,180,7625,5,0
349,214,7626,5,0
163,170,7627,5,0
341,224,7628,5,0
171,160,7629,5,0
332,232,7630,5,0
180,152,7631,5,0
323,240,7632,5,0
189,144,7633,5,0
312,246,7634,5,0
200,138,7635,5,0
301,251,7636,5,0
211,133,7637,5,0
289,254,7638,5,0
223,130,7639,5,0
277,256,7640,5,0
235,128,7641,5,0
265,255,7642,5,0
247,129,7643,5,0
253,253,7644,5,0
259,131,7645,5,0
242,248,7646,5,0
270,136,7647,5,0
232,241,7648,5,0
280,143,7649,5,0
223,233,7650,5,0
289,151,7651,5,0
217,222,7652,5,0
295,162,7653,5,0
213,211,7654,5,0
299,173,7655,5,0
211,198,7656,5,0
301,186,7657,5,0
214,186,7658,5,0
298,198,7659,5,0
219,175,7660,5,0
293,209,7661,5,0
227,166,7662,5,0
285,218,7663,5,0
238,160,7664,5,0
274,224,7665,5,0
250,157,7666,5,0
262,227,7667,5,0
263,159,7668,5,0
249,225,7669,5,0
274,166,7670,5,0
238,218,7671,5,0
281,176,7672,5,0
231,208,7673,5,0
284,188,7674,5,0
228,196,7675,5,0
282,200,7676,5,0
230,184,7677,5,0
397,62,7678,5,0
115,322,7679,5,0
397,76,7680,5,0
115,308,7681,5,0
396,90,7682,5,0
116,294,7683,5,0
395,103,7684,5,0
117,281,7685,5,0
394,117,7686,5,0
118,267,7687,5,0
392,130,7688,5,0
120,254,7689,5,0
389,143,7690,5,0
123,241,7691,5,0
386,155,7692,5,0
126,229,7693,5,0
382,167,7694,5,0
130,217,7695,5,0
378,179,7696,5,0
134,205,7697,5,0
372,190,7698,5,0
140,194,7699,5,0
366,201,7700,5,0
146,183,7701,5,0
360,212,7702,5,0
152,172,7703,5,0
352,221,7704,5,0
160,163,7705,5,0
343,230,7706,5,0
169,154,7707,5,0
334,238,7708,5,0
178,146,7709,5,0
324,245,7710,5,0
188,139,7711,5,0
313,251,7712,5,0
199,133,7713,5,0
302,255,7714,5,0
210,129,7715,5,0
290,258,7716,5,0
222,126,7717,5,0
278,259,7718,5,0
234,125,7719,5,0
266,258,7720,5,0
246,126,7721,5,0
254,256,7722,5,0
258,128,7723,5,0
243,251,7724,5,0
269,133,7725,5,0
232,245,7726,5,0
280,139,7727,5,0
223,236,7728,5,0
289,148,7729,5,0
217,226,7730,5,0
295,158,7731,5,0
212,215,7732,5,0
300,169,7733,5,0
210,203,7734,5,0
302,181,7735,5,0
211,191,7736,5,0
301,193,7737,5,0
215,179,7738,5,0
297,205,7739,5,0
222,169,7740,5,0
290,215,7741,5,0
232,161,7742,5,0
280,223,7743,5,0
244,157,7744,5,0
268,227,7745,5,0
257,157,7746,5,0
255,227,7747,5,0
268,161,7748,5,0
244,223,7749,5,0
278,169,7750,5,0
234,215,7751,5,0
284,180,7752,5,0
228,204,7753,5,0
285,193,7754,5,0
227,191,7755,5,0
280,205,7756,5,0
232,179,7757,5,0
418,88,7758,5,0
94,296,7759,5,0
415,102,7760,5,0
97,282,7761,5,0
412,116,7762,5,0
100,268,7763,5,0
409,129,7764,5,0
103,255,7765,5,0
405,142,7766,5,0
107,242,7767,5,0
401,154,7768,5,0
111,230,7769,5,0
396,166,7770,5,0
116,218,7771,5,0
391,178,7772,5,0
121,206,7773,5,0
385,190,7774,5,0
127,194,7775,5,0
378,200,7776,5,0
134,184,7777,5,0
371,211,7778,5,0
141,173,7779,5,0
363,220,7780,5,0
149,164,7781,5,0
355,229,7782,5,0
157,155,7783,5,0
345,238,7784,5,0
167,146,7785,5,0
335,245,7786,5,0
177,139,7787,5,0
325,251,7788,5,0
187,133,7789,5,0
314,256,7790,5,0
198,128,7791,5,0
302,260,7792,5,0
210,124,7793,5,0
290,262,7794,5,0
222,122,7795,5,0
278,263,7796,5,0
234,121,7797,5,0
266,262,7798,5,0
246,122,7799,5,0
254,259,7800,5,0
258,125,7801,5,0
243,255,7802,5,0
269,129,7803,5,0
233,248,7804,5,0
279,136,7805,5,0
224,240,7806,5,0
288,144,7807,5,0
216,230,7808,5,0
296,154,7809,5,0
211,219,7810,5,0
301,165,7811,5,0
209,207,7812,5,0
303,177,7813,5,0
209,195,7814,5,0
303,189,7815,5,0
212,183,7816,5,0
300,201,7817,5,0
218,172,7818,5,0
294,212,7819,5,0
227,163,7820,5,0
285,221,7821,5,0
238,158,7822,5,0
274,226,7823,5,0
250,156,7824,5,0
262,228,7825,5,0
263,158,7826,5,0
249,226,7827,5,0
274,164,7828,5,0
238,220,7829,5,0
282,173,7830,5,0
230,211,7831,5,0
285,185,7832,5,0
227,199,7833,5,0
284,198,7834,5,0
228,186,7835,5,0
277,209,7836,5,0
235,175,7837,5,0
433,118,7838,5,0
79,266,7839,5,0
428,131,7840,5,0
84,253,7841,5,0
423,144,7842,5,0
89,240,7843,5,0
417,156,7844,5,0
95,228,7845,5,0
411,168,7846,5,0
101,216,7847,5,0
405,180,7848,5,0
107,204,7849,5,0
398,191,7850,5,0
114,193,7851,5,0
391,202,7852,5,0
121,182,7853,5,0
383,212,7854,5,0
129,172,7855,5,0
375,221,7856,5,0
137,163,7857,5,0
366,230,7858,5,0
146,154,7859,5,0
357,239,7860,5,0
155,145,7861,5,0
347,246,7862,5,0
165,138,7863,5,0
336,252,7864,5,0
176,132,7865,5,0
325,258,7866,5,0
187,126,7867,5,0
314,262,7868,5,0
198,122,7869,5,0
302,265,7870,5,0
210,119,7871,5,0
290,267,7872,5,0
222,117,7873,5,0
278,267,7874,5,0
234,117,7875,5,0
265,266,7876,5,0
247,118,7877,5,0
254,263,7878,5,0
258,121,7879,5,0
242,258,7880,5,0
270,126,7881,5,0
232,251,7882,5,0
280,133,7883,5,0
223,243,7884,5,0
289,141,7885,5,0
216,234,7886,5,0
296,150,7887,5,0
210,223,7888,5,0
302,161,7889,5,0
207,211,7890,5,0
305,173,7891,5,0
207,199,7892,5,0
305,185,7893,5,0
209,186,7894,5,0
303,198,7895,5,0
214,175,7896,5,0
298,209,7897,5,0
222,166,7898,5,0
290,218,7899,5,0
232,159,7900,5,0
280,225,7901,5,0
244,155,7902,5,0
268,229,7903,5,0
257,155,7904,5,0
255,229,7905,5,0
268,159,7906,5,0
244,225,7907,5,0
278,167,7908,5,0
234,217,7909,5,0
285,178,7910,5,0
227,206,7911,5,0
286,191,7912,5,0
226,193,7913,5,0
283,203,7914,5,0
229,181,7915,5,0
274,212,7916,5,0
238,172,7917,5,0
443,150,7918,5,0
69,234,7919,5,0
436,162,7920,5,0
76,222,7921,5,0
429,174,7922,5,0
83,210,7923,5,0
421,185,7924,5,0
91,199,7925,5,0
413,196,7926,5,0
99,188,7927,5,0
405,206,7928,5,0
107,178,7929,5,0
396,216,7930,5,0
116,168,7931,5,0
387,225,7932,5,0
125,159,7933,5,0
378,234,7934,5,0
134,150,7935,5,0
368,242,7936,5,0
144,142,7937,5,0
358,249,7938,5,0
154,135,7939,5,0
347,255,7940,5,0
165,129,7941,5,0
336,261,7942,5,0
176,123,7943,5,0
324,265,7944,5,0
188,119,7945,5,0
313,269,7946,5,0
199,115,7947,5,0
301,271,7948,5,0
211,113,7949,5,0
288,272,7950,5,0
224,112,7951,5,0
276,272,7952,5,0
236,112,7953,5,0
264,270,7954,5,0
248,114,7955,5,0
253,266,7956,5,0
259,118,7957,5,0
241,261,7958,5,0
271,123,7959,5,0
231,254,7960,5,0
281,130,7961,5,0
222,246,7962,5,0
290,138,7963,5,0
215,237,7964,5,0
297,147,7965,5,0
209,226,7966,5,0
303,158,7967,5,0
206,214,7968,5,0
306,170,7969,5,0
205,202,7970,5,0
307,182,7971,5,0
206,190,7972,5,0
306,194,7973,5,0
211,178,7974,5,0
301,206,7975,5,0
218,168,7976,5,0
294,216,7977,5,0
227,160,7978,5,0
285,224,7979,5,0
238,155,7980,5,0
274,229,7981,5,0
251,154,7982,5,0
261,230,7983,5,0
263,156,7984,5,0
249,228,7985,5,0
274,162,7986,5,0
238,222,7987,5,0
282,171,7988,5,0
230,213,7989,5,0
286,183,7990,5,0
226,201,7991,5,0
286,196,7992,5,0
226,188,7993,5,0
280,207,7994,5,0
232,177,7995,5,0
270,215,7996,5,0
242,169,7997,5,0
448,183,7998,5,0
64,201,7999,5,0
439,194,8000,5,0
73,190,8001,5,0
429,204,8002,5,0
83,180,8003,5,0
420,214,8004,5,0
92,170,8005,5,0
410,223,8006,5,0
102,161,8007,5,0
400,232,8008,5,0
112,152,8009,5,0
390,240,8010,5,0
122,144,8011,5,0
379,247,8012,5,0
133,137,8013,5,0
369,254,8014,5,0
143,130,8015,5,0
358,260,8016,5,0
154,124,8017,5,0
346,266,8018,5,0
166,118,8019,5,0
335,270,8020,5,0
177,114,8021,5,0
323,274,8022,5,0
189,110,8023,5,0
311,276,8024,5,0
201,108,8025,5,0
298,277,8026,5,0
214,107,8027,5,0
286,278,8028,5,0
226,106,8029,5,0
274,276,8030,5,0
238,108,8031,5,0
262,274,8032,5,0
250,110,8033,5,0
251,270,8034,5,0
261,114,8035,5,0
240,264,8036,5,0
272,120,8037,5,0
230,258,8038,5,0
282,126,8039,5,0
221,249,8040,5,0
291,135,8041,5,0
213,240,8042,5,0
299,144,8043,5,0
208,229,8044,5,0
304,155,8045,5,0
204,217,8046,5,0
308,167,8047,5,0
203,205,8048,5,0
309,179,8049,5,0
204,193,8050,5,0
308,191,8051,5,0
207,181,8052,5,0
305,203,8053,5,0
214,171,8054,5,0
298,213,8055,5,0
222,162,8056,5,0
290,222,8057,5,0
233,156,8058,5,0
279,228,8059,5,0
245,153,8060,5,0
267,231,8061,5,0
258,153,8062,5,0
254,231,8063,5,0
269,158,8064,5,0
243,226,8065,5,0
279,165,8066,5,0
233,219,8067,5,0
285,176,8068,5,0
227,208,8069,5,0
288,189,8070,5,0
224,195,8071,5,0
285,201,8072,5,0
227,183,8073,5,0
277,211,8074,5,0
235,173,8075,5,0
266,217,8076,5,0
246,167,8077,5,0
446,216,8078,5,0
66,168,8079,5,0
436,225,8080,5,0
76,159,8081,5,0
425,234,8082,5,0
87,150,8083,5,0
414,242,8084,5,0
98,142,8085,5,0
402,249,8086,5,0
110,135,8087,5,0
391,256,8088,5,0
121,128,8089,5,0
380,262,8090,5,0
132,122,8091,5,0
368,268,8092,5,0
144,116,8093,5,0
356,273,8094,5,0
156,111,8095,5,0
344,277,8096,5,0
168,107,8097,5,0
332,280,8098,5,0
180,104,8099,5,0
320,283,8100,5,0
192,101,8101,5,0
307,284,8102,5,0
205,100,8103,5,0
295,284,8104,5,0
217,100,8105,5,0
283,283,8106,5,0
229,101,8107,5,0
271,281,8108,5,0
241,103,8109,5,0
259,278,8110,5,0
253,106,8111,5,0
248,274,8112,5,0
264,110,8113,5,0
237,268,8114,5,0
275,116,8115,5,0
227,261,8116,5,0
285,123,8117,5,0
219,252,8118,5,0
293,132,8119,5,0
211,242,8120,5,0
301,142,8121,5,0
206,231,8122,5,0
306,153,8123,5,0
202,220,8124,5,0
310,164,8125,5,0
200,208,8126,5,0
312,176,8127,5,0
201,196,8128,5,0
311,188,8129,5,0
204,184,8130,5,0
308,200,8131,5,0
210,173,8132,5,0
302,211,8133,5,0
218,164,8134,5,0
294,220,8135,5,0
228,157,8136,5,0
284,227,8137,5,0
240,152,8138,5,0
272,232,8139,5,0
252,151,8140,5,0
260,233,8141,5,0
264,154,8142,5,0
248,230,8143,5,0
275,160,8144,5,0
237,224,8145,5,0
283,170,8146,5,0
229,214,8147,5,0
288,182,8148,5,0
224,202,8149,5,0
288,194,8150,5,0
224,190,8151,5,0
283,206,8152,5,0
229,178,8153,5,0
274,215,8154,5,0
238,169,8155,5,0
262,219,8156,5,0
250,165,8157,5,0
439,249,8158,5,0
73,135,8159,5,0
427,256,8160,5,0
85,128,8161,5,0
415,263,8162,5,0
97,121,8163,5,0
403,268,8164,5,0
109,116,8165,5,0
390,274,8166,5,0
122,110,8167,5,0
378,279,8168,5,0
134,105,8169,5,0
365,283,8170,5,0
147,101,8171,5,0
353,286,8172,5,0
159,98,8173,5,0
341,289,8174,5,0
171,95,8175,5,0
328,291,8176,5,0
184,93,8177,5,0
316,292,8178,5,0
196,92,8179,5,0
303,292,8180,5,0
209,92,8181,5,0
291,291,8182,5,0
221,93,8183,5,0
279,290,8184,5,0
233,94,8185,5,0
267,287,8186,5,0
245,97,8187,5,0
255,283,8188,5,0
257,101,8189,5,0
244,277,8190,5,0
268,107,8191,5,0
234,271,8192,5,0
278,113,8193,5,0
224,263,8194,5,0
288,121,8195,5,0
216,254,8196,5,0
296,130,8197,5,0
209,245,8198,5,0
303,139,8199,5,0
203,234,8200,5,0
309,150,8201,5,0
200,222,8202,5,0
312,162,8203,5,0
198,210,8204,5,0
314,174,8205,5,0
198,198,8206,5,0
314,186,8207,5,0
201,186,8208,5,0
311,198,8209,5,0
207,175,8210,5,0
305,209,8211,5,0
214,165,8212,5,0
298,219,8213,5,0
224,158,8214,5,0
288,226,8215,5,0
235,152,8216,5,0
277,232,8217,5,0
247,150,8218,5,0
265,234,8219,5,0
259,151,8220,5,0
253,233,8221,5,0
271,156,8222,5,0
241,228,8223,5,0
280,164,8224,5,0
232,220,8225,5,0
287,175,8226,5,0
225,209,8227,5,0
289,187,8228,5,0
223,197,8229,5,0
287,200,8230,5,0
225,184,8231,5,0
280,210,8232,5,0
232,174,8233,5,0
269,217,8234,5,0
243,167,8235,5,0
257,219,8236,5,0
255,165,8237,5,0
427,280,8238,5,0
85,104,8239,5,0
413,285,8240,5,0
99,99,8241,5,0
400,289,8242,5,0
112,95,8243,5,0
387,293,8244,5,0
125,91,8245,5,0
374,296,8246,5,0
138,88,8247,5,0
361,298,8248,5,0
151,86,8249,5,0
348,300,8250,5,0
164,84,8251,5,0
335,302,8252,5,0
177,82,8253,5,0
322,302,8254,5,0
190,82,8255,5,0
310,302,8256,5,0
202,82,8257,5,0
297,301,8258,5,0
215,83,8259,5,0
285,299,8260,5,0
227,85,8261,5,0
273,296,8262,5,0
239,88,8263,5,0
261,292,8264,5,0
251,92,8265,5,0
250,287,8266,5,0
262,97,8267,5,0
239,281,8268,5,0
273,103,8269,5,0
229,274,8270,5,0
283,110,8271,5,0
220,266,8272,5,0
292,118,8273,5,0
212,257,8274,5,0
300,127,8275,5,0
206,247,8276,5,0
306,137,8277,5,0
200,236,8278,5,0
312,148,8279,5,0
197,224,8280,5,0
315,160,8281,5,0
195,212,8282,5,0
317,172,8283,5,0
196,200,8284,5,0
316,184,8285,5,0
198,188,8286,5,0
314,196,8287,5,0
203,177,8288,5,0
309,207,8289,5,0
210,167,8290,5,0
302,217,8291,5,0
219,158,8292,5,0
293,226,8293,5,0
230,152,8294,5,0
282,232,8295,5,0
242,149,8296,5,0
270,235,8297,5,0
254,149,8298,5,0
258,235,8299,5,0
266,153,8300,5,0
246,231,8301,5,0
277,159,8302,5,0
235,225,8303,5,0
285,169,8304,5,0
227,215,8305,5,0
289,181,8306,5,0
223,203,8307,5,0
289,193,8308,5,0
223,191,8309,5,0
285,205,8310,5,0
227,179,8311,5,0
276,214,8312,5,0
236,170,8313,5,0
265,219,8314,5,0
247,165,8315,5,0
252,219,8316,5,0
260,165,8317,5,0
409,308,8318,5,0
103,76,8319,5,0
395,311,8320,5,0
117,73,8321,5,0
381,313,8322,5,0
131,71,8323,5,0
368,314,8324,5,0
144,70,8325,5,0
354,315,8326,5,0
158,69,8327,5,0
341,315,8328,5,0
171,69,8329,5,0
328,315,8330,5,0
184,69,8331,5,0
315,314,8332,5,0
197,70,8333,5,0
302,312,8334,5,0
210,72,8335,5,0
290,310,8336,5,0
222,74,8337,5,0
278,306,8338,5,0
234,78,8339,5,0
266,302,8340,5,0
246,82,8341,5,0
255,297,8342,5,0
257,87,8343,5,0
244,291,8344,5,0
268,93,8345,5,0
234,285,8346,5,0
278,99,8347,5,0
224,277,8348,5,0
288,107,8349,5,0
216,268,8350,5,0
296,116,8351,5,0
208,259,8352,5,0
304,125,8353,5,0
202,248,8354,5,0
310,136,8355,5,0
197,237,8356,5,0
315,147,8357,5,0
194,225,8358,5,0
318,159,8359,5,0
192,213,8360,5,0
320,171,8361,5,0
193,201,8362,5,0
319,183,8363,5,0
195,189,8364,5,0
317,195,8365,5,0
200,178,8366,5,0
312,206,8367,5,0
207,168,8368,5,0
305,216,8369,5,0
215,159,8370,5,0
297,225,8371,5,0
226,153,8372,5,0
286,231,8373,5,0
237,149,8374,5,0
275,235,8375,5,0
250,147,8376,5,0
262,237,8377,5,0
262,150,8378,5,0
250,234,8379,5,0
273,155,8380,5,0
239,229,8381,5,0
282,163,8382,5,0
230,221,8383,5,0
288,174,8384,5,0
224,210,8385,5,0
291,186,8386,5,0
221,198,8387,5,0
289,199,8388,5,0
223,185,8389,5,0
282,210,8390,5,0
230,174,8391,5,0
272,217,8392,5,0
240,167,8393,5,0
260,220,8394,5,0
252,164,8395,5,0
248,218,8396,5,0
264,166,8397,5,0
386,333,8398,5,0
126,51,8399,5,0
372,333,8400,5,0
140,51,8401,5,0
358,332,8402,5,0
154,52,8403,5,0
345,331,8404,5,0
167,53,8405,5,0
331,330,8406,5,0
181,54,8407,5,0
318,328,8408,5,0
194,56,8409,5,0
305,325,8410,5,0
207,59,8411,5,0
293,322,8412,5,0
219,62,8413,5,0
281,318,8414,5,0
231,66,8415,5,0
269,314,8416,5,0
243,70,8417,5,0
258,308,8418,5,0
254,76,8419,5,0
247,302,8420,5,0
265,82,8421,5,0
236,296,8422,5,0
276,88,8423,5,0
227,288,8424,5,0
285,96,8425,5,0
218,279,8426,5,0
294,105,8427,5,0
210,270,8428,5,0
302,114,8429,5,0
203,260,8430,5,0
309,124,8431,5,0
197,249,8432,5,0
315,135,8433,5,0
193,238,8434,5,0
319,146,8435,5,0
190,226,8436,5,0
322,158,8437,5,0
189,214,8438,5,0
323,170,8439,5,0
190,202,8440,5,0
322,182,8441,5,0
192,190,8442,5,0
320,194,8443,5,0
197,179,8444,5,0
315,205,8445,5,0
203,168,8446,5,0
309,216,8447,5,0
212,159,8448,5,0
300,225,8449,5,0
222,153,8450,5,0
290,231,8451,5,0
233,148,8452,5,0
279,236,8453,5,0
245,146,8454,5,0
267,238,8455,5,0
257,147,8456,5,0
255,237,8457,5,0
269,151,8458,5,0
243,233,8459,5,0
279,158,8460,5,0
233,226,8461,5,0
287,168,8462,5,0
225,216,8463,5,0
291,180,8464,5,0
221,204,8465,5,0
291,193,8466,5,0
221,191,8467,5,0
287,204,8468,5,0
225,180,8469,5,0
279,214,8470,5,0
233,170,8471,5,0
268,220,8472,5,0
244,164,8473,5,0
255,221,8474,5,0
257,163,8475,5,0
243,216,8476,5,0
269,168,8477,5,0
360,354,8478,5,0
152,30,8479,5,0
346,351,8480,5,0
166,33,8481,5,0
332,348,8482,5,0
180,36,8483,5,0
319,345,8484,5,0
193,39,8485,5,0
306,341,8486,5,0
206,43,8487,5,0
294,337,8488,5,0
218,47,8489,5,0
282,332,8490,5,0
230,52,8491,5,0
270,327,8492,5,0
242,57,8493,5,0
258,321,8494,5,0
254,63,8495,5,0
248,314,8496,5,0
264,70,8497,5,0
237,307,8498,5,0
275,77,8499,5,0
228,299,8500,5,0
284,85,8501,5,0
219,291,8502,5,0
293,93,8503,5,0
210,281,8504,5,0
302,103,8505,5,0
203,271,8506,5,0
309,113,8507,5,0
197,261,8508,5,0
315,123,8509,5,0
192,250,8510,5,0
320,134,8511,5,0
188,238,8512,5,0
324,146,8513,5,0
186,226,8514,5,0
326,158,8515,5,0
185,214,8516,5,0
327,170,8517,5,0
186,202,8518,5,0
326,182,8519,5,0
189,190,8520,5,0
323,194,8521,5,0
193,179,8522,5,0
319,205,8523,5,0
200,169,8524,5,0
312,215,8525,5,0
208,160,8526,5,0
304,224,8527,5,0
218,152,8528,5,0
294,232,8529,5,0
229,147,8530,5,0
283,237,8531,5,0
241,145,8532,5,0
271,239,8533,5,0
253,145,8534,5,0
259,239,8535,5,0
265,148,8536,5,0
247,236,8537,5,0
276,154,8538,5,0
236,230,8539,5,0
285,163,8540,5,0
227,221,8541,5,0
290,174,8542,5,0
222,210,8543,5,0
292,186,8544,5,0
220,198,8545,5,0
290,199,8546,5,0
222,185,8547,5,0
284,210,8548,5,0
228,174,8549,5,0
275,218,8550,5,0
237,166,8551,5,0
263,221,8552,5,0
249,163,8553,5,0
250,220,8554,5,0
262,164,8555,5,0
239,213,8556,5,0
273,171,8557,5,0
330,369,8558,5,0
182,15,8559,5,0
317,364,8560,5,0
195,20,8561,5,0
304,359,8562,5,0
208,25,8563,5,0
292,353,8564,5,0
220,31,8565,5,0
280,347,8566,5,0
232,37,8567,5,0
268,341,8568,5,0
244,43,8569,5,0
257,334,8570,5,0
255,50,8571,5,0
246,327,8572,5,0
266,57,8573,5,0
236,319,8574,5,0
276,65,8575,5,0
227,311,8576,5,0
285,73,8577,5,0
218,302,8578,5,0
294,82,8579,5,0
209,293,8580,5,0
303,91,8581,5,0
202,283,8582,5,0
310,101,8583,5,0
196,272,8584,5,0
316,112,8585,5,0
190,261,8586,5,0
322,123,8587,5,0
186,250,8588,5,0
326,134,8589,5,0
183,238,8590,5,0
329,146,8591,5,0
181,226,8592,5,0
331,158,8593,5,0
181,214,8594,5,0
331,170,8595,5,0
182,201,8596,5,0
330,183,8597,5,0
185,190,8598,5,0
327,194,8599,5,0
190,178,8600,5,0
322,206,8601,5,0
197,168,8602,5,0
315,216,8603,5,0
205,159,8604,5,0
307,225,8605,5,0
214,152,8606,5,0
298,232,8607,5,0
225,146,8608,5,0
287,238,8609,5,0
237,143,8610,5,0
275,241,8611,5,0
249,143,8612,5,0
263,241,8613,5,0
262,145,8614,5,0
250,239,8615,5,0
273,150,8616,5,0
239,234,8617,5,0
282,158,8618,5,0
230,226,8619,5,0
289,168,8620,5,0
223,216,8621,5,0
293,180,8622,5,0
219,204,8623,5,0
293,193,8624,5,0
219,191,8625,5,0
289,204,8626,5,0
223,180,8627,5,0
281,214,8628,5,0
231,170,8629,5,0
270,221,8630,5,0
242,163,8631,5,0
257,222,8632,5,0
255,162,8633,5,0
245,219,8634,5,0
267,165,8635,5,0
236,210,8636,5,0
276,174,8637,5,0
298,379,8638,5,0
214,5,8639,5,0
286,372,8640,5,0
226,12,8641,5,0
274,365,8642,5,0
238,19,8643,5,0
263,357,8644,5,0
249,27,8645,5,0
252,349,8646,5,0
260,35,8647,5,0
242,341,8648,5,0
270,43,8649,5,0
232,332,8650,5,0
280,52,8651,5,0
223,323,8652,5,0
289,61,8653,5,0
214,314,8654,5,0
298,70,8655,5,0
206,304,8656,5,0
306,80,8657,5,0
199,294,8658,5,0
313,90,8659,5,0
193,283,8660,5,0
319,101,8661,5,0
187,272,8662,5,0
325,112,8663,5,0
183,260,8664,5,0
329,124,8665,5,0
179,249,8666,5,0
333,135,8667,5,0
177,237,8668,5,0
335,147,8669,5,0
176,224,8670,5,0
336,160,8671,5,0
176,212,8672,5,0
336,172,8673,5,0
178,200,8674,5,0
334,184,8675,5,0
182,189,8676,5,0
330,195,8677,5,0
187,177,8678,5,0
325,207,8679,5,0
194,167,8680,5,0
318,217,8681,5,0
202,158,8682,5,0
310,226,8683,5,0
211,151,8684,5,0
301,233,8685,5,0
222,145,8686,5,0
290,239,8687,5,0
234,142,8688,5,0
278,242,8689,5,0
246,141,8690,5,0
266,243,8691,5,0
258,142,8692,5,0
254,242,8693,5,0
270,147,8694,5,0
242,237,8695,5,0
280,154,8696,5,0
232,230,8697,5,0
288,163,8698,5,0
224,221,8699,5,0
293,174,8700,5,0
219,210,8701,5,0
294,187,8702,5,0
218,197,8703,5,0
292,199,8704,5,0
220,185,8705,5,0
286,210,8706,5,0
226,174,8707,5,0
277,218,8708,5,0
235,166,8709,5,0
265,222,8710,5,0
247,162,8711,5,0
252,222,8712,5,0
260,162,8713,5,0
241,216,8714,5,0
271,168,8715,5,0
233,206,8716,5,0
279,178,8717,5,0
265,384,8718,5,0
247,0,8719,5,0
254,375,8720,5,0
258,9,8721,5,0
244,365,8722,5,0
268,19,8723,5,0
234,356,8724,5,0
278,28,8725,5,0
225,346,8726,5,0
287,38,8727,5,0
216,336,8728,5,0
296,48,8729,5,0
208,326,8730,5,0
304,58,8731,5,0
201,315,8732,5,0
311,69,8733,5,0
194,305,8734,5,0
318,79,8735,5,0
188,294,8736,5,0
324,90,8737,5,0
182,282,8738,5,0
330,102,8739,5,0
178,271,8740,5,0
334,113,8741,5,0
174,259,8742,5,0
338,125,8743,5,0
172,247,8744,5,0
340,137,8745,5,0
171,234,8746,5,0
341,150,8747,5,0
170,222,8748,5,0
342,162,8749,5,0
172,210,8750,5,0
340,174,8751,5,0
174,198,8752,5,0
338,186,8753,5,0
178,187,8754,5,0
334,197,8755,5,0
184,176,8756,5,0
328,208,8757,5,0
190,166,8758,5,0
322,218,8759,5,0
199,157,8760,5,0
313,227,8761,5,0
208,149,8762,5,0
304,235,8763,5,0
219,144,8764,5,0
293,240,8765,5,0
231,140,8766,5,0
281,244,8767,5,0
243,139,8768,5,0
269,245,8769,5,0
255,140,8770,5,0
257,244,8771,5,0
267,143,8772,5,0
245,241,8773,5,0
277,150,8774,5,0
235,234,8775,5,0
286,158,8776,5,0
226,226,8777,5,0
292,169,8778,5,0
220,215,8779,5,0
295,181,8780,5,0
217,203,8781,5,0
295,194,8782,5,0
217,190,8783,5,0
290,205,8784,5,0
222,179,8785,5,0
283,215,8786,5,0
229,169,8787,5,0
272,221,8788,5,0
240,163,8789,5,0
259,224,8790,5,0
253,160,8791,5,0
247,221,8792,5,0
265,163,8793,5,0
237,213,8794,5,0
275,171,8795,5,0
231,202,8796,5,0
281,182,8797,5,0
232,382,8798,5,0
280,2,8799,5,0
223,372,8800,5,0
289,12,8801,5,0
214,361,8802,5,0
298,23,8803,5,0
206,350,8804,5,0
306,34,8805,5,0
199,338,8806,5,0
313,46,8807,5,0
192,327,8808,5,0
320,57,8809,5,0
186,316,8810,5,0
326,68,8811,5,0
180,304,8812,5,0
332,80,8813,5,0
175,292,8814,5,0
337,92,8815,5,0
171,280,8816,5,0
341,104,8817,5,0
168,268,8818,5,0
344,116,8819,5,0
165,256,8820,5,0
347,128,8821,5,0
164,243,8822,5,0
348,141,8823,5,0
164,231,8824,5,0
348,153,8825,5,0
165,219,8826,5,0
347,165,8827,5,0
167,207,8828,5,0
345,177,8829,5,0
170,195,8830,5,0
342,189,8831,5,0
174,184,8832,5,0
338,200,8833,5,0
180,173,8834,5,0
332,211,8835,5,0
187,163,8836,5,0
325,221,8837,5,0
196,155,8838,5,0
316,229,8839,5,0
206,147,8840,5,0
306,237,8841,5,0
217,142,8842,5,0
295,242,8843,5,0
228,138,8844,5,0
284,246,8845,5,0
240,136,8846,5,0
272,248,8847,5,0
252,137,8848,5,0
260,247,8849,5,0
264,140,8850,5,0
248,244,8851,5,0
275,146,8852,5,0
237,238,8853,5,0
284,154,8854,5,0
228,230,8855,5,0
291,164,8856,5,0
221,220,8857,5,0
296,176,8858,5,0
216,208,8859,5,0
297,188,8860,5,0
215,196,8861,5,0
294,200,8862,5,0
218,184,8863,5,0
288,211,8864,5,0
224,173,8865,5,0
278,219,8866,5,0
234,165,8867,5,0
266,224,8868,5,0
246,160,8869,5,0
254,224,8870,5,0
258,160,8871,5,0
242,219,8872,5,0
270,165,8873,5,0
233,210,8874,5,0
279,174,8875,5,0
229,198,8876,5,0
283,186,8877,5,0
199,375,8878,5,0
313,9,8879,5,0
192,363,8880,5,0
320,21,8881,5,0
185,351,8882,5,0
327,33,8883,5,0
180,339,8884,5,0
332,45,8885,5,0
174,326,8886,5,0
338,58,8887,5,0
169,314,8888,5,0
343,70,8889,5,0
165,301,8890,5,0
347,83,8891,5,0
162,289,8892,5,0
350,95,8893,5,0
159,277,8894,5,0
353,107,8895,5,0
157,264,8896,5,0
355,120,8897,5,0
156,252,8898,5,0
356,132,8899,5,0
156,239,8900,5,0
356,145,8901,5,0
157,227,8902,5,0
355,157,8903,5,0
158,215,8904,5,0
354,169,8905,5,0
161,203,8906,5,0
351,181,8907,5,0
165,191,8908,5,0
347,193,8909,5,0
171,180,8910,5,0
341,204,8911,5,0
177,170,8912,5,0
335,214,8913,5,0
185,160,8914,5,0
327,224,8915,5,0
194,152,8916,5,0
318,232,8917,5,0
203,145,8918,5,0
309,239,8919,5,0
214,139,8920,5,0
298,245,8921,5,0
226,136,8922,5,0
286,248,8923,5,0
238,134,8924,5,0
274,250,8925,5,0
250,134,8926,5,0
262,250,8927,5,0
262,137,8928,5,0
250,247,8929,5,0
273,143,8930,5,0
239,241,8931,5,0
283,150,8932,5,0
229,234,8933,5,0
290,160,8934,5,0
222,224,8935,5,0
296,171,8936,5,0
216,213,8937,5,0
298,183,8938,5,0
214,201,8939,5,0
297,195,8940,5,0
215,189,8941,5,0
292,207,8942,5,0
220,177,8943,5,0
284,216,8944,5,0
228,168,8945,5,0
273,223,8946,5,0
239,161,8947,5,0
261,225,8948,5,0
251,159,8949,5,0
248,223,8950,5,0
264,161,8951,5,0
238,216,8952,5,0
274,168,8953,5,0
231,205,8954,5,0
281,179,8955,5,0
229,193,8956,5,0
283,191,8957,5,0
168,363,8958,5,0
344,21,8959,5,0
163,349,8960,5,0
349,35,8961,5,0
159,336,8962,5,0
353,48,8963,5,0
155,323,8964,5,0
357,61,8965,5,0
152,310,8966,5,0
360,74,8967,5,0
150,297,8968,5,0
362,87,8969,5,0
148,284,8970,5,0
364,100,8971,5,0
146,271,8972,5,0
366,113,8973,5,0
146,258,8974,5,0
366,126,8975,5,0
146,246,8976,5,0
366,138,8977,5,0
147,233,8978,5,0
365,151,8979,5,0
149,221,8980,5,0
363,163,8981,5,0
152,209,8982,5,0
360,175,8983,5,0
156,197,8984,5,0
356,187,8985,5,0
161,186,8986,5,0
351,198,8987,5,0
167,175,8988,5,0
345,209,8989,5,0
174,165,8990,5,0
338,219,8991,5,0
182,156,8992,5,0
330,228,8993,5,0
191,148,8994,5,0
321,236,8995,5,0
201,142,8996,5,0
311,242,8997,5,0
212,136,8998,5,0
300,248,8999,5,0
224,133,9000,5,0
288,251,9001,5,0
236,131,9002,5,0
276,253,9003,5,0
248,132,9004,5,0
264,252,9005,5,0
260,134,9006,5,0
252,250,9007,5,0
271,139,9008,5,0
241,245,9009,5,0
281,146,9010,5,0
231,238,9011,5,0
290,155,9012,5,0
222,229,9013,5,0
296,166,9014,5,0
216,218,9015,5,0
299,178,9016,5,0
213,206,9017,5,0
299,190,9018,5,0
213,194,9019,5,0
295,202,9020,5,0
217,182,9021,5,0
289,213,9022,5,0
223,171,9023,5,0
279,221,9024,5,0
233,163,9025,5,0
267,225,9026,5,0
245,159,9027,5,0
255,225,9028,5,0
257,159,9029,5,0
243,221,9030,5,0
269,163,9031,5,0
234,212,9032,5,0
278,172,9033,5,0
229,201,9034,5,0
283,183,9035,5,0
229,188,9036,5,0
283,196,9037,5,0
140,345,9038,5,0
372,39,9039,5,0
137,331,9040,5,0
375,53,9041,5,0
135,317,9042,5,0
377,67,9043,5,0
134,304,9044,5,0
378,80,9045,5,0
133,290,9046,5,0
379,94,9047,5,0
133,277,9048,5,0
379,107,9049,5,0
133,264,9050,5,0
379,120,9051,5,0
134,251,9052,5,0
378,133,9053,5,0
136,238,9054,5,0
376,146,9055,5,0
138,226,9056,5,0
374,158,9057,5,0
142,214,9058,5,0
370,170,9059,5,0
146,202,9060,5,0
366,182,9061,5,0
151,191,9062,5,0
361,193,9063,5,0
157,180,9064,5,0
355,204,9065,5,0
163,170,9066,5,0
349,214,9067,5,0
171,160,9068,5,0
341,224,9069,5,0
180,152,9070,5,0
332,232,9071,5,0
189,144,9072,5,0
323,240,9073,5,0
200,138,9074,5,0
312,246,9075,5,0
211,133,9076,5,0
301,251,9077,5,0
223,130,9078,5,0
289,254,9079,5,0
235,128,9080,5,0
277,256,9081,5,0
247,129,9082,5,0
265,255,9083,5,0
259,131,9084,5,0
253,253,9085,5,0
270,136,9086,5,0
242,248,9087,5,0
280,143,9088,5,0
232,241,9089,5,0
289,151,9090,5,0
223,233,9091,5,0
295,162,9092,5,0
217,222,9093,5,0
299,173,9094,5,0
213,211,9095,5,0
301,186,9096,5,0
211,198,9097,5,0
298,198,9098,5,0
214,186,9099,5,0
293,209,9100,5,0
219,175,9101,5,0
285,218,9102,5,0
227,166,9103,5,0
274,224,9104,5,0
238,160,9105,5,0
262,227,9106,5,0
250,157,9107,5,0
249,225,9108,5,0
263,159,9109,5,0
238,218,9110,5,0
274,166,9111,5,0
231,208,9112,5,0
281,176,9113,5,0
228,196,9114,5,0
284,188,9115,5,0
230,184,9116,5,0
282,200,9117,5,0
115,322,9118,5,0
397,62,9119,5,0
115,308,9120,5,0
397,76,9121,5,0
116,294,9122,5,0
396,90,9123,5,0
117,281,9124,5,0
395,103,9125,5,0
118,267,9126,5,0
394,117,9127,5,0
120,254,9128,5,0
392,130,9129,5,0
123,241,9130,5,0
389,143,9131,5,0
126,229,9132,5,0
386,155,9133,5,0
130,217,9134,5,0
382,167,9135,5,0
134,205,9136,5,0
378,179,9137,5,0
140,194,9138,5,0
372,190,9139,5,0
146,183,9140,5,0
366,201,9141,5,0
152,172,9142,5,0
360,212,9143,5,0
160,163,9144,5,0
352,221,9145,5,0
169,154,9146,5,0
343,230,9147,5,0
178,146,9148,5,0
334,238,9149,5,0
188,139,9150,5,0
324,245,9151,5,0
199,133,9152,5,0
313,251,9153,5,0
210,129,9154,5,0
302,255,9155,5,0
222,126,9156,5,0
290,258,9157,5,0
234,125,9158,5,0
278,259,9159,5,0
246,126,9160,5,0
266,258,9161,5,0
258,128,9162,5,0
254,256,9163,5,0
269,133,9164,5,0
243,251,9165,5,0
280,139,9166,5,0
232,245,9167,5,0
289,148,9168,5,0
223,236,9169,5,0
295,158,9170,5,0
217,226,9171,5,0
300,169,9172,5,0
212,215,9173,5,0
302,181,9174,5,0
210,203,9175,5,0
301,193,9176,5,0
211,191,9177,5,0
297,205,9178,5,0
215,179,9179,5,0
290,215,9180,5,0
222,169,9181,5,0
280,223,9182,5,0
232,161,9183,5,0
268,227,9184,5,0
244,157,9185,5,0
255,227,9186,5,0
257,157,9187,5,0
244,223,9188,5,0
268,161,9189,5,0
234,215,9190,5,0
278,169,9191,5,0
228,204,9192,5,0
284,180,9193,5,0
227,191,9194,5,0
285,193,9195,5,0
232,179,9196,5,0
280,205,9197,5,0
94,296,9198,5,0
418,88,9199,5,0
97,282,9200,5,0
415,102,9201,5,0
100,268,9202,5,0
412,116,9203,5,0
103,255,9204,5,0
409,129,9205,5,0
107,242,9206,5,0
405,142,9207,5,0
111,230,9208,5,0
401,154,9209,5,0
116,218,9210,5,0
396,166,9211,5,0
121,206,9212,5,0
391,178,9213,5,0
127,194,9214,5,0
385,190,9215,5,0
134,184,9216,5,0
378,200,9217,5,0
141,173,9218,5,0
371,211,9219,5,0
149,164,9220,5,0
363,220,9221,5,0
157,155,9222,5,0
355,229,9223,5,0
167,146,9224,5,0
345,238,9225,5,0
177,139,9226,5,0
335,245,9227,5,0
187,133,9228,5,0
325,251,9229,5,0
198,128,9230,5,0
314,256,9231,5,0
210,124,9232,5,0
302,260,9233,5,0
222,122,9234,5,0
290,262,9235,5,0
234,121,9236,5,0
278,263,9237,5,0
246,122,9238,5,0
266,262,9239,5,0
258,125,9240,5,0
254,259,9241,5,0
269,129,9242,5,0
243,255,9243,5,0
279,136,9244,5,0
233,248,9245,5,0
288,144,9246,5,0
224,240,9247,5,0
296,154,9248,5,0
216,230,9249,5,0
301,165,9250,5,0
211,219,9251,5,0
303,177,9252,5,0
209,207,9253,5,0
303,189,9254,5,0
209,195,9255,5,0
300,201,9256,5,0
212,183,9257,5,0
294,212,9258,5,0
218,172,9259,5,0
285,221,9260,5,0
227,163,9261,5,0
274,226,9262,5,0
238,158,9263,5,0
262,228,9264,5,0
250,156,9265,5,0
249,226,9266,5,0
263,158,9267,5,0
238,220,9268,5,0
274,164,9269,5,0
230,211,9270,5,0
282,173,9271,5,0
227,199,9272,5,0
285,185,9273,5,0
228,186,9274,5,0
284,198,9275,5,0
235,175,9276,5,0
277,209,9277,5,0
79,266,9278,5,0
433,118,9279,5,0
84,253,9280,5,0
428,131,9281,5,0
89,240,9282,5,0
423,144,9283,5,0
95,228,9284,5,0
417,156,9285,5,0
101,216,9286,5,0
411,168,9287,5,0
107,204,9288,5,0
405,180,9289,5,0
114,193,9290,5,0
398,191,9291,5,0
121,182,9292,5,0
391,202,9293,5,0
129,172,9294,5,0
383,212,9295,5,0
137,163,9296,5,0
375,221,9297,5,0
146,154,9298,5,0
366,230,9299,5,0
155,145,9300,5,0
357,239,9301,5,0
165,138,9302,5,0
347,246,9303,5,0
176,132,9304,5,0
336,252,9305,5,0
187,126,9306,5,0
325,258,9307,5,0
198,122,9308,5,0
314,262,9309,5,0
210,119,9310,5,0
302,265,9311,5,0
222,117,9312,5,0
290,267,9313,5,0
234,117,9314,5,0
278,267,9315,5,0
247,118,9316,5,0
265,266,9317,5,0
258,121,9318,5,0
254,263,9319,5,0
270,126,9320,5,0
242,258,9321,5,0
280,133,9322,5,0
232,251,9323,5,0
289,141,9324,5,0
223,243,9325,5,0
296,150,9326,5,0
216,234,9327,5,0
302,161,9328,5,0
210,223,9329,5,0
305,173,9330,5,0
207,211,9331,5,0
305,185,9332,5,0
207,199,9333,5,0
303,198,9334,5,0
209,186,9335,5,0
298,209,9336,5,0
214,175,9337,5,0
290,218,9338,5,0
222,166,9339,5,0
280,225,9340,5,0
232,159,9341,5,0
268,229,9342,5,0
244,155,9343,5,0
255,229,9344,5,0
257,155,9345,5,0
244,225,9346,5,0
268,159,9347,5,0
234,217,9348,5,0
278,167,9349,5,0
227,206,9350,5,0
285,178,9351,5,0
226,193,9352,5,0
286,191,9353,5,0
229,181,9354,5,0
283,203,9355,5,0
238,172,9356,5,0
274,212,9357,5,0
69,234,9358,5,0
443,150,9359,5,0
76,222,9360,5,0
436,162,9361,5,0
83,210,9362,5,0
429,174,9363,5,0
91,199,9364,5,0
421,185,9365,5,0
99,188,9366,5,0
413,196,9367,5,0
107,178,9368,5,0
405,206,9369,5,0
116,168,9370,5,0
396,216,9371,5,0
125,159,9372,5,0
387,225,9373,5,0
134,150,9374,5,0
378,234,9375,5,0
144,142,9376,5,0
368,242,9377,5,0
154,135,9378,5,0
358,249,9379,5,0
165,129,9380,5,0
347,255,9381,5,0
176,123,9382,5,0
336,261,9383,5,0
188,119,9384,5,0
324,265,9385,5,0
199,115,9386,5,0
313,269,9387,5,0
211,113,9388,5,0
301,271,9389,5,0
224,112,9390,5,0
288,272,9391,5,0
236,112,9392,5,0
276,272,9393,5,0
248,114,9394,5,0
264,270,9395,5,0
259,118,9396,5,0
253,266,9397,5,0
271,123,9398,5,0
241,261,9399,5,0
281,130,9400,5,0
231,254,9401,5,0
290,138,9402,5,0
222,246,9403,5,0
297,147,9404,5,0
215,237,9405,5,0
303,158,9406,5,0
209,226,9407,5,0
306,170,9408,5,0
206,214,9409,5,0
307,182,9410,5,0
205,202,9411,5,0
306,194,9412,5,0
206,190,9413,5,0
301,206,9414,5,0
211,178,9415,5,0
294,216,9416,5,0
218,168,9417,5,0
285,224,9418,5,0
227,160,9419,5,0
274,229,9420,5,0
238,155,9421,5,0
261,230,9422,5,0
251,154,9423,5,0
249,228,9424,5,0
263,156,9425,5,0
238,222,9426,5,0
274,162,9427,5,0
230,213,9428,5,0
282,171,9429,5,0
226,201,9430,5,0
286,183,9431,5,0
226,188,9432,5,0
286,196,9433,5,0
232,177,9434,5,0
280,207,9435,5,0
242,169,9436,5,0
270,215,9437,5,0
64,201,9438,5,0
448,183,9439,5,0
73,190,9440,5,0
439,194,9441,5,0
83,180,9442,5,0
429,204,9443,5,0
92,170,9444,5,0
420,214,9445,5,0
102,161,9446,5,0
410,223,9447,5,0
112,152,9448,5,0
400,232,9449,5,0
122,144,9450,5,0
390,240,9451,5,0
133,137,9452,5,0
379,247,9453,5,0
143,130,9454,5,0
369,254,9455,5,0
154,124,9456,5,0
358,260,9457,5,0
166,118,9458,5,0
346,266,9459,5,0
177,114,9460,5,0
335,270,9461,5,0
189,110,9462,5,0
323,274,9463,5,0
201,108,9464,5,0
311,276,9465,5,0
214,107,9466,5,0
298,277,9467,5,0
226,106,9468,5,0
286,278,9469,5,0
238,108,9470,5,0
274,276,9471,5,0
250,110,9472,5,0
262,274,9473,5,0
261,114,9474,5,0
251,270,9475,5,0
272,120,9476,5,0
240,264,9477,5,0
282,126,9478,5,0
230,258,9479,5,0
291,135,9480,5,0
221,249,9481,5,0
299,144,9482,5,0
213,240,9483,5,0
304,155,9484,5,0
208,229,9485,5,0
308,167,9486,5,0
204,217,9487,5,0
309,179,9488,5,0
203,205,9489,5,0
308,191,9490,5,0
204,193,9491,5,0
305,203,9492,5,0
207,181,9493,5,0
298,213,9494,5,0
214,171,9495,5,0
290,222,9496,5,0
222,162,9497,5,0
279,228,9498,5,0
233,156,9499,5,0
267,231,9500,5,0
245,153,9501,5,0
254,231,9502,5,0
258,153,9503,5,0
243,226,9504,5,0
269,158,9505,5,0
233,219,9506,5,0
279,165,9507,5,0
227,208,9508,5,0
285,176,9509,5,0
224,195,9510,5,0
288,189,9511,5,0
227,183,9512,5,0
285,201,9513,5,0
235,173,9514,5,0
277,211,9515,5,0
246,167,9516,5,0
266,217,9517,5,0
66,168,9518,5,0
446,216,9519,5,0
76,159,9520,5,0
436,225,9521,5,0
87,150,9522,5,0
425,234,9523,5,0
98,142,9524,5,0
414,242,9525,5,0
110,135,9526,5,0
402,249,9527,5,0
121,128,9528,5,0
391,256,9529,5,0
132,122,9530,5,0
380,262,9531,5,0
144,116,9532,5,0
368,268,9533,5,0
156,111,9534,5,0
356,273,9535,5,0
168,107,9536,5,0
344,277,9537,5,0
180,104,9538,5,0
332,280,9539,5,0
192,101,9540,5,0
320,283,9541,5,0
205,100,9542,5,0
307,284,9543,5,0
217,100,9544,5,0
295,284,9545,5,0
229,101,9546,5,0
283,283,9547,5,0
241,103,9548,5,0
271,281,9549,5,0
253,106,9550,5,0
259,278,9551,5,0
264,110,9552,5,0
248,274,9553,5,0
275,116,9554,5,0
237,268,9555,5,0
285,123,9556,5,0
227,261,9557,5,0
293,132,9558,5,0
219,252,9559,5,0
301,142,9560,5,0
211,242,9561,5,0
306,153,9562,5,0
206,231,9563,5,0
310,164,9564,5,0
202,220,9565,5,0
312,176,9566,5,0
200,208,9567,5,0
311,188,9568,5,0
201,196,9569,5,0
308,200,9570,5,0
204,184,9571,5,0
302,211,9572,5,0
210,173,9573,5,0
294,220,9574,5,0
218,164,9575,5,0
284,227,9576,5,0
228,157,9577,5,0
272,232,9578,5,0
240,152,9579,5,0
260,233,9580,5,0
252,151,9581,5,0
248,230,9582,5,0
264,154,9583,5,0
237,224,9584,5,0
275,160,9585,5,0
229,214,9586,5,0
283,170,9587,5,0
224,202,9588,5,0
288,182,9589,5,0
224,190,9590,5,0
288,194,9591,5,0
229,178,9592,5,0
283,206,9593,5,0
238,169,9594,5,0
274,215,9595,5,0
250,165,9596,5,0
262,219,9597,5,0
73,135,9598,5,0
439,249,9599,5,0
85,128,9600,5,0
427,256,9601,5,0
97,121,9602,5,0
415,263,9603,5,0
109,116,9604,5,0
403,268,9605,5,0
122,110,9606,5,0
390,274,9607,5,0
134,105,9608,5,0
378,279,9609,5,0
147,101,9610,5,0
365,283,9611,5,0
159,98,9612,5,0
353,286,9613,5,0
171,95,9614,5,0
341,289,9615,5,0
184,93,9616,5,0
328,291,9617,5,0
196,92,9618,5,0
316,292,9619,5,0
209,92,9620,5,0
303,292,9621,5,0
221,93,9622,5,0
291,291,9623,5,0
233,94,9624,5,0
279,290,9625,5,0
245,97,9626,5,0
267,287,9627,5,0
257,101,9628,5,0
255,283,9629,5,0
268,107,9630,5,0
244,277,9631,5,0
278,113,9632,5,0
234,271,9633,5,0
288,121,9634,5,0
224,263,9635,5,0
296,130,9636,5,0
216,254,9637,5,0
303,139,9638,5,0
209,245,9639,5,0
309,150,9640,5,0
203,234,9641,5,0
312,162,9642,5,0
200,222,9643,5,0
314,174,9644,5,0
198,210,9645,5,0
314,186,9646,5,0
198,198,9647,5,0
311,198,9648,5,0
201,186,9649,5,0
305,209,9650,5,0
207,175,9651,5,0
298,219,9652,5,0
214,165,9653,5,0
288,226,9654,5,0
224,158,9655,5,0
277,232,9656,5,0
235,152,9657,5,0
265,234,9658,5,0
247,150,9659,5,0
253,233,9660,5,0
259,151,9661,5,0
241,228,9662,5,0
271,156,9663,5,0
232,220,9664,5,0
280,164,9665,5,0
225,209,9666,5,0
287,175,9667,5,0
223,197,9668,5,0
289,187,9669,5,0
225,184,9670,5,0
287,200,9671,5,0
232,174,9672,5,0
280,210,9673,5,0
243,167,9674,5,0
269,217,9675,5,0
255,165,9676,5,0
257,219,9677,5,0
85,104,9678,5,0
427,280,9679,5,0
99,99,9680,5,0
413,285,9681,5,0
112,95,9682,5,0
400,289,9683,5,0
125,91,9684,5,0
387,293,9685,5,0
138,88,9686,5,0
374,296,9687,5,0
151,86,9688,5,0
361,298,9689,5,0
164,84,9690,5,0
348,300,9691,5,0
177,82,9692,5,0
335,302,9693,5,0
190,82,9694,5,0
322,302,9695,5,0
202,82,9696,5,0
310,302,9697,5,0
215,83,9698,5,0
297,301,9699,5,0
227,85,9700,5,0
285,299,9701,5,0
239,88,9702,5,0
273,296,9703,5,0
251,92,9704,5,0
261,292,9705,5,0
262,97,9706,5,0
250,287,9707,5,0
273,103,9708,5,0
239,281,9709,5,0
283,110,9710,5,0
229,274,9711,5,0
292,118,9712,5,0
220,266,9713,5,0
300,127,9714,5,0
212,257,9715,5,0
306,137,9716,5,0
206,247,9717,5,0
312,148,9718,5,0
200,236,9719,5,0
315,160,9720,5,0
197,224,9721,5,0
317,172,9722,5,0
195,212,9723,5,0
316,184,9724,5,0
196,200,9725,5,0
314,196,9726,5,0
198,188,9727,5,0
309,207,9728,5,0
203,177,9729,5,0
302,217,9730,5,0
210,167,9731,5,0
293,226,9732,5,0
219,158,9733,5,0
282,232,9734,5,0
230,152,9735,5,0
270,235,9736,5,0
242,149,9737,5,0
258,235,9738,5,0
254,149,9739,5,0
246,231,9740,5,0
266,153,9741,5,0
235,225,9742,5,0
277,159,9743,5,0
227,215,9744,5,0
285,169,9745,5,0
223,203,9746,5,0
289,181,9747,5,0
223,191,9748,5,0
289,193,9749,5,0
227,179,9750,5,0
285,205,9751,5,0
236,170,9752,5,0
276,214,9753,5,0
247,165,9754,5,0
265,219,9755,5,0
260,165,9756,5,0
252,219,9757,5,0
103,76,9758,5,0
409,308,9759,5,0
117,73,9760,5,0
395,311,9761,5,0
131,71,9762,5,0
381,313,9763,5,0
144,70,9764,5,0
368,314,9765,5,0
158,69,9766,5,0
354,315,9767,5,0
171,69,9768,5,0
341,315,9769,5,0
184,69,9770,5,0
328,315,9771,5,0
197,70,9772,5,0
315,314,9773,5,0
210,72,9774,5,0
302,312,9775,5,0
222,74,9776,5,0
290,310,9777,5,0
234,78,9778,5,0
278,306,9779,5,0
246,82,9780,5,0
266,302,9781,5,0
257,87,9782,5,0
255,297,9783,5,0
268,93,9784,5,0
244,291,9785,5,0
278,99,9786,5,0
234,285,9787,5,0
288,107,9788,5,0
224,277,9789,5,0
296,116,9790,5,0
216,268,9791,5,0
304,125,9792,5,0
208,259,9793,5,0
310,136,9794,5,0
202,248,9795,5,0
315,147,9796,5,0
197,237,9797,5,0
318,159,9798,5,0
194,225,9799,5,0
320,171,9800,5,0
192,213,9801,5,0
319,183,9802,5,0
193,201,9803,5,0
317,195,9804,5,0
195,189,9805,5,0
312,206,9806,5,0
200,178,9807,5,0
305,216,9808,5,0
207,168,9809,5,0
297,225,9810,5,0
215,159,9811,5,0
286,231,9812,5,0
226,153,9813,5,0
275,235,9814,5,0
237,149,9815,5,0
262,237,9816,5,0
250,147,9817,5,0
250,234,9818,5,0
262,150,9819,5,0
239,229,9820,5,0
273,155,9821,5,0
230,221,9822,5,0
282,163,9823,5,0
224,210,9824,5,0
288,174,9825,5,0
221,198,9826,5,0
291,186,9827,5,0
223,185,9828,5,0
289,199,9829,5,0
230,174,9830,5,0
282,210,9831,5,0
240,167,9832,5,0
272,217,9833,5,0
252,164,9834,5,0
260,220,9835,5,0
264,166,9836,5,0
248,218,9837,5,0
126,51,9838,5,0
386,333,9839,5,0
140,51,9840,5,0
372,333,9841,5,0
154,52,9842,5,0
358,332,9843,5,0
167,53,9844,5,0
345,331,9845,5,0
181,54,9846,5,0
331,330,9847,5,0
194,56,9848,5,0
318,328,9849,5,0
207,59,9850,5,0
305,325,9851,5,0
219,62,9852,5,0
293,322,9853,5,0
231,66,9854,5,0
281,318,9855,5,0
243,70,9856,5,0
269,314,9857,5,0
254,76,9858,5,0
258,308,9859,5,0
265,82,9860,5,0
247,302,9861,5,0
276,88,9862,5,0
236,296,9863,5,0
285,96,9864,5,0
227,288,9865,5,0
294,105,9866,5,0
218,279,9867,5,0
302,114,9868,5,0
210,270,9869,5,0
309,124,9870,5,0
203,260,9871,5,0
315,135,9872,5,0
197,249,9873,5,0
319,146,9874,5,0
193,238,9875,5,0
322,158,9876,5,0
190,226,9877,5,0
323,170,9878,5,0
189,214,9879,5,0
322,182,9880,5,0
190,202,9881,5,0
320,194,9882,5,0
192,190,9883,5,0
315,205,9884,5,0
197,179,9885,5,0
309,216,9886,5,0
203,168,9887,5,0
300,225,9888,5,0
212,159,9889,5,0
290,231,9890,5,0
222,153,9891,5,0
279,236,9892,5,0
233,148,9893,5,0
267,238,9894,5,0
245,146,9895,5,0
255,237,9896,5,0
257,147,9897,5,0
243,233,9898,5,0
269,151,9899,5,0
233,226,9900,5,0
279,158,9901,5,0
225,216,9902,5,0
287,168,9903,5,0
221,204,9904,5,0
291,180,9905,5,0
221,191,9906,5,0
291,193,9907,5,0
225,180,9908,5,0
287,204,9909,5,0
233,170,9910,5,0
279,214,9911,5,0
244,164,9912,5,0
268,220,9913,5,0
257,163,9914,5,0
255,221,9915,5,0
269,168,9916,5,0
243,216,9917,5,0
152,30,9918,5,0
360,354,9919,5,0
166,33,9920,5,0
346,351,9921,5,0
180,36,9922,5,0
332,348,9923,5,0
193,39,9924,5,0
319,345,9925,5,0
206,43,9926,5,0
306,341,9927,5,0
218,47,9928,5,0
294,337,9929,5,0
230,52,9930,5,0
282,332,9931,5,0
242,57,9932,5,0
270,327,9933,5,0
254,63,9934,5,0
258,321,9935,5,0
264,70,9936,5,0
248,314,9937,5,0
275,77,9938,5,0
237,307,9939,5,0
284,85,9940,5,0
228,299,9941,5,0
293,93,9942,5,0
219,291,9943,5,0
302,103,9944,5,0
210,281,9945,5,0
309,113,9946,5,0
203,271,9947,5,0
315,123,9948,5,0
197,261,9949,5,0
320,134,9950,5,0
192,250,9951,5,0
324,146,9952,5,0
188,238,9953,5,0
326,158,9954,5,0
186,226,9955,5,0
327,170,9956,5,0
185,214,9957,5,0
326,182,9958,5,0
186,202,9959,5,0
323,194,9960,5,0
189,190,9961,5,0
319,205,9962,5,0
193,179,9963,5,0
312,215,9964,5,0
200,169,9965,5,0
304,224,9966,5,0
208,160,9967,5,0
294,232,9968,5,0
218,152,9969,5,0
283,237,9970,5,0
229,147,9971,5,0
271,239,9972,5,0
241,145,9973,5,0
259,239,9974,5,0
253,145,9975,5,0
247,236,9976,5,0
265,148,9977,5,0
236,230,9978,5,0
276,154,9979,5,0
227,221,9980,5,0
285,163,9981,5,0
222,210,9982,5,0
290,174,9983,5,0
220,198,9984,5,0
292,186,9985,5,0
222,185,9986,5,0
290,199,9987,5,0
228,174,9988,5,0
284,210,9989,5,0
237,166,9990,5,0
275,218,9991,5,0
249,163,9992,5,0
263,221,9993,5,0
262,164,9994,5,0
250,220,9995,5,0
273,171,9996,5,0
239,213,9997,5,0
182,15,9998,5,0
330,369,9999,5,0
195,20,10000,5,0
317,364,10001,5,0
208,25,10002,5,0
304,359,10003,5,0
220,31,10004,5,0
292,353,10005,5,0
232,37,10006,5,0
280,347,10007,5,0
244,43,10008,5,0
268,341,10009,5,0
255,50,10010,5,0
257,334,10011,5,0
266,57,10012,5,0
246,327,10013,5,0
276,65,10014,5,0
236,319,10015,5,0
285,73,10016,5,0
227,311,10017,5,0
294,82,10018,5,0
218,302,10019,5,0
303,91,10020,5,0
209,293,10021,5,0
310,101,10022,5,0
202,283,10023,5,0
316,112,10024,5,0
196,272,10025,5,0
322,123,10026,5,0
190,261,10027,5,0
326,134,10028,5,0
186,250,10029,5,0
329,146,10030,5,0
183,238,10031,5,0
331,158,10032,5,0
181,226,10033,5,0
331,170,10034,5,0
181,214,10035,5,0
330,183,10036,5,0
182,201,10037,5,0
327,194,10038,5,0
185,190,10039,5,0
322,206,10040,5,0
190,178,10041,5,0
315,216,10042,5,0
197,168,10043,5,0
307,225,10044,5,0
205,159,10045,5,0
298,232,10046,5,0
214,152,10047,5,0
287,238,10048,5,0
225,146,10049,5,0
275,241,10050,5,0
237,143,10051,5,0
263,241,10052,5,0
249,143,10053,5,0
250,239,10054,5,0
262,145,10055,5,0
239,234,10056,5,0
273,150,10057,5,0
230,226,10058,5,0
282,158,10059,5,0
223,216,10060,5,0
289,168,10061,5,0
219,204,10062,5,0
293,180,10063,5,0
219,191,10064,5,0
293,193,10065,5,0
223,180,10066,5,0
289,204,10067,5,0
231,170,10068,5,0
281,214,10069,5,0
242,163,10070,5,0
270,221,10071,5,0
255,162,10072,5,0
257,222,10073,5,0
267,165,10074,5,0
245,219,10075,5,0
276,174,10076,5,0
236,210,10077,5,0
214,5,10078,5,0
298,379,10079,5,0
226,12,10080,5,0
286,372,10081,5,0
238,19,10082,5,0
274,365,10083,5,0
249,27,10084,5,0
263,357,10085,5,0
260,35,10086,5,0
252,349,10087,5,0
270,43,10088,5,0
242,341,10089,5,0
280,52,10090,5,0
232,332,10091,5,0
289,61,10092,5,0
223,323,10093,5,0
298,70,10094,5,0
214,314,10095,5,0
306,80,10096,5,0
206,304,10097,5,0
313,90,10098,5,0
199,294,10099,5,0
319,101,10100,5,0
193,283,10101,5,0
325,112,10102,5,0
187,272,10103,5,0
329,124,10104,5,0
183,260,10105,5,0
333,135,10106,5,0
179,249,10107,5,0
335,147,10108,5,0
177,237,10109,5,0
336,160,10110,5,0
176,224,10111,5,0
336,172,10112,5,0
176,212,10113,5,0
334,184,10114,5,0
178,200,10115,5,0
330,195,10116,5,0
182,189,10117,5,0
325,207,10118,5,0
187,177,10119,5,0
318,217,10120,5,0
194,167,10121,5,0
310,226,10122,5,0
202,158,10123,5,0
301,233,10124,5,0
211,151,10125,5,0
290,239,10126,5,0
222,145,10127,5,0
278,242,10128,5,0
234,142,10129,5,0
266,243,10130,5,0
246,141,10131,5,0
254,242,10132,5,0
258,142,10133,5,0
242,237,10134,5,0
270,147,10135,5,0
232,230,10136,5,0
280,154,10137,5,0
224,221,10138,5,0
288,163,10139,5,0
219,210,10140,5,0
293,174,10141,5,0
218,197,10142,5,0
294,187,10143,5,0
220,185,10144,5,0
292,199,10145,5,0
226,174,10146,5,0
286,210,10147,5,0
235,166,10148,5,0
277,218,10149,5,0
247,162,10150,5,0
265,222,10151,5,0
260,162,10152,5,0
252,222,10153,5,0
271,168,10154,5,0
241,216,10155,5,0
279,178,10156,5,0
233,206,10157,5,0
247,0,10158,5,0
265,384,10159,5,0
258,9,10160,5,0
254,375,10161,5,0
268,19,10162,5,0
244,365,10163,5,0
278,28,10164,5,0
234,356,10165,5,0
287,38,10166,5,0
225,346,10167,5,0
296,48,10168,5,0
216,336,10169,5,0
304,58,10170,5,0
208,326,10171,5,0
311,69,10172,5,0
201,315,10173,5,0
318,79,10174,5,0
194,305,10175,5,0
324,90,10176,5,0
188,294,10177,5,0
330,102,10178,5,0
182,282,10179,5,0
334,113,10180,5,0
178,271,10181,5,0
338,125,10182,5,0
174,259,10183,5,0
340,137,10184,5,0
172,247,10185,5,0
341,150,10186,5,0
171,234,10187,5,0
342,162,10188,5,0
170,222,10189,5,0
340,174,10190,5,0
172,210,10191,5,0
338,186,10192,5,0
174,198,10193,5,0
334,197,10194,5,0
178,187,10195,5,0
328,208,10196,5,0
184,176,10197,5,0
322,218,10198,5,0
190,166,10199,5,0
313,227,10200,5,0
199,157,10201,5,0
304,235,10202,5,0
208,149,10203,5,0
293,240,10204,5,0
219,144,10205,5,0
281,244,10206,5,0
231,140,10207,5,0
269,245,10208,5,0
243,139,10209,5,0
257,244,10210,5,0
255,140,10211,5,0
245,241,10212,5,0
267,143,10213,5,0
235,234,10214,5,0
277,150,10215,5,0
226,226,10216,5,0
286,158,10217,5,0
220,215,10218,5,0
292,169,10219,5,0
217,203,10220,5,0
295,181,10221,5,0
217,190,10222,5,0
295,194,10223,5,0
222,179,10224,5,0
290,205,10225,5,0
229,169,10226,5,0
283,215,10227,5,0
240,163,10228,5,0
272,221,10229,5,0
253,160,10230,5,0
259,224,10231,5,0
265,163,10232,5,0
247,221,10233,5,0
275,171,10234,5,0
237,213,10235,5,0
281,182,10236,5,0
231,202,10237,5,0
280,2,10238,5,0
232,382,10239,5,0
289,12,10240,5,0
223,372,10241,5,0
298,23,10242,5,0
214,361,10243,5,0
306,34,10244,5,0
206,350,10245,5,0
313,46,10246,5,0
199,338,10247,5,0
320,57,10248,5,0
192,327,10249,5,0
326,68,10250,5,0
186,316,10251,5,0
332,80,10252,5,0
180,304,10253,5,0
337,92,10254,5,0
175,292,10255,5,0
341,104,10256,5,0
171,280,10257,5,0
344,116,10258,5,0
168,268,10259,5,0
347,128,10260,5,0
165,256,10261,5,0
348,141,10262,5,0
164,243,10263,5,0
348,153,10264,5,0
164,231,10265,5,0
347,165,10266,5,0
165,219,10267,5,0
345,177,10268,5,0
167,207,10269,5,0
342,189,10270,5,0
170,195,10271,5,0
338,200,10272,5,0
174,184,10273,5,0
332,211,10274,5,0
180,173,10275,5,0
325,221,10276,5,0
187,163,10277,5,0
316,229,10278,5,0
196,155,10279,5,0
306,237,10280,5,0
206,147,10281,5,0
295,242,10282,5,0
217,142,10283,5,0
284,246,10284,5,0
228,138,10285,5,0
272,248,10286,5,0
240,136,10287,5,0
260,247,10288,5,0
252,137,10289,5,0
248,244,10290,5,0
264,140,10291,5,0
237,238,10292,5,0
275,146,10293,5,0
228,230,10294,5,0
284,154,10295,5,0
221,220,10296,5,0
291,164,10297,5,0
216,208,10298,5,0
296,176,10299,5,0
215,196,10300,5,0
297,188,10301,5,0
218,184,10302,5,0
294,200,10303,5,0
224,173,10304,5,0
288,211,10305,5,0
234,165,10306,5,0
278,219,10307,5,0
246,160,10308,5,0
266,224,10309,5,0
258,160,10310,5,0
254,224,10311,5,0
270,165,10312,5,0
242,219,10313,5,0
279,174,10314,5,0
233,210,10315,5,0
283,186,10316,5,0
229,198,10317,5,0
313,9,10318,5,0
199,375,10319,5,0
320,21,10320,5,0
192,363,10321,5,0
327,33,10322,5,0
185,351,10323,5,0
332,45,10324,5,0
180,339,10325,5,0
338,58,10326,5,0
174,326,10327,5,0
343,70,10328,5,0
169,314,10329,5,0
347,83,10330,5,0
165,301,10331,5,0
350,95,10332,5,0
162,289,10333,5,0
353,107,10334,5,0
159,277,10335,5,0
355,120,10336,5,0
157,264,10337,5,0
356,132,10338,5,0
156,252,10339,5,0
356,145,10340,5,0
156,239,10341,5,0
355,157,10342,5,0
157,227,10343,5,0
354,169,10344,5,0
158,215,10345,5,0
351,181,10346,5,0
161,203,10347,5,0
347,193,10348,5,0
165,191,10349,5,0
341,204,10350,5,0
171,180,10351,5,0
335,214,10352,5,0
177,170,10353,5,0
327,224,10354,5,0
185,160,10355,5,0
318,232,10356,5,0
194,152,10357,5,0
309,239,10358,5,0
203,145,10359,5,0
298,245,10360,5,0
214,139,10361,5,0
286,248,10362,5,0
226,136,10363,5,0
274,250,10364,5,0
238,134,10365,5,0
262,250,10366,5,0
250,134,10367,5,0
250,247,10368,5,0
262,137,10369,5,0
239,241,10370,5,0
273,143,10371,5,0
229,234,10372,5,0
283,150,10373,5,0
222,224,10374,5,0
290,160,10375,5,0
216,213,10376,5,0
296,171,10377,5,0
214,201,10378,5,0
298,183,10379,5,0
215,189,10380,5,0
297,195,10381,5,0
220,177,10382,5,0
292,207,10383,5,0
228,168,10384,5,0
284,216,10385,5,0
239,161,10386,5,0
273,223,10387,5,0
251,159,10388,5,0
261,225,10389,5,0
264,161,10390,5,0
248,223,10391,5,0
274,168,10392,5,0
238,216,10393,5,0
281,179,10394,5,0
231,205,10395,5,0
283,191,10396,5,0
229,193,10397,5,0
344,21,10398,5,0
168,363,10399,5,0
349,35,10400,5,0
163,349,10401,5,0
353,48,10402,5,0
159,336,10403,5,0
357,61,10404,5,0
155,323,10405,5,0
360,74,10406,5,0
152,310,10407,5,0
362,87,10408,5,0
150,297,10409,5,0
364,100,10410,5,0
148,284,10411,5,0
366,113,10412,5,0
146,271,10413,5,0
366,126,10414,5,0
146,258,10415,5,0
366,138,10416,5,0
146,246,10417,5,0
365,151,10418,5,0
147,233,10419,5,0
363,163,10420,5,0
149,221,10421,5,0
360,175,10422,5,0
152,209,10423,5,0
356,187,10424,5,0
156,197,10425,5,0
351,198,10426,5,0
161,186,10427,5,0
345,209,10428,5,0
167,175,10429,5,0
338,219,10430,5,0
174,165,10431,5,0
330,228,10432,5,0
182,156,10433,5,0
321,236,10434,5,0
191,148,10435,5,0
311,242,10436,5,0
201,142,10437,5,0
300,248,10438,5,0
212,136,10439,5,0
288,251,10440,5,0
224,133,10441,5,0
276,253,10442,5,0
236,131,10443,5,0
264,252,10444,5,0
248,132,10445,5,0
252,250,10446,5,0
260,134,10447,5,0
241,245,10448,5,0
271,139,10449,5,0
231,238,10450,5,0
281,146,10451,5,0
222,229,10452,5,0
290,155,10453,5,0
216,218,10454,5,0
296,166,10455,5,0
213,206,10456,5,0
299,178,10457,5,0
213,194,10458,5,0
299,190,10459,5,0
217,182,10460,5,0
295,202,10461,5,0
223,171,10462,5,0
289,213,10463,5,0
233,163,10464,5,0
279,221,10465,5,0
245,159,10466,5,0
267,225,10467,5,0
257,159,10468,5,0
255,225,10469,5,0
269,163,10470,5,0
243,221,10471,5,0
278,172,10472,5,0
234,212,10473,5,0
283,183,10474,5,0
229,201,10475,5,0
283,196,10476,5,0
229,188,10477,5,0
372,39,10478,5,0
140,345,10479,5,0
375,53,10480,5,0
137,331,10481,5,0
377,67,10482,5,0
135,317,10483,5,0
378,80,10484,5,0
134,304,10485,5,0
379,94,10486,5,0
133,290,10487,5,0
379,107,10488,5,0
133,277,10489,5,0
379,120,10490,5,0
133,264,10491,5,0
378,133,10492,5,0
134,251,10493,5,0
376,146,10494,5,0
136,238,10495,5,0
374,158,10496,5,0
138,226,10497,5,0
370,170,10498,5,0
142,214,10499,5,0
366,182,10500,5,0
146,202,10501,5,0
361,193,10502,5,0
151,191,10503,5,0
355,204,10504,5,0
157,180,10505,5,0
349,214,10506,5,0
163,170,10507,5,0
341,224,10508,5,0
171,160,10509,5,0
332,232,10510,5,0
180,152,10511,5,0
323,240,10512,5,0
189,144,10513,5,0
312,246,10514,5,0
200,138,10515,5,0
301,251,10516,5,0
211,133,10517,5,0
289,254,10518,5,0
223,130,10519,5,0
277,256,10520,5,0
235,128,10521,5,0
265,255,10522,5,0
247,129,10523,5,0
253,253,10524,5,0
259,131,10525,5,0
242,248,10526,5,0
270,136,10527,5,0
232,241,10528,5,0
280,143,10529,5,0
223,233,10530,5,0
289,151,10531,5,0
217,222,10532,5,0
295,162,10533,5,0
213,211,10534,5,0
299,173,10535,5,0
211,198,10536,5,0
301,186,10537,5,0
214,186,10538,5,0
298,198,10539,5,0
219,175,10540,5,0
293,209,10541,5,0
227,166,10542,5,0
285,218,10543,5,0
238,160,10544,5,0
274,224,10545,5,0
250,157,10546,5,0
262,227,10547,5,0
263,159,10548,5,0
249,225,10549,5,0
274,166,10550,5,0
238,218,10551,5,0
281,176,10552,5,0
231,208,10553,5,0
284,188,10554,5,0
228,196,10555,5,0
282,200,10556,5,0
230,184,10557,5,0
397,62,10558,5,0
115,322,10559,5,0
397,76,10560,5,0
115,308,10561,5,0
396,90,10562,5,0
116,294,10563,5,0
395,103,10564,5,0
117,281,10565,5,0
394,117,10566,5,0
118,267,10567,5,0
392,130,10568,5,0
120,254,10569,5,0
389,143,10570,5,0
123,241,10571,5,0
386,155,10572,5,0
126,229,10573,5,0
382,167,10574,5,0
130,217,10575,5,0
378,179,10576,5,0
134,205,10577,5,0
372,190,10578,5,0
140,194,10579,5,0
366,201,10580,5,0
146,183,10581,5,0
360,212,10582,5,0
152,172,10583,5,0
352,221,10584,5,0
160,163,10585,5,0
343,230,10586,5,0
169,154,10587,5,0
334,238,10588,5,0
178,146,10589,5,0
324,245,10590,5,0
188,139,10591,5,0
313,251,10592,5,0
199,133,10593,5,0
302,255,10594,5,0
210,129,10595,5,0
290,258,10596,5,0
222,126,10597,5,0
278,259,10598,5,0
234,125,10599,5,0
266,258,10600,5,0
246,126,10601,5,0
254,256,10602,5,0
258,128,10603,5,0
243,251,10604,5,0
269,133,10605,5,0
232,245,10606,5,0
280,139,10607,5,0
223,236,10608,5,0
289,148,10609,5,0
217,226,10610,5,0
295,158,10611,5,0
212,215,10612,5,0
300,169,10613,5,0
210,203,10614,5,0
302,181,10615,5,0
211,191,10616,5,0
301,193,10617,5,0
215,179,10618,5,0
297,205,10619,5,0
222,169,10620,5,0
290,215,10621,5,0
232,161,10622,5,0
280,223,10623,5,0
244,157,10624,5,0
268,227,10625,5,0
257,157,10626,5,0
255,227,10627,5,0
268,161,10628,5,0
244,223,10629,5,0
278,169,10630,5,0
234,215,10631,5,0
284,180,10632,5,0
228,204,10633,5,0
285,193,10634,5,0
227,191,10635,5,0
280,205,10636,5,0
232,179,10637,5,0
418,88,10638,5,0
94,296,10639,5,0
415,102,10640,5,0
97,282,10641,5,0
412,116,10642,5,0
100,268,10643,5,0
409,129,10644,5,0
103,255,10645,5,0
405,142,10646,5,0
107,242,10647,5,0
401,154,10648,5,0
111,230,10649,5,0
396,166,10650,5,0
116,218,10651,5,0
391,178,10652,5,0
121,206,10653,5,0
385,190,10654,5,0
127,194,10655,5,0
378,200,10656,5,0
134,184,10657,5,0
371,211,10658,5,0
141,173,10659,5,0
363,220,10660,5,0
149,164,10661,5,0
355,229,10662,5,0
157,155,10663,5,0
345,238,10664,5,0
167,146,10665,5,0
335,245,10666,5,0
177,139,10667,5,0
325,251,10668,5,0
187,133,10669,5,0
314,256,10670,5,0
198,128,10671,5,0
302,260,10672,5,0
210,124,10673,5,0
290,262,10674,5,0
222,122,10675,5,0
278,263,10676,5,0
234,121,10677,5,0
266,262,10678,5,0
246,122,10679,5,0
254,259,10680,5,0
258,125,10681,5,0
243,255,10682,5,0
269,129,10683,5,0
233,248,10684,5,0
279,136,10685,5,0
224,240,10686,5,0
288,144,10687,5,0
216,230,10688,5,0
296,154,10689,5,0
211,219,10690,5,0
301,165,10691,5,0
209,207,10692,5,0
303,177,10693,5,0
209,195,10694,5,0
303,189,10695,5,0
212,183,10696,5,0
300,201,10697,5,0
218,172,10698,5,0
294,212,10699,5,0
227,163,10700,5,0
285,221,10701,5,0
238,158,10702,5,0
274,226,10703,5,0
250,156,10704,5,0
262,228,10705,5,0
263,158,10706,5,0
249,226,10707,5,0
274,164,10708,5,0
238,220,10709,5,0
282,173,10710,5,0
230,211,10711,5,0
285,185,10712,5,0
227,199,10713,5,0
284,198,10714,5,0
228,186,10715,5,0
277,209,10716,5,0
235,175,10717,5,0
433,118,10718,5,0
79,266,10719,5,0
428,131,10720,5,0
84,253,10721,5,0
423,144,10722,5,0
89,240,10723,5,0
417,156,10724,5,0
95,228,10725,5,0
411,168,10726,5,0
101,216,10727,5,0
405,180,10728,5,0
107,204,10729,5,0
398,191,10730,5,0
114,193,10731,5,0
391,202,10732,5,0
121,182,10733,5,0
383,212,10734,5,0
129,172,10735,5,0
375,221,10736,5,0
137,163,10737,5,0
366,230,10738,5,0
146,154,10739,5,0
357,239,10740,5,0
155,145,10741,5,0
347,246,10742,5,0
165,138,10743,5,0
336,252,10744,5,0
176,132,10745,5,0
325,258,10746,5,0
187,126,10747,5,0
314,262,10748,5,0
198,122,10749,5,0
302,265,10750,5,0
210,119,10751,5,0
290,267,10752,5,0
222,117,10753,5,0
278,267,10754,5,0
234,117,10755,5,0
265,266,10756,5,0
247,118,10757,5,0
254,263,10758,5,0
258,121,10759,5,0
242,258,10760,5,0
270,126,10761,5,0
232,251,10762,5,0
280,133,10763,5,0
223,243,10764,5,0
289,141,10765,5,0
216,234,10766,5,0
296,150,10767,5,0
210,223,10768,5,0
302,161,10769,5,0
207,211,10770,5,0
305,173,10771,5,0
207,199,10772,5,0
305,185,10773,5,0
209,186,10774,5,0
303,198,10775,5,0
214,175,10776,5,0
298,209,10777,5,0
222,166,10778,5,0
290,218,10779,5,0
232,159,10780,5,0
280,225,10781,5,0
244,155,10782,5,0
268,229,10783,5,0
257,155,10784,5,0
255,229,10785,5,0
268,159,10786,5,0
244,225,10787,5,0
278,167,10788,5,0
234,217,10789,5,0
285,178,10790,5,0
227,206,10791,5,0
286,191,10792,5,0
226,193,10793,5,0
283,203,10794,5,0
229,181,10795,5,0
274,212,10796,5,0
238,172,10797,5,0
443,150,10798,5,0
69,234,10799,5,0
436,162,10800,5,0
76,222,10801,5,0
429,174,10802,5,0
83,210,10803,5,0
421,185,10804,5,0
91,199,10805,5,0
413,196,10806,5,0
99,188,10807,5,0
405,206,10808,5,0
107,178,10809,5,0
396,216,10810,5,0
116,168,10811,5,0
387,225,10812,5,0
125,159,10813,5,0
378,234,10814,5,0
134,150,10815,5,0
368,242,10816,5,0
144,142,10817,5,0
358,249,10818,5,0
154,135,10819,5,0
347,255,10820,5,0
165,129,10821,5,0
336,261,10822,5,0
176,123,10823,5,0
324,265,10824,5,0
188,119,10825,5,0
313,269,10826,5,0
199,115,10827,5,0
301,271,10828,5,0
211,113,10829,5,0
288,272,10830,5,0
224,112,10831,5,0
276,272,10832,5,0
236,112,10833,5,0
264,270,10834,5,0
248,114,10835,5,0
253,266,10836,5,0
259,118,10837,5,0
241,261,10838,5,0
271,123,10839,5,0
231,254,10840,5,0
281,130,10841,5,0
222,246,10842,5,0
290,138,10843,5,0
215,237,10844,5,0
297,147,10845,5,0
209,226,10846,5,0
303,158,10847,5,0
206,214,10848,5,0
306,170,10849,5,0
205,202,10850,5,0
307,182,10851,5,0
206,190,10852,5,0
306,194,10853,5,0
211,178,10854,5,0
301,206,10855,5,0
218,168,10856,5,0
294,216,10857,5,0
227,160,10858,5,0
285,224,10859,5,0
238,155,10860,5,0
274,229,10861,5,0
251,154,10862,5,0
261,230,10863,5,0
263,156,10864,5,0
249,228,10865,5,0
274,162,10866,5,0
238,222,10867,5,0
282,171,10868,5,0
230,213,10869,5,0
286,183,10870,5,0
226,201,10871,5,0
286,196,10872,5,0
226,188,10873,5,0
280,207,10874,5,0
232,177,10875,5,0
270,215,10876,5,0
242,169,10877,5,0
448,183,10878,5,0
64,201,10879,5,0
439,194,10880,5,0
73,190,10881,5,0
429,204,10882,5,0
83,180,10883,5,0
420,214,10884,5,0
92,170,10885,5,0
410,223,10886,5,0
102,161,10887,5,0
400,232,10888,5,0
112,152,10889,5,0
390,240,10890,5,0
122,144,10891,5,0
379,247,10892,5,0
133,137,10893,5,0
369,254,10894,5,0
143,130,10895,5,0
358,260,10896,5,0
154,124,10897,5,0
346,266,10898,5,0
166,118,10899,5,0
335,270,10900,5,0
177,114,10901,5,0
323,274,10902,5,0
189,110,10903,5,0
311,276,10904,5,0
201,108,10905,5,0
298,277,10906,5,0
214,107,10907,5,0
286,278,10908,5,0
226,106,10909,5,0
274,276,10910,5,0
238,108,10911,5,0
262,274,10912,5,0
250,110,10913,5,0
251,270,10914,5,0
261,114,10915,5,0
240,264,10916,5,0
272,120,10917,5,0
230,258,10918,5,0
282,126,10919,5,0
221,249,10920,5,0
291,135,10921,5,0
213,240,10922,5,0
299,144,10923,5,0
208,229,10924,5,0
304,155,10925,5,0
204,217,10926,5,0
308,167,10927,5,0
203,205,10928,5,0
309,179,10929,5,0
204,193,10930,5,0
308,191,10931,5,0
207,181,10932,5,0
305,203,10933,5,0
214,171,10934,5,0
298,213,10935,5,0
222,162,10936,5,0
290,222,10937,5,0
233,156,10938,5,0
279,228,10939,5,0
245,153,10940,5,0
267,231,10941,5,0
258,153,10942,5,0
254,231,10943,5,0
269,158,10944,5,0
243,226,10945,5,0
279,165,10946,5,0
233,219,10947,5,0
285,176,10948,5,0
227,208,10949,5,0
288,189,10950,5,0
224,195,10951,5,0
285,201,10952,5,0
227,183,10953,5,0
277,211,10954,5,0
235,173,10955,5,0
266,217,10956,5,0
246,167,10957,5,0
446,216,10958,5,0
66,168,10959,5,0
436,225,10960,5,0
76,159,10961,5,0
425,234,10962,5,0
87,150,10963,5,0
414,242,10964,5,0
98,142,10965,5,0
402,249,10966,5,0
110,135,10967,5,0
391,256,10968,5,0
121,128,10969,5,0
380,262,10970,5,0
132,122,10971,5,0
368,268,10972,5,0
144,116,10973,5,0
356,273,10974,5,0
156,111,10975,5,0
344,277,10976,5,0
168,107,10977,5,0
332,280,10978,5,0
180,104,10979,5,0
320,283,10980,5,0
192,101,10981,5,0
307,284,10982,5,0
205,100,10983,5,0
295,284,10984,5,0
217,100,10985,5,0
283,283,10986,5,0
229,101,10987,5,0
271,281,10988,5,0
241,103,10989,5,0
259,278,10990,5,0
253,106,10991,5,0
248,274,10992,5,0
264,110,10993,5,0
237,268,10994,5,0
275,116,10995,5,0
227,261,10996,5,0
285,123,10997,5,0
219,252,10998,5,0
293,132,10999,5,0
211,242,11000,5,0
301,142,11001,5,0
206,231,11002,5,0
306,153,11003,5,0
202,220,11004,5,0
310,164,11005,5,0
200,208,11006,5,0
312,176,11007,5,0
201,196,11008,5,0
311,188,11009,5,0
204,184,11010,5,0
308,200,11011,5,0
210,173,11012,5,0
302,211,11013,5,0
218,164,11014,5,0
294,220,11015,5,0
228,157,11016,5,0
284,227,11017,5,0
240,152,11018,5,0
272,232,11019,5,0
252,151,11020,5,0
260,233,11021,5,0
264,154,11022,5,0
248,230,11023,5,0
275,160,11024,5,0
237,224,11025,5,0
283,170,11026,5,0
229,214,11027,5,0
288,182,11028,5,0
224,202,11029,5,0
288,194,11030,5,0
224,190,11031,5,0
283,206,11032,5,0
229,178,11033,5,0
274,215,11034,5,0
238,169,11035,5,0
262,219,11036,5,0
250,165,11037,5,0
439,249,11038,5,0
73,135,11039,5,0
427,256,11040,5,0
85,128,11041,5,0
415,263,11042,5,0
97,121,11043,5,0
403,268,11044,5,0
109,116,11045,5,0
390,274,11046,5,0
122,110,11047,5,0
378,279,11048,5,0
134,105,11049,5,0
365,283,11050,5,0
147,101,11051,5,0
353,286,11052,5,0
159,98,11053,5,0
341,289,11054,5,0
171,95,11055,5,0
328,291,11056,5,0
184,93,11057,5,0
316,292,11058,5,0
196,92,11059,5,0
303,292,11060,5,0
209,92,11061,5,0
291,291,11062,5,0
221,93,11063,5,0
279,290,11064,5,0
233,94,11065,5,0
267,287,11066,5,0
245,97,11067,5,0
255,283,11068,5,0
257,101,11069,5,0
244,277,11070,5,0
268,107,11071,5,0
234,271,11072,5,0
278,113,11073,5,0
224,263,11074,5,0
288,121,11075,5,0
216,254,11076,5,0
296,130,11077,5,0
209,245,11078,5,0
303,139,11079,5,0
203,234,11080,5,0
309,150,11081,5,0
200,222,11082,5,0
312,162,11083,5,0
198,210,11084,5,0
314,174,11085,5,0
198,198,11086,5,0
314,186,11087,5,0
201,186,11088,5,0
311,198,11089,5,0
207,175,11090,5,0
305,209,11091,5,0
214,165,11092,5,0
298,219,11093,5,0
224,158,11094,5,0
288,226,11095,5,0
235,152,11096,5,0
277,232,11097,5,0
247,150,11098,5,0
265,234,11099,5,0
259,151,11100,5,0
253,233,11101,5,0
271,156,11102,5,0
241,228,11103,5,0
280,164,11104,5,0
232,220,11105,5,0
287,175,11106,5,0
225,209,11107,5,0
289,187,11108,5,0
223,197,11109,5,0
287,200,11110,5,0
225,184,11111,5,0
280,210,11112,5,0
232,174,11113,5,0
269,217,11114,5,0
243,167,11115,5,0
257,219,11116,5,0
255,165,11117,5,0
427,280,11118,5,0
85,104,11119,5,0
413,285,11120,5,0
99,99,11121,5,0
400,289,11122,5,0
112,95,11123,5,0
387,293,11124,5,0
125,91,11125,5,0
374,296,11126,5,0
138,88,11127,5,0
361,298,11128,5,0
151,86,11129,5,0
348,300,11130,5,0
164,84,11131,5,0
335,302,11132,5,0
177,82,11133,5,0
322,302,11134,5,0
190,82,11135,5,0
310,302,11136,5,0
202,82,11137,5,0
297,301,11138,5,0
215,83,11139,5,0
285,299,11140,5,0
227,85,11141,5,0
273,296,11142,5,0
239,88,11143,5,0
261,292,11144,5,0
251,92,11145,5,0
250,287,11146,5,0
262,97,11147,5,0
239,281,11148,5,0
273,103,11149,5,0
229,274,11150,5,0
283,110,11151,5,0
220,266,11152,5,0
292,118,11153,5,0
212,257,11154,5,0
300,127,11155,5,0
206,247,11156,5,0
306,137,11157,5,0
200,236,11158,5,0
312,148,11159,5,0
197,224,11160,5,0
315,160,11161,5,0
195,212,11162,5,0
317,172,11163,5,0
196,200,11164,5,0
316,184,11165,5,0
198,188,11166,5,0
314,196,11167,5,0
203,177,11168,5,0
309,207,11169,5,0
210,167,11170,5,0
302,217,11171,5,0
219,158,11172,5,0
293,226,11173,5,0
230,152,11174,5,0
282,232,11175,5,0
242,149,11176,5,0
270,235,11177,5,0
254,149,11178,5,0
258,235,11179,5,0
266,153,11180,5,0
246,231,11181,5,0
277,159,11182,5,0
235,225,11183,5,0
285,169,11184,5,0
227,215,11185,5,0
289,181,11186,5,0
223,203,11187,5,0
289,193,11188,5,0
223,191,11189,5,0
285,205,11190,5,0
227,179,11191,5,0
276,214,11192,5,0
236,170,11193,5,0
265,219,11194,5,0
247,165,11195,5,0
252,219,11196,5,0
260,165,11197,5,0
409,308,11198,5,0
103,76,11199,5,0
395,311,11200,5,0
117,73,11201,5,0
381,313,11202,5,0
131,71,11203,5,0
368,314,11204,5,0
144,70,11205,5,0
354,315,11206,5,0
158,69,11207,5,0
341,315,11208,5,0
171,69,11209,5,0
328,315,11210,5,0
184,69,11211,5,0
315,314,11212,5,0
197,70,11213,5,0
302,312,11214,5,0
210,72,11215,5,0
290,310,11216,5,0
222,74,11217,5,0
278,306,11218,5,0
234,78,11219,5,0
266,302,11220,5,0
246,82,11221,5,0
255,297,11222,5,0
257,87,11223,5,0
244,291,11224,5,0
268,93,11225,5,0
234,285,11226,5,0
278,99,11227,5,0
224,277,11228,5,0
288,107,11229,5,0
216,268,11230,5,0
296,116,11231,5,0
208,259,11232,5,0
304,125,11233,5,0
202,248,11234,5,0
310,136,11235,5,0
197,237,11236,5,0
315,147,11237,5,0
194,225,11238,5,0
318,159,11239,5,0
192,213,11240,5,0
320,171,11241,5,0
193,201,11242,5,0
319,183,11243,5,0
195,189,11244,5,0
317,195,11245,5,0
200,178,11246,5,0
312,206,11247,5,0
207,168,11248,5,0
305,216,11249,5,0
215,159,11250,5,0
297,225,11251,5,0
226,153,11252,5,0
286,231,11253,5,0
237,149,11254,5,0
275,235,11255,5,0
250,147,11256,5,0
262,237,11257,5,0
262,150,11258,5,0
250,234,11259,5,0
273,155,11260,5,0
239,229,11261,5,0
282,163,11262,5,0
230,221,11263,5,0
288,174,11264,5,0
224,210,11265,5,0
291,186,11266,5,0
221,198,11267,5,0
289,199,11268,5,0
223,185,11269,5,0
282,210,11270,5,0
230,174,11271,5,0
272,217,11272,5,0
240,167,11273,5,0
260,220,11274,5,0
252,164,11275,5,0
248,218,11276,5,0
264,166,11277,5,0
386,333,11278,5,0
126,51,11279,5,0
372,333,11280,5,0
140,51,11281,5,0
358,332,11282,5,0
154,52,11283,5,0
345,331,11284,5,0
167,53,11285,5,0
331,330,11286,5,0
181,54,11287,5,0
318,328,11288,5,0
194,56,11289,5,0
305,325,11290,5,0
207,59,11291,5,0
293,322,11292,5,0
219,62,11293,5,0
281,318,11294,5,0
231,66,11295,5,0
269,314,11296,5,0
243,70,11297,5,0
258,308,11298,5,0
254,76,11299,5,0
247,302,11300,5,0
265,82,11301,5,0
236,296,11302,5,0
276,88,11303,5,0
227,288,11304,5,0
285,96,11305,5,0
218,279,11306,5,0
294,105,11307,5,0
210,270,11308,5,0
302,114,11309,5,0
203,260,11310,5,0
309,124,11311,5,0
197,249,11312,5,0
315,135,11313,5,0
193,238,11314,5,0
319,146,11315,5,0
190,226,11316,5,0
322,158,11317,5,0
189,214,11318,5,0
323,170,11319,5,0
190,202,11320,5,0
322,182,11321,5,0
192,190,11322,5,0
320,194,11323,5,0
197,179,11324,5,0
315,205,11325,5,0
203,168,11326,5,0
309,216,11327,5,0
212,159,11328,5,0
300,225,11329,5,0
222,153,11330,5,0
290,231,11331,5,0
233,148,11332,5,0
279,236,11333,5,0
245,146,11334,5,0
267,238,11335,5,0
257,147,11336,5,0
255,237,11337,5,0
269,151,11338,5,0
243,233,11339,5,0
279,158,11340,5,0
233,226,11341,5,0
287,168,11342,5,0
225,216,11343,5,0
291,180,11344,5,0
221,204,11345,5,0
291,193,11346,5,0
221,191,11347,5,0
287,204,11348,5,0
225,180,11349,5,0
279,214,11350,5,0
233,170,11351,5,0
268,220,11352,5,0
244,164,11353,5,0
255,221,11354,5,0
257,163,11355,5,0
243,216,11356,5,0
269,168,11357,5,0
360,354,11358,5,0
152,30,11359,5,0
346,351,11360,5,0
166,33,11361,5,0
332,348,11362,5,0
180,36,11363,5,0
319,345,11364,5,0
193,39,11365,5,0
306,341,11366,5,0
206,43,11367,5,0
294,337,11368,5,0
218,47,11369,5,0
282,332,11370,5,0
230,52,11371,5,0
270,327,11372,5,0
242,57,11373,5,0
258,321,11374,5,0
254,63,11375,5,0
248,314,11376,5,0
264,70,11377,5,0
237,307,11378,5,0
275,77,11379,5,0
228,299,11380,5,0
284,85,11381,5,0
219,291,11382,5,0
293,93,11383,5,0
210,281,11384,5,0
302,103,11385,5,0
203,271,11386,5,0
309,113,11387,5,0
197,261,11388,5,0
315,123,11389,5,0
192,250,11390,5,0
320,134,11391,5,0
188,238,11392,5,0
324,146,11393,5,0
186,226,11394,5,0
326,158,11395,5,0
185,214,11396,5,0
327,170,11397,5,0
186,202,11398,5,0
326,182,11399,5,0
189,190,11400,5,0
323,194,11401,5,0
193,179,11402,5,0
319,205,11403,5,0
200,169,11404,5,0
312,215,11405,5,0
208,160,11406,5,0
304,224,11407,5,0
218,152,11408,5,0
294,232,11409,5,0
229,147,11410,5,0
283,237,11411,5,0
241,145,11412,5,0
271,239,11413,5,0
253,145,11414,5,0
259,239,11415,5,0
265,148,11416,5,0
247,236,11417,5,0
276,154,11418,5,0
236,230,11419,5,0
285,163,11420,5,0
227,221,11421,5,0
290,174,11422,5,0
222,210,11423,5,0
292,186,11424,5,0
220,198,11425,5,0
290,199,11426,5,0
222,185,11427,5,0
284,210,11428,5,0
228,174,11429,5,0
275,218,11430,5,0
237,166,11431,5,0
263,221,11432,5,0
249,163,11433,5,0
250,220,11434,5,0
262,164,11435,5,0
239,213,11436,5,0
273,171,11437,5,0
330,369,11438,5,0
182,15,11439,5,0
317,364,11440,5,0
195,20,11441,5,0
304,359,11442,5,0
208,25,11443,5,0
292,353,11444,5,0
220,31,11445,5,0
280,347,11446,5,0
232,37,11447,5,0
268,341,11448,5,0
244,43,11449,5,0
257,334,11450,5,0
255,50,11451,5,0
246,327,11452,5,0
266,57,11453,5,0
236,319,11454,5,0
276,65,11455,5,0
227,311,11456,5,0
285,73,11457,5,0
218,302,11458,5,0
294,82,11459,5,0
209,293,11460,5,0
303,91,11461,5,0
202,283,11462,5,0
310,101,11463,5,0
196,272,11464,5,0
316,112,11465,5,0
190,261,11466,5,0
322,123,11467,5,0
186,250,11468,5,0
326,134,11469,5,0
183,238,11470,5,0
329,146,11471,5,0
181,226,11472,5,0
331,158,11473,5,0
181,214,11474,5,0
331,170,11475,5,0
182,201,11476,5,0
330,183,11477,5,0
185,190,11478,5,0
327,194,11479,5,0
190,178,11480,5,0
322,206,11481,5,0
197,168,11482,5,0
315,216,11483,5,0
205,159,11484,5,0
307,225,11485,5,0
214,152,11486,5,0
298,232,11487,5,0
225,146,11488,5,0
287,238,11489,5,0
237,143,11490,5,0
275,241,11491,5,0
249,143,11492,5,0
263,241,11493,5,0
262,145,11494,5,0
250,239,11495,5,0
273,150,11496,5,0
239,234,11497,5,0
282,158,11498,5,0
230,226,11499,5,0
289,168,11500,5,0
223,216,11501,5,0
293,180,11502,5,0
219,204,11503,5,0
293,193,11504,5,0
219,191,11505,5,0
289,204,11506,5,0
223,180,11507,5,0
281,214,11508,5,0
231,170,11509,5,0
270,221,11510,5,0
242,163,11511,5,0
257,222,11512,5,0
255,162,11513,5,0
245,219,11514,5,0
267,165,11515,5,0
236,210,11516,5,0
276,174,11517,5,0
298,379,11518,5,0
214,5,11519,5,0
286,372,11520,5,0
226,12,11521,5,0
274,365,11522,5,0
238,19,11523,5,0
263,357,11524,5,0
249,27,11525,5,0
252,349,11526,5,0
260,35,11527,5,0
242,341,11528,5,0
270,43,11529,5,0
232,332,11530,5,0
280,52,11531,5,0
223,323,11532,5,0
289,61,11533,5,0
214,314,11534,5,0
298,70,11535,5,0
206,304,11536,5,0
306,80,11537,5,0
199,294,11538,5,0
313,90,11539,5,0
193,283,11540,5,0
319,101,11541,5,0
187,272,11542,5,0
325,112,11543,5,0
183,260,11544,5,0
329,124,11545,5,0
179,249,11546,5,0
333,135,11547,5,0
177,237,11548,5,0
335,147,11549,5,0
176,224,11550,5,0
336,160,11551,5,0
176,212,11552,5,0
336,172,11553,5,0
178,200,11554,5,0
334,184,11555,5,0
182,189,11556,5,0
330,195,11557,5,0
187,177,11558,5,0
325,207,11559,5,0
194,167,11560,5,0
318,217,11561,5,0
202,158,11562,5,0
310,226,11563,5,0
211,151,11564,5,0
301,233,11565,5,0
222,145,11566,5,0
290,239,11567,5,0
234,142,11568,5,0
278,242,11569,5,0
246,141,11570,5,0
266,243,11571,5,0
258,142,11572,5,0
254,242,11573,5,0
270,147,11574,5,0
242,237,11575,5,0
280,154,11576,5,0
232,230,11577,5,0
288,163,11578,5,0
224,221,11579,5,0
293,174,11580,5,0
219,210,11581,5,0
294,187,11582,5,0
218,197,11583,5,0
292,199,11584,5,0
220,185,11585,5,0
286,210,11586,5,0
226,174,11587,5,0
277,218,11588,5,0
235,166,11589,5,0
265,222,11590,5,0
247,162,11591,5,0
252,222,11592,5,0
260,162,11593,5,0
241,216,11594,5,0
271,168,11595,5,0
233,206,11596,5,0
279,178,11597,5,0
265,384,11598,5,0
247,0,11599,5,0
254,375,11600,5,0
258,9,11601,5,0
244,365,11602,5,0
268,19,11603,5,0
234,356,11604,5,0
278,28,11605,5,0
225,346,11606,5,0
287,38,11607,5,0
216,336,11608,5,0
296,48,11609,5,0
208,326,11610,5,0
304,58,11611,5,0
201,315,11612,5,0
311,69,11613,5,0
194,305,11614,5,0
318,79,11615,5,0
188,294,11616,5,0
324,90,11617,5,0
182,282,11618,5,0
330,102,11619,5,0
178,271,11620,5,0
334,113,11621,5,0
174,259,11622,5,0
338,125,11623,5,0
172,247,11624,5,0
340,137,11625,5,0
171,234,11626,5,0
341,150,11627,5,0
170,222,11628,5,0
342,162,11629,5,0
172,210,11630,5,0
340,174,11631,5,0
174,198,11632,5,0
338,186,11633,5,0
178,187,11634,5,0
334,197,11635,5,0
184,176,11636,5,0
328,208,11637,5,0
190,166,11638,5,0
322,218,11639,5,0
199,157,11640,5,0
313,227,11641,5,0
208,149,11642,5,0
304,235,11643,5,0
219,144,11644,5,0
293,240,11645,5,0
231,140,11646,5,0
281,244,11647,5,0
243,139,11648,5,0
269,245,11649,5,0
255,140,11650,5,0
257,244,11651,5,0
267,143,11652,5,0
245,241,11653,5,0
277,150,11654,5,0
235,234,11655,5,0
286,158,11656,5,0
226,226,11657,5,0
292,169,11658,5,0
220,215,11659,5,0
295,181,11660,5,0
217,203,11661,5,0
295,194,11662,5,0
217,190,11663,5,0
290,205,11664,5,0
222,179,11665,5,0
283,215,11666,5,0
229,169,11667,5,0
272,221,11668,5,0
240,163,11669,5,0
259,224,11670,5,0
253,160,11671,5,0
247,221,11672,5,0
265,163,11673,5,0
237,213,11674,5,0
275,171,11675,5,0
231,202,11676,5,0
281,182,11677,5,0
232,382,11678,5,0
280,2,11679,5,0
223,372,11680,5,0
289,12,11681,5,0
214,361,11682,5,0
298,23,11683,5,0
206,350,11684,5,0
306,34,11685,5,0
199,338,11686,5,0
313,46,11687,5,0
192,327,11688,5,0
320,57,11689,5,0
186,316,11690,5,0
326,68,11691,5,0
180,304,11692,5,0
332,80,11693,5,0
175,292,11694,5,0
337,92,11695,5,0
171,280,11696,5,0
341,104,11697,5,0
168,268,11698,5,0
344,116,11699,5,0
165,256,11700,5,0
347,128,11701,5,0
164,243,11702,5,0
348,141,11703,5,0
164,231,11704,5,0
348,153,11705,5,0
165,219,11706,5,0
347,165,11707,5,0
167,207,11708,5,0
345,177,11709,5,0
170,195,11710,5,0
342,189,11711,5,0
174,184,11712,5,0
338,200,11713,5,0
180,173,11714,5,0
332,211,11715,5,0
187,163,11716,5,0
325,221,11717,5,0
196,155,11718,5,0
316,229,11719,5,0
206,147,11720,5,0
306,237,11721,5,0
217,142,11722,5,0
295,242,11723,5,0
228,138,11724,5,0
284,246,11725,5,0
240,136,11726,5,0
272,248,11727,5,0
252,137,11728,5,0
260,247,11729,5,0
264,140,11730,5,0
248,244,11731,5,0
275,146,11732,5,0
237,238,11733,5,0
284,154,11734,5,0
228,230,11735,5,0
291,164,11736,5,0
221,220,11737,5,0
296,176,11738,5,0
216,208,11739,5,0
297,188,11740,5,0
215,196,11741,5,0
294,200,11742,5,0
218,184,11743,5,0
288,211,11744,5,0
224,173,11745,5,0
278,219,11746,5,0
234,165,11747,5,0
266,224,11748,5,0
246,160,11749,5,0
254,224,11750,5,0
258,160,11751,5,0
242,219,11752,5,0
270,165,11753,5,0
233,210,11754,5,0
279,174,11755,5,0
229,198,11756,5,0
283,186,11757,5,0
199,375,11758,5,0
313,9,11759,5,0
192,363,11760,5,0
320,21,11761,5,0
185,351,11762,5,0
327,33,11763,5,0
180,339,11764,5,0
332,45,11765,5,0
174,326,11766,5,0
338,58,11767,5,0
169,314,11768,5,0
343,70,11769,5,0
165,301,11770,5,0
347,83,11771,5,0
162,289,11772,5,0
350,95,11773,5,0
159,277,11774,5,0
353,107,11775,5,0
157,264,11776,5,0
355,120,11777,5,0
156,252,11778,5,0
356,132,11779,5,0
156,239,11780,5,0
356,145,11781,5,0
157,227,11782,5,0
355,157,11783,5,0
158,215,11784,5,0
354,169,11785,5,0
161,203,11786,5,0
351,181,11787,5,0
165,191,11788,5,0
347,193,11789,5,0
171,180,11790,5,0
341,204,11791,5,0
177,170,11792,5,0
335,214,11793,5,0
185,160,11794,5,0
327,224,11795,5,0
194,152,11796,5,0
318,232,11797,5,0
203,145,11798,5,0
309,239,11799,5,0
214,139,11800,5,0
298,245,11801,5,0
226,136,11802,5,0
286,248,11803,5,0
238,134,11804,5,0
274,250,11805,5,0
250,134,11806,5,0
262,250,11807,5,0
262,137,11808,5,0
250,247,11809,5,0
273,143,11810,5,0
239,241,11811,5,0
283,150,11812,5,0
229,234,11813,5,0
290,160,11814,5,0
222,224,11815,5,0
296,171,11816,5,0
216,213,11817,5,0
298,183,11818,5,0
214,201,11819,5,0
297,195,11820,5,0
215,189,11821,5,0
292,207,11822,5,0
220,177,11823,5,0
284,216,11824,5,0
228,168,11825,5,0
273,223,11826,5,0
239,161,11827,5,0
261,225,11828,5,0
251,159,11829,5,0
248,223,11830,5,0
264,161,11831,5,0
238,216,11832,5,0
274,168,11833,5,0
231,205,11834,5,0
281,179,11835,5,0
229,193,11836,5,0
283,191,11837,5,0
168,363,11838,5,0
344,21,11839,5,0
163,349,11840,5,0
349,35,11841,5,0
159,336,11842,5,0
353,48,11843,5,0
155,323,11844,5,0
357,61,11845,5,0
152,310,11846,5,0
360,74,11847,5,0
150,297,11848,5,0
362,87,11849,5,0
148,284,11850,5,0
364,100,11851,5,0
146,271,11852,5,0
366,113,11853,5,0
146,258,11854,5,0
366,126,11855,5,0
146,246,11856,5,0
366,138,11857,5,0
147,233,11858,5,0
365,151,11859,5,0
149,221,11860,5,0
363,163,11861,5,0
152,209,11862,5,0
360,175,11863,5,0
156,197,11864,5,0
356,187,11865,5,0
161,186,11866,5,0
351,198,11867,5,0
167,175,11868,5,0
345,209,11869,5,0
174,165,11870,5,0
338,219,11871,5,0
182,156,11872,5,0
330,228,11873,5,0
191,148,11874,5,0
321,236,11875,5,0
201,142,11876,5,0
311,242,11877,5,0
212,136,11878,5,0
300,248,11879,5,0
224,133,11880,5,0
288,251,11881,5,0
236,131,11882,5,0
276,253,11883,5,0
248,132,11884,5,0
264,252,11885,5,0
260,134,11886,5,0
252,250,11887,5,0
271,139,11888,5,0
241,245,11889,5,0
281,146,11890,5,0
231,238,11891,5,0
290,155,11892,5,0
222,229,11893,5,0
296,166,11894,5,0
216,218,11895,5,0
299,178,11896,5,0
213,206,11897,5,0
299,190,11898,5,0
213,194,11899,5,0
295,202,11900,5,0
217,182,11901,5,0
289,213,11902,5,0
223,171,11903,5,0
279,221,11904,5,0
233,163,11905,5,0
267,225,11906,5,0
245,159,11907,5,0
255,225,11908,5,0
257,159,11909,5,0
243,221,11910,5,0
269,163,11911,5,0
234,212,11912,5,0
278,172,11913,5,0
229,201,11914,5,0
283,183,11915,5,0
229,188,11916,5,0
283,196,11917,5,0
140,345,11918,5,0
372,39,11919,5,0
137,331,11920,5,0
375,53,11921,5,0
135,317,11922,5,0
377,67,11923,5,0
134,304,11924,5,0
378,80,11925,5,0
133,290,11926,5,0
379,94,11927,5,0
133,277,11928,5,0
379,107,11929,5,0
133,264,11930,5,0
379,120,11931,5,0
134,251,11932,5,0
378,133,11933,5,0
136,238,11934,5,0
376,146,11935,5,0
138,226,11936,5,0
374,158,11937,5,0
142,214,11938,5,0
370,170,11939,5,0
146,202,11940,5,0
366,182,11941,5,0
151,191,11942,5,0
361,193,11943,5,0
157,180,11944,5,0
355,204,11945,5,0
163,170,11946,5,0
349,214,11947,5,0
171,160,11948,5,0
341,224,11949,5,0
180,152,11950,5,0
332,232,11951,5,0
189,144,11952,5,0
323,240,11953,5,0
200,138,11954,5,0
312,246,11955,5,0
211,133,11956,5,0
301,251,11957,5,0
223,130,11958,5,0
289,254,11959,5,0
235,128,11960,5,0
277,256,11961,5,0
247,129,11962,5,0
265,255,11963,5,0
259,131,11964,5,0
253,253,11965,5,0
270,136,11966,5,0
242,248,11967,5,0
280,143,11968,5,0
232,241,11969,5,0
289,151,11970,5,0
223,233,11971,5,0
295,162,11972,5,0
217,222,11973,5,0
299,173,11974,5,0
213,211,11975,5,0
301,186,11976,5,0
211,198,11977,5,0
298,198,11978,5,0
214,186,11979,5,0
293,209,11980,5,0
219,175,11981,5,0
285,218,11982,5,0
227,166,11983,5,0
274,224,11984,5,0
238,160,11985,5,0
262,227,11986,5,0
250,157,11987,5,0
249,225,11988,5,0
263,159,11989,5,0
238,218,11990,5,0
274,166,11991,5,0
231,208,11992,5,0
281,176,11993,5,0
228,196,11994,5,0
284,188,11995,5,0
230,184,11996,5,0
282,200,11997,5,0
115,322,11998,5,0
397,62,11999,5,0
115,308,12000,5,0
397,76,12001,5,0
116,294,12002,5,0
396,90,12003,5,0
117,281,12004,5,0
395,103,12005,5,0
118,267,12006,5,0
394,117,12007,5,0
120,254,12008,5,0
392,130,12009,5,0
123,241,12010,5,0
389,143,12011,5,0
126,229,12012,5,0
386,155,12013,5,0
130,217,12014,5,0
382,167,12015,5,0
134,205,12016,5,0
378,179,12017,5,0
140,194,12018,5,0
372,190,12019,5,0
146,183,12020,5,0
366,201,12021,5,0
152,172,12022,5,0
360,212,12023,5,0
160,163,12024,5,0
352,221,12025,5,0
169,154,12026,5,0
343,230,12027,5,0
178,146,12028,5,0
334,238,12029,5,0
188,139,12030,5,0
324,245,12031,5,0
199,133,12032,5,0
313,251,12033,5,0
210,129,12034,5,0
302,255,12035,5,0
222,126,12036,5,0
290,258,12037,5,0
234,125,12038,5,0
278,259,12039,5,0
246,126,12040,5,0
266,258,12041,5,0
258,128,12042,5,0
254,256,12043,5,0
269,133,12044,5,0
243,251,12045,5,0
280,139,12046,5,0
232,245,12047,5,0
289,148,12048,5,0
223,236,12049,5,0
295,158,12050,5,0
217,226,12051,5,0
300,169,12052,5,0
212,215,12053,5,0
302,181,12054,5,0
210,203,12055,5,0
301,193,12056,5,0
211,191,12057,5,0
297,205,12058,5,0
215,179,12059,5,0
290,215,12060,5,0
222,169,12061,5,0
280,223,12062,5,0
232,161,12063,5,0
268,227,12064,5,0
244,157,12065,5,0
255,227,12066,5,0
257,157,12067,5,0
244,223,12068,5,0
268,161,12069,5,0
234,215,12070,5,0
278,169,12071,5,0
228,204,12072,5,0
284,180,12073,5,0
227,191,12074,5,0
285,193,12075,5,0
232,179,12076,5,0
280,205,12077,5,0
94,296,12078,5,0
418,88,12079,5,0
97,282,12080,5,0
415,102,12081,5,0
100,268,12082,5,0
412,116,12083,5,0
103,255,12084,5,0
409,129,12085,5,0
107,242,12086,5,0
405,142,12087,5,0
111,230,12088,5,0
401,154,12089,5,0
116,218,12090,5,0
396,166,12091,5,0
121,206,12092,5,0
391,178,12093,5,0
127,194,12094,5,0
385,190,12095,5,0
134,184,12096,5,0
378,200,12097,5,0
141,173,12098,5,0
371,211,12099,5,0
149,164,12100,5,0
363,220,12101,5,0
157,155,12102,5,0
355,229,12103,5,0
167,146,12104,5,0
345,238,12105,5,0
177,139,12106,5,0
335,245,12107,5,0
187,133,12108,5,0
325,251,12109,5,0
198,128,12110,5,0
314,256,12111,5,0
210,124,12112,5,0
302,260,12113,5,0
222,122,12114,5,0
290,262,12115,5,0
234,121,12116,5,0
278,263,12117,5,0
246,122,12118,5,0
266,262,12119,5,0
258,125,12120,5,0
254,259,12121,5,0
269,129,12122,5,0
243,255,12123,5,0
279,136,12124,5,0
233,248,12125,5,0
288,144,12126,5,0
224,240,12127,5,0
296,154,12128,5,0
216,230,12129,5,0
301,165,12130,5,0
211,219,12131,5,0
303,177,12132,5,0
209,207,12133,5,0
303,189,12134,5,0
209,195,12135,5,0
300,201,12136,5,0
212,183,12137,5,0
294,212,12138,5,0
218,172,12139,5,0
285,221,12140,5,0
227,163,12141,5,0
274,226,12142,5,0
238,158,12143,5,0
262,228,12144,5,0
250,156,12145,5,0
249,226,12146,5,0
263,158,12147,5,0
238,220,12148,5,0
274,164,12149,5,0
230,211,12150,5,0
282,173,12151,5,0
227,199,12152,5,0
285,185,12153,5,0
228,186,12154,5,0
284,198,12155,5,0
235,175,12156,5,0
277,209,12157,5,0
79,266,12158,5,0
433,118,12159,5,0
84,253,12160,5,0
428,131,12161,5,0
89,240,12162,5,0
423,144,12163,5,0
95,228,12164,5,0
417,156,12165,5,0
101,216,12166,5,0
411,168,12167,5,0
107,204,12168,5,0
405,180,12169,5,0
114,193,12170,5,0
398,191,12171,5,0
121,182,12172,5,0
391,202,12173,5,0
129,172,12174,5,0
383,212,12175,5,0
137,163,12176,5,0
375,221,12177,5,0
146,154,12178,5,0
366,230,12179,5,0
155,145,12180,5,0
357,239,12181,5,0
165,138,12182,5,0
347,246,12183,5,0
176,132,12184,5,0
336,252,12185,5,0
187,126,12186,5,0
325,258,12187,5,0
198,122,12188,5,0
314,262,12189,5,0
210,119,12190,5,0
302,265,12191,5,0
222,117,12192,5,0
290,267,12193,5,0
234,117,12194,5,0
278,267,12195,5,0
247,118,12196,5,0
265,266,12197,5,0
258,121,12198,5,0
254,263,12199,5,0
270,126,12200,5,0
242,258,12201,5,0
280,133,12202,5,0
232,251,12203,5,0
289,141,12204,5,0
223,243,12205,5,0
296,150,12206,5,0
216,234,12207,5,0
302,161,12208,5,0
210,223,12209,5,0
305,173,12210,5,0
207,211,12211,5,0
305,185,12212,5,0
207,199,12213,5,0
303,198,12214,5,0
209,186,12215,5,0
298,209,12216,5,0
214,175,12217,5,0
290,218,12218,5,0
222,166,12219,5,0
280,225,12220,5,0
232,159,12221,5,0
268,229,12222,5,0
244,155,12223,5,0
255,229,12224,5,0
257,155,12225,5,0
244,225,12226,5,0
268,159,12227,5,0
234,217,12228,5,0
278,167,12229,5,0
227,206,12230,5,0
285,178,12231,5,0
226,193,12232,5,0
286,191,12233,5,0
229,181,12234,5,0
283,203,12235,5,0
238,172,12236,5,0
274,212,12237,5,0
69,234,12238,5,0
443,150,12239,5,0
76,222,12240,5,0
436,162,12241,5,0
83,210,12242,5,0
429,174,12243,5,0
91,199,12244,5,0
421,185,12245,5,0
99,188,12246,5,0
413,196,12247,5,0
107,178,12248,5,0
405,206,12249,5,0
116,168,12250,5,0
396,216,12251,5,0
125,159,12252,5,0
387,225,12253,5,0
134,150,12254,5,0
378,234,12255,5,0
144,142,12256,5,0
368,242,12257,5,0
154,135,12258,5,0
358,249,12259,5,0
165,129,12260,5,0
347,255,12261,5,0
176,123,12262,5,0
336,261,12263,5,0
188,119,12264,5,0
324,265,12265,5,0
199,115,12266,5,0
313,269,12267,5,0
211,113,12268,5,0
301,271,12269,5,0
224,112,12270,5,0
288,272,12271,5,0
236,112,12272,5,0
276,272,12273,5,0
248,114,12274,5,0
264,270,12275,5,0
259,118,12276,5,0
253,266,12277,5,0
271,123,12278,5,0
241,261,12279,5,0
281,130,12280,5,0
231,254,12281,5,0
290,138,12282,5,0
222,246,12283,5,0
297,147,12284,5,0
215,237,12285,5,0
303,158,12286,5,0
209,226,12287,5,0
306,170,12288,5,0
206,214,12289,5,0
307,182,12290,5,0
205,202,12291,5,0
306,194,12292,5,0
206,190,12293,5,0
301,206,12294,5,0
211,178,12295,5,0
294,216,12296,5,0
218,168,12297,5,0
285,224,12298,5,0
227,160,12299,5,0
274,229,12300,5,0
238,155,12301,5,0
261,230,12302,5,0
251,154,12303,5,0
249,228,12304,5,0
263,156,12305,5,0
238,222,12306,5,0
274,162,12307,5,0
230,213,12308,5,0
282,171,12309,5,0
226,201,12310,5,0
286,183,12311,5,0
226,188,12312,5,0
286,196,12313,5,0
232,177,12314,5,0
280,207,12315,5,0
242,169,12316,5,0
270,215,12317,5,0
64,201,12318,5,0
448,183,12319,5,0
73,190,12320,5,0
439,194,12321,5,0
83,180,12322,5,0
429,204,12323,5,0
92,170,12324,5,0
420,214,12325,5,0
102,161,12326,5,0
410,223,12327,5,0
112,152,12328,5,0
400,232,12329,5,0
122,144,12330,5,0
390,240,12331,5,0
133,137,12332,5,0
379,247,12333,5,0
143,130,12334,5,0
369,254,12335,5,0
154,124,12336,5,0
358,260,12337,5,0
166,118,12338,5,0
346,266,12339,5,0
177,114,12340,5,0
335,270,12341,5,0
189,110,12342,5,0
323,274,12343,5,0
201,108,12344,5,0
311,276,12345,5,0
214,107,12346,5,0
298,277,12347,5,0
226,106,12348,5,0
286,278,12349,5,0
238,108,12350,5,0
274,276,12351,5,0
250,110,12352,5,0
262,274,12353,5,0
261,114,12354,5,0
251,270,12355,5,0
272,120,12356,5,0
240,264,12357,5,0
282,126,12358,5,0
230,258,12359,5,0
291,135,12360,5,0
221,249,12361,5,0
299,144,12362,5,0
213,240,12363,5,0
304,155,12364,5,0
208,229,12365,5,0
308,167,12366,5,0
204,217,12367,5,0
309,179,12368,5,0
203,205,12369,5,0
308,191,12370,5,0
204,193,12371,5,0
305,203,12372,5,0
207,181,12373,5,0
298,213,12374,5,0
214,171,12375,5,0
290,222,12376,5,0
222,162,12377,5,0
279,228,12378,5,0
233,156,12379,5,0
267,231,12380,5,0
245,153,12381,5,0
254,231,12382,5,0
258,153,12383,5,0
243,226,12384,5,0
269,158,12385,5,0
233,219,12386,5,0
279,165,12387,5,0
227,208,12388,5,0
285,176,12389,5,0
224,195,12390,5,0
288,189,12391,5,0
227,183,12392,5,0
285,201,12393,5,0
235,173,12394,5,0
277,211,12395,5,0
246,167,12396,5,0
266,217,12397,5,0
66,168,12398,5,0
446,216,12399,5,0
76,159,12400,5,0
436,225,12401,5,0
87,150,12402,5,0
425,234,12403,5,0
98,142,12404,5,0
414,242,12405,5,0
110,135,12406,5,0
402,249,12407,5,0
121,128,12408,5,0
391,256,12409,5,0
132,122,12410,5,0
380,262,12411,5,0
144,116,12412,5,0
368,268,12413,5,0
156,111,12414,5,0
356,273,12415,5,0
168,107,12416,5,0
344,277,12417,5,0
180,104,12418,5,0
332,280,12419,5,0
192,101,12420,5,0
320,283,12421,5,0
205,100,12422,5,0
307,284,12423,5,0
217,100,12424,5,0
295,284,12425,5,0
229,101,12426,5,0
283,283,12427,5,0
241,103,12428,5,0
271,281,12429,5,0
253,106,12430,5,0
259,278,12431,5,0
264,110,12432,5,0
248,274,12433,5,0
275,116,12434,5,0
237,268,12435,5,0
285,123,12436,5,0
227,261,12437,5,0
293,132,12438,5,0
219,252,12439,5,0
301,142,12440,5,0
211,242,12441,5,0
306,153,12442,5,0
206,231,12443,5,0
310,164,12444,5,0
202,220,12445,5,0
312,176,12446,5,0
200,208,12447,5,0
311,188,12448,5,0
201,196,12449,5,0
308,200,12450,5,0
204,184,12451,5,0
302,211,12452,5,0
210,173,12453,5,0
294,220,12454,5,0
218,164,12455,5,0
284,227,12456,5,0
228,157,12457,5,0
272,232,12458,5,0
240,152,12459,5,0
260,233,12460,5,0
252,151,12461,5,0
248,230,12462,5,0
264,154,12463,5,0
237,224,12464,5,0
275,160,12465,5,0
229,214,12466,5,0
283,170,12467,5,0
224,202,12468,5,0
288,182,12469,5,0
224,190,12470,5,0
288,194,12471,5,0
229,178,12472,5,0
283,206,12473,5,0
238,169,12474,5,0
274,215,12475,5,0
250,165,12476,5,0
262,219,12477,5,0
73,135,12478,5,0
439,249,12479,5,0
85,128,12480,5,0
427,256,12481,5,0
97,121,12482,5,0
415,263,12483,5,0
109,116,12484,5,0
403,268,12485,5,0
122,110,12486,5,0
390,274,12487,5,0
134,105,12488,5,0
378,279,12489,5,0
147,101,12490,5,0
365,283,12491,5,0
159,98,12492,5,0
353,286,12493,5,0
171,95,12494,5,0
341,289,12495,5,0
184,93,12496,5,0
328,291,12497,5,0
196,92,12498,5,0
316,292,12499,5,0
209,92,12500,5,0
303,292,12501,5,0
221,93,12502,5,0
291,291,12503,5,0
233,94,12504,5,0
279,290,12505,5,0
245,97,12506,5,0
267,287,12507,5,0
257,101,12508,5,0
255,283,12509,5,0
268,107,12510,5,0
244,277,12511,5,0
278,113,12512,5,0
234,271,12513,5,0
288,121,12514,5,0
224,263,12515,5,0
296,130,12516,5,0
216,254,12517,5,0
303,139,12518,5,0
209,245,12519,5,0
309,150,12520,5,0
203,234,12521,5,0
312,162,12522,5,0
200,222,12523,5,0
314,174,12524,5,0
198,210,12525,5,0
314,186,12526,5,0
198,198,12527,5,0
311,198,12528,5,0
201,186,12529,5,0
305,209,12530,5,0
207,175,12531,5,0
298,219,12532,5,0
214,165,12533,5,0
288,226,12534,5,0
224,158,12535,5,0
277,232,12536,5,0
235,152,12537,5,0
265,234,12538,5,0
247,150,12539,5,0
253,233,12540,5,0
259,151,12541,5,0
241,228,12542,5,0
271,156,12543,5,0
232,220,12544,5,0
280,164,12545,5,0
225,209,12546,5,0
287,175,12547,5,0
223,197,12548,5,0
289,187,12549,5,0
225,184,12550,5,0
287,200,12551,5,0
232,174,12552,5,0
280,210,12553,5,0
243,167,12554,5,0
269,217,12555,5,0
255,165,12556,5,0
257,219,12557,5,0
85,104,12558,5,0
427,280,12559,5,0
99,99,12560,5,0
413,285,12561,5,0
112,95,12562,5,0
400,289,12563,5,0
125,91,12564,5,0
387,293,12565,5,0
138,88,12566,5,0
374,296,12567,5,0
151,86,12568,5,0
361,298,12569,5,0
164,84,12570,5,0
348,300,12571,5,0
177,82,12572,5,0
335,302,12573,5,0
190,82,12574,5,0
322,302,12575,5,0
202,82,12576,5,0
310,302,12577,5,0
215,83,12578,5,0
297,301,12579,5,0
227,85,12580,5,0
285,299,12581,5,0
239,88,12582,5,0
273,296,12583,5,0
251,92,12584,5,0
261,292,12585,5,0
262,97,12586,5,0
250,287,12587,5,0
273,103,12588,5,0
239,281,12589,5,0
283,110,12590,5,0
229,274,12591,5,0
292,118,12592,5,0
220,266,12593,5,0
300,127,12594,5,0
212,257,12595,5,0
306,137,12596,5,0
206,247,12597,5,0
312,148,12598,5,0
200,236,12599,5,0
315,160,12600,5,0
197,224,12601,5,0
317,172,12602,5,0
195,212,12603,5,0
316,184,12604,5,0
196,200,12605,5,0
314,196,12606,5,0
198,188,12607,5,0
309,207,12608,5,0
203,177,12609,5,0
302,217,12610,5,0
210,167,12611,5,0
293,226,12612,5,0
219,158,12613,5,0
282,232,12614,5,0
230,152,12615,5,0
270,235,12616,5,0
242,149,12617,5,0
258,235,12618,5,0
254,149,12619,5,0
246,231,12620,5,0
266,153,12621,5,0
235,225,12622,5,0
277,159,12623,5,0
227,215,12624,5,0
285,169,12625,5,0
223,203,12626,5,0
289,181,12627,5,0
223,191,12628,5,0
289,193,12629,5,0
227,179,12630,5,0
285,205,12631,5,0
236,170,12632,5,0
276,214,12633,5,0
247,165,12634,5,0
265,219,12635,5,0
260,165,12636,5,0
252,219,12637,5,0
103,76,12638,5,0
409,308,12639,5,0
117,73,12640,5,0
395,311,12641,5,0
131,71,12642,5,0
381,313,12643,5,0
144,70,12644,5,0
368,314,12645,5,0
158,69,12646,5,0
354,315,12647,5,0
171,69,12648,5,0
341,315,12649,5,0
184,69,12650,5,0
328,315,12651,5,0
197,70,12652,5,0
315,314,12653,5,0
210,72,12654,5,0
302,312,12655,5,0
222,74,12656,5,0
290,310,12657,5,0
234,78,12658,5,0
278,306,12659,5,0
246,82,12660,5,0
266,302,12661,5,0
257,87,12662,5,0
255,297,12663,5,0
268,93,12664,5,0
244,291,12665,5,0
278,99,12666,5,0
234,285,12667,5,0
288,107,12668,5,0
224,277,12669,5,0
296,116,12670,5,0
216,268,12671,5,0
304,125,12672,5,0
208,259,12673,5,0
310,136,12674,5,0
202,248,12675,5,0
315,147,12676,5,0
197,237,12677,5,0
318,159,12678,5,0
194,225,12679,5,0
320,171,12680,5,0
192,213,12681,5,0
319,183,12682,5,0
193,201,12683,5,0
317,195,12684,5,0
195,189,12685,5,0
312,206,12686,5,0
200,178,12687,5,0
305,216,12688,5,0
207,168,12689,5,0
297,225,12690,5,0
215,159,12691,5,0
286,231,12692,5,0
226,153,12693,5,0
275,235,12694,5,0
237,149,12695,5,0
262,237,12696,5,0
250,147,12697,5,0
250,234,12698,5,0
262,150,12699,5,0
239,229,12700,5,0
273,155,12701,5,0
230,221,12702,5,0
282,163,12703,5,0
224,210,12704,5,0
288,174,12705,5,0
221,198,12706,5,0
291,186,12707,5,0
223,185,12708,5,0
289,199,12709,5,0
230,174,12710,5,0
282,210,12711,5,0
240,167,12712,5,0
272,217,12713,5,0
252,164,12714,5,0
260,220,12715,5,0
264,166,12716,5,0
248,218,12717,5,0
126,51,12718,5,0
386,333,12719,5,0
140,51,12720,5,0
372,333,12721,5,0
154,52,12722,5,0
358,332,12723,5,0
167,53,12724,5,0
345,331,12725,5,0
181,54,12726,5,0
331,330,12727,5,0
194,56,12728,5,0
318,328,12729,5,0
207,59,12730,5,0
305,325,12731,5,0
219,62,12732,5,0
293,322,12733,5,0
231,66,12734,5,0
281,318,12735,5,0
243,70,12736,5,0
269,314,12737,5,0
254,76,12738,5,0
258,308,12739,5,0
265,82,12740,5,0
247,302,12741,5,0
276,88,12742,5,0
236,296,12743,5,0
285,96,12744,5,0
227,288,12745,5,0
294,105,12746,5,0
218,279,12747,5,0
302,114,12748,5,0
210,270,12749,5,0
309,124,12750,5,0
203,260,12751,5,0
315,135,12752,5,0
197,249,12753,5,0
319,146,12754,5,0
193,238,12755,5,0
322,158,12756,5,0
190,226,12757,5,0
323,170,12758,5,0
189,214,12759,5,0
322,182,12760,5,0
190,202,12761,5,0
320,194,12762,5,0
192,190,12763,5,0
315,205,12764,5,0
197,179,12765,5,0
309,216,12766,5,0
203,168,12767,5,0
300,225,12768,5,0
212,159,12769,5,0
290,231,12770,5,0
222,153,12771,5,0
279,236,12772,5,0
233,148,12773,5,0
267,238,12774,5,0
245,146,12775,5,0
255,237,12776,5,0
257,147,12777,5,0
243,233,12778,5,0
269,151,12779,5,0
233,226,12780,5,0
279,158,12781,5,0
225,216,12782,5,0
287,168,12783,5,0
221,204,12784,5,0
291,180,12785,5,0
221,191,12786,5,0
291,193,12787,5,0
225,180,12788,5,0
287,204,12789,5,0
233,170,12790,5,0
279,214,12791,5,0
244,164,12792,5,0
268,220,12793,5,0
257,163,12794,5,0
255,221,12795,5,0
269,168,12796,5,0
243,216,12797,5,0
152,30,12798,5,0
360,354,12799,5,0
166,33,12800,5,0
346,351,12801,5,0
180,36,12802,5,0
332,348,12803,5,0
193,39,12804,5,0
319,345,12805,5,0
206,43,12806,5,0
306,341,12807,5,0
218,47,12808,5,0
294,337,12809,5,0
230,52,12810,5,0
282,332,12811,5,0
242,57,12812,5,0
270,327,12813,5,0
254,63,12814,5,0
258,321,12815,5,0
264,70,12816,5,0
248,314,12817,5,0
275,77,12818,5,0
237,307,12819,5,0
284,85,12820,5,0
228,299,12821,5,0
293,93,12822,5,0
219,291,12823,5,0
302,103,12824,5,0
210,281,12825,5,0
309,113,12826,5,0
203,271,12827,5,0
315,123,12828,5,0
197,261,12829,5,0
320,134,12830,5,0
192,250,12831,5,0
324,146,12832,5,0
188,238,12833,5,0
326,158,12834,5,0
186,226,12835,5,0
327,170,12836,5,0
185,214,12837,5,0
326,182,12838,5,0
186,202,12839,5,0
323,194,12840,5,0
189,190,12841,5,0
319,205,12842,5,0
193,179,12843,5,0
312,215,12844,5,0
200,169,12845,5,0
304,224,12846,5,0
208,160,12847,5,0
294,232,12848,5,0
218,152,12849,5,0
283,237,12850,5,0
229,147,12851,5,0
271,239,12852,5,0
241,145,12853,5,0
259,239,12854,5,0
253,145,12855,5,0
247,236,12856,5,0
265,148,12857,5,0
236,230,12858,5,0
276,154,12859,5,0
227,221,12860,5,0
285,163,12861,5,0
222,210,12862,5,0
290,174,12863,5,0
220,198,12864,5,0
292,186,12865,5,0
222,185,12866,5,0
290,199,12867,5,0
228,174,12868,5,0
284,210,12869,5,0
237,166,12870,5,0
275,218,12871,5,0
249,163,12872,5,0
263,221,12873,5,0
262,164,12874,5,0
250,220,12875,5,0
273,171,12876,5,0
239,213,12877,5,0
182,15,12878,5,0
330,369,12879,5,0
195,20,12880,5,0
317,364,12881,5,0
208,25,12882,5,0
304,359,12883,5,0
220,31,12884,5,0
292,353,12885,5,0
232,37,12886,5,0
280,347,12887,5,0
244,43,12888,5,0
268,341,12889,5,0
255,50,12890,5,0
257,334,12891,5,0
266,57,12892,5,0
246,327,12893,5,0
276,65,12894,5,0
236,319,12895,5,0
285,73,12896,5,0
227,311,12897,5,0
294,82,12898,5,0
218,302,12899,5,0
303,91,12900,5,0
209,293,12901,5,0
310,101,12902,5,0
202,283,12903,5,0
316,112,12904,5,0
196,272,12905,5,0
322,123,12906,5,0
190,261,12907,5,0
326,134,12908,5,0
186,250,12909,5,0
329,146,12910,5,0
183,238,12911,5,0
331,158,12912,5,0
181,226,12913,5,0
331,170,12914,5,0
181,214,12915,5,0
330,183,12916,5,0
182,201,12917,5,0
327,194,12918,5,0
185,190,12919,5,0
322,206,12920,5,0
190,178,12921,5,0
315,216,12922,5,0
197,168,12923,5,0
307,225,12924,5,0
205,159,12925,5,0
298,232,12926,5,0
214,152,12927,5,0
287,238,12928,5,0
225,146,12929,5,0
275,241,12930,5,0
237,143,12931,5,0
263,241,12932,5,0
249,143,12933,5,0
250,239,12934,5,0
262,145,12935,5,0
239,234,12936,5,0
273,150,12937,5,0
230,226,12938,5,0
282,158,12939,5,0
223,216,12940,5,0
289,168,12941,5,0
219,204,12942,5,0
293,180,12943,5,0
219,191,12944,5,0
293,193,12945,5,0
223,180,12946,5,0
289,204,12947,5,0
231,170,12948,5,0
281,214,12949,5,0
242,163,12950,5,0
270,221,12951,5,0
255,162,12952,5,0
257,222,12953,5,0
267,165,12954,5,0
245,219,12955,5,0
276,174,12956,5,0
236,210,12957,5,0
214,5,12958,5,0
298,379,12959,5,0
226,12,12960,5,0
286,372,12961,5,0
238,19,12962,5,0
274,365,12963,5,0
249,27,12964,5,0
263,357,12965,5,0
260,35,12966,5,0
252,349,12967,5,0
270,43,12968,5,0
242,341,12969,5,0
280,52,12970,5,0
232,332,12971,5,0
289,61,12972,5,0
223,323,12973,5,0
298,70,12974,5,0
214,314,12975,5,0
306,80,12976,5,0
206,304,12977,5,0
313,90,12978,5,0
199,294,12979,5,0
319,101,12980,5,0
193,283,12981,5,0
325,112,12982,5,0
187,272,12983,5,0
329,124,12984,5,0
183,260,12985,5,0
333,135,12986,5,0
179,249,12987,5,0
335,147,12988,5,0
177,237,12989,5,0
336,160,12990,5,0
176,224,12991,5,0
336,172,12992,5,0
176,212,12993,5,0
334,184,12994,5,0
178,200,12995,5,0
330,195,12996,5,0
182,189,12997,5,0
325,207,12998,5,0
187,177,12999,5,0
318,217,13000,5,0
194,167,13001,5,0
310,226,13002,5,0
202,158,13003,5,0
301,233,13004,5,0
211,151,13005,5,0
290,239,13006,5,0
222,145,13007,5,0
278,242,13008,5,0
234,142,13009,5,0
266,243,13010,5,0
246,141,13011,5,0
254,242,13012,5,0
258,142,13013,5,0
242,237,13014,5,0
270,147,13015,5,0
232,230,13016,5,0
280,154,13017,5,0
224,221,13018,5,0
288,163,13019,5,0
219,210,13020,5,0
293,174,13021,5,0
218,197,13022,5,0
294,187,13023,5,0
220,185,13024,5,0
292,199,13025,5,0
226,174,13026,5,0
286,210,13027,5,0
235,166,13028,5,0
277,218,13029,5,0
247,162,13030,5,0
265,222,13031,5,0
260,162,13032,5,0
252,222,13033,5,0
271,168,13034,5,0
241,216,13035,5,0
279,178,13036,5,0
233,206,13037,5,0
247,0,13038,5,0
265,384,13039,5,0
258,9,13040,5,0
254,375,13041,5,0
268,19,13042,5,0
244,365,13043,5,0
278,28,13044,5,0
234,356,13045,5,0
287,38,13046,5,0
225,346,13047,5,0
296,48,13048,5,0
216,336,13049,5,0
304,58,13050,5,0
208,326,13051,5,0
311,69,13052,5,0
201,315,13053,5,0
318,79,13054,5,0
194,305,13055,5,0
324,90,13056,5,0
188,294,13057,5,0
330,102,13058,5,0
182,282,13059,5,0
334,113,13060,5,0
178,271,13061,5,0
338,125,13062,5,0
174,259,13063,5,0
340,137,13064,5,0
172,247,13065,5,0
341,150,13066,5,0
171,234,13067,5,0
342,162,13068,5,0
170,222,13069,5,0
340,174,13070,5,0
172,210,13071,5,0
338,186,13072,5,0
174,198,13073,5,0
334,197,13074,5,0
178,187,13075,5,0
328,208,13076,5,0
184,176,13077,5,0
322,218,13078,5,0
190,166,13079,5,0
313,227,13080,5,0
199,157,13081,5,0
304,235,13082,5,0
208,149,13083,5,0
293,240,13084,5,0
219,144,13085,5,0
281,244,13086,5,0
231,140,13087,5,0
269,245,13088,5,0
243,139,13089,5,0
257,244,13090,5,0
255,140,13091,5,0
245,241,13092,5,0
267,143,13093,5,0
235,234,13094,5,0
277,150,13095,5,0
226,226,13096,5,0
286,158,13097,5,0
220,215,13098,5,0
292,169,13099,5,0
217,203,13100,5,0
295,181,13101,5,0
217,190,13102,5,0
295,194,13103,5,0
222,179,13104,5,0
290,205,13105,5,0
229,169,13106,5,0
283,215,13107,5,0
240,163,13108,5,0
272,221,13109,5,0
253,160,13110,5,0
259,224,13111,5,0
265,163,13112,5,0
247,221,13113,5,0
275,171,13114,5,0
237,213,13115,5,0
281,182,13116,5,0
231,202,13117,5,0
280,2,13118,5,0
232,382,13119,5,0
289,12,13120,5,0
223,372,13121,5,0
298,23,13122,5,0
214,361,13123,5,0
306,34,13124,5,0
206,350,13125,5,0
313,46,13126,5,0
199,338,13127,5,0
320,57,13128,5,0
192,327,13129,5,0
326,68,13130,5,0
186,316,13131,5,0
332,80,13132,5,0
180,304,13133,5,0
337,92,13134,5,0
175,292,13135,5,0
341,104,13136,5,0
171,280,13137,5,0
344,116,13138,5,0
168,268,13139,5,0
347,128,13140,5,0
165,256,13141,5,0
348,141,13142,5,0
164,243,13143,5,0
348,153,13144,5,0
164,231,13145,5,0
347,165,13146,5,0
165,219,13147,5,0
345,177,13148,5,0
167,207,13149,5,0
342,189,13150,5,0
170,195,13151,5,0
338,200,13152,5,0
174,184,13153,5,0
332,211,13154,5,0
180,173,13155,5,0
325,221,13156,5,0
187,163,13157,5,0
316,229,13158,5,0
196,155,13159,5,0
306,237,13160,5,0
206,147,13161,5,0
295,242,13162,5,0
217,142,13163,5,0
284,246,13164,5,0
228,138,13165,5,0
272,248,13166,5,0
240,136,13167,5,0
260,247,13168,5,0
252,137,13169,5,0
248,244,13170,5,0
264,140,13171,5,0
237,238,13172,5,0
275,146,13173,5,0
228,230,13174,5,0
284,154,13175,5,0
221,220,13176,5,0
291,164,13177,5,0
216,208,13178,5,0
296,176,13179,5,0
215,196,13180,5,0
297,188,13181,5,0
218,184,13182,5,0
294,200,13183,5,0
224,173,13184,5,0
288,211,13185,5,0
234,165,13186,5,0
278,219,13187,5,0
246,160,13188,5,0
266,224,13189,5,0
258,160,13190,5,0
254,224,13191,5,0
270,165,13192,5,0
242,219,13193,5,0
279,174,13194,5,0
233,210,13195,5,0
283,186,13196,5,0
229,198,13197,5,0
313,9,13198,5,0
199,375,13199,5,0
320,21,13200,5,0
192,363,13201,5,0
327,33,13202,5,0
185,351,13203,5,0
332,45,13204,5,0
180,339,13205,5,0
338,58,13206,5,0
174,326,13207,5,0
343,70,13208,5,0
169,314,13209,5,0
347,83,13210,5,0
165,301,13211,5,0
350,95,13212,5,0
162,289,13213,5,0
353,107,13214,5,0
159,277,13215,5,0
355,120,13216,5,0
157,264,13217,5,0
356,132,13218,5,0
156,252,13219,5,0
356,145,13220,5,0
156,239,13221,5,0
355,157,13222,5,0
157,227,13223,5,0
354,169,13224,5,0
158,215,13225,5,0
351,181,13226,5,0
161,203,13227,5,0
347,193,13228,5,0
165,191,13229,5,0
341,204,13230,5,0
171,180,13231,5,0
335,214,13232,5,0
177,170,13233,5,0
327,224,13234,5,0
185,160,13235,5,0
318,232,13236,5,0
194,152,13237,5,0
309,239,13238,5,0
203,145,13239,5,0
298,245,13240,5,0
214,139,13241,5,0
286,248,13242,5,0
226,136,13243,5,0
274,250,13244,5,0
238,134,13245,5,0
262,250,13246,5,0
250,134,13247,5,0
250,247,13248,5,0
262,137,13249,5,0
239,241,13250,5,0
273,143,13251,5,0
229,234,13252,5,0
283,150,13253,5,0
222,224,13254,5,0
290,160,13255,5,0
216,213,13256,5,0
296,171,13257,5,0
214,201,13258,5,0
298,183,13259,5,0
215,189,13260,5,0
297,195,13261,5,0
220,177,13262,5,0
292,207,13263,5,0
228,168,13264,5,0
284,216,13265,5,0
239,161,13266,5,0
273,223,13267,5,0
251,159,13268,5,0
261,225,13269,5,0
264,161,13270,5,0
248,223,13271,5,0
274,168,13272,5,0
238,216,13273,5,0
281,179,13274,5,0
231,205,13275,5,0
283,191,13276,5,0
229,193,13277,5,0
344,21,13278,5,0
168,363,13279,5,0
349,35,13280,5,0
163,349,13281,5,0
353,48,13282,5,0
159,336,13283,5,0
357,61,13284,5,0
155,323,13285,5,0
360,74,13286,5,0
152,310,13287,5,0
362,87,13288,5,0
150,297,13289,5,0
364,100,13290,5,0
148,284,13291,5,0
366,113,13292,5,0
146,271,13293,5,0
366,126,13294,5,0
146,258,13295,5,0
366,138,13296,5,0
146,246,13297,5,0
365,151,13298,5,0
147,233,13299,5,0
363,163,13300,5,0
149,221,13301,5,0
360,175,13302,5,0
152,209,13303,5,0
356,187,13304,5,0
156,197,13305,5,0
351,198,13306,5,0
161,186,13307,5,0
345,209,13308,5,0
167,175,13309,5,0
338,219,13310,5,0
174,165,13311,5,0
330,228,13312,5,0
182,156,13313,5,0
321,236,13314,5,0
191,148,13315,5,0
311,242,13316,5,0
201,142,13317,5,0
300,248,13318,5,0
212,136,13319,5,0
288,251,13320,5,0
224,133,13321,5,0
276,253,13322,5,0
236,131,13323,5,0
264,252,13324,5,0
248,132,13325,5,0
252,250,13326,5,0
260,134,13327,5,0
241,245,13328,5,0
271,139,13329,5,0
231,238,13330,5,0
281,146,13331,5,0
222,229,13332,5,0
290,155,13333,5,0
216,218,13334,5,0
296,166,13335,5,0
213,206,13336,5,0
299,178,13337,5,0
213,194,13338,5,0
299,190,13339,5,0
217,182,13340,5,0
295,202,13341,5,0
223,171,13342,5,0
289,213,13343,5,0
233,163,13344,5,0
279,221,13345,5,0
245,159,13346,5,0
267,225,13347,5,0
257,159,13348,5,0
255,225,13349,5,0
269,163,13350,5,0
243,221,13351,5,0
278,172,13352,5,0
234,212,13353,5,0
283,183,13354,5,0
229,201,13355,5,0
283,196,13356,5,0
229,188,13357,5,0
372,39,13358,5,0
140,345,13359,5,0
375,53,13360,5,0
137,331,13361,5,0
377,67,13362,5,0
135,317,13363,5,0
378,80,13364,5,0
134,304,13365,5,0
379,94,13366,5,0
133,290,13367,5,0
379,107,13368,5,0
133,277,13369,5,0
379,120,13370,5,0
133,264,13371,5,0
378,133,13372,5,0
134,251,13373,5,0
376,146,13374,5,0
136,238,13375,5,0
374,158,13376,5,0
138,226,13377,5,0
370,170,13378,5,0
142,214,13379,5,0
366,182,13380,5,0
146,202,13381,5,0
361,193,13382,5,0
151,191,13383,5,0
355,204,13384,5,0
157,180,13385,5,0
349,214,13386,5,0
163,170,13387,5,0
341,224,13388,5,0
171,160,13389,5,0
332,232,13390,5,0
180,152,13391,5,0
323,240,13392,5,0
189,144,13393,5,0
312,246,13394,5,0
200,138,13395,5,0
301,251,13396,5,0
211,133,13397,5,0
289,254,13398,5,0
223,130,13399,5,0
277,256,13400,5,0
235,128,13401,5,0
265,255,13402,5,0
247,129,13403,5,0
253,253,13404,5,0
259,131,13405,5,0
242,248,13406,5,0
270,136,13407,5,0
232,241,13408,5,0
280,143,13409,5,0
223,233,13410,5,0
289,151,13411,5,0
217,222,13412,5,0
295,162,13413,5,0
213,211,13414,5,0
299,173,13415,5,0
211,198,13416,5,0
301,186,13417,5,0
214,186,13418,5,0
298,198,13419,5,0
219,175,13420,5,0
293,209,13421,5,0
227,166,13422,5,0
285,218,13423,5,0
238,160,13424,5,0
274,224,13425,5,0
250,157,13426,5,0
262,227,13427,5,0
263,159,13428,5,0
249,225,13429,5,0
274,166,13430,5,0
238,218,13431,5,0
281,176,13432,5,0
231,208,13433,5,0
284,188,13434,5,0
228,196,13435,5,0
282,200,13436,5,0
230,184,13437,5,0
397,62,13438,5,0
115,322,13439,5,0
397,76,13440,5,0
115,308,13441,5,0
396,90,13442,5,0
116,294,13443,5,0
395,103,13444,5,0
117,281,13445,5,0
394,117,13446,5,0
118,267,13447,5,0
392,130,13448,5,0
120,254,13449,5,0
389,143,13450,5,0
123,241,13451,5,0
386,155,13452,5,0
126,229,13453,5,0
382,167,13454,5,0
130,217,13455,5,0
378,179,13456,5,0
134,205,13457,5,0
372,190,13458,5,0
140,194,13459,5,0
366,201,13460,5,0
146,183,13461,5,0
360,212,13462,5,0
152,172,13463,5,0
352,221,13464,5,0
160,163,13465,5,0
343,230,13466,5,0
169,154,13467,5,0
334,238,13468,5,0
178,146,13469,5,0
324,245,13470,5,0
188,139,13471,5,0
313,251,13472,5,0
199,133,13473,5,0
302,255,13474,5,0
210,129,13475,5,0
290,258,13476,5,0
222,126,13477,5,0
278,259,13478,5,0
234,125,13479,5,0
266,258,13480,5,0
246,126,13481,5,0
254,256,13482,5,0
258,128,13483,5,0
243,251,13484,5,0
269,133,13485,5,0
232,245,13486,5,0
280,139,13487,5,0
223,236,13488,5,0
289,148,13489,5,0
217,226,13490,5,0
295,158,13491,5,0
212,215,13492,5,0
300,169,13493,5,0
210,203,13494,5,0
302,181,13495,5,0
211,191,13496,5,0
301,193,13497,5,0
215,179,13498,5,0
297,205,13499,5,0
222,169,13500,5,0
290,215,13501,5,0
232,161,13502,5,0
280,223,13503,5,0
244,157,13504,5,0
268,227,13505,5,0
257,157,13506,5,0
255,227,13507,5,0
268,161,13508,5,0
244,223,13509,5,0
278,169,13510,5,0
234,215,13511,5,0
284,180,13512,5,0
228,204,13513,5,0
285,193,13514,5,0
227,191,13515,5,0
280,205,13516,5,0
232,179,13517,5,0
418,88,13518,5,0
94,296,13519,5,0
415,102,13520,5,0
97,282,13521,5,0
412,116,13522,5,0
100,268,13523,5,0
409,129,13524,5,0
103,255,13525,5,0
405,142,13526,5,0
107,242,13527,5,0
401,154,13528,5,0
111,230,13529,5,0
396,166,13530,5,0
116,218,13531,5,0
391,178,13532,5,0
121,206,13533,5,0
385,190,13534,5,0
127,194,13535,5,0
378,200,13536,5,0
134,184,13537,5,0
371,211,13538,5,0
141,173,13539,5,0
363,220,13540,5,0
149,164,13541,5,0
355,229,13542,5,0
157,155,13543,5,0
345,238,13544,5,0
167,146,13545,5,0
335,245,13546,5,0
177,139,13547,5,0
325,251,13548,5,0
187,133,13549,5,0
314,256,13550,5,0
198,128,13551,5,0
302,260,13552,5,0
210,124,13553,5,0
290,262,13554,5,0
222,122,13555,5,0
278,263,13556,5,0
234,121,13557,5,0
266,262,13558,5,0
246,122,13559,5,0
254,259,13560,5,0
258,125,13561,5,0
243,255,13562,5,0
269,129,13563,5,0
233,248,13564,5,0
279,136,13565,5,0
224,240,13566,5,0
288,144,13567,5,0
216,230,13568,5,0
296,154,13569,5,0
211,219,13570,5,0
301,165,13571,5,0
209,207,13572,5,0
303,177,13573,5,0
209,195,13574,5,0
303,189,13575,5,0
212,183,13576,5,0
300,201,13577,5,0
218,172,13578,5,0
294,212,13579,5,0
227,163,13580,5,0
285,221,13581,5,0
238,158,13582,5,0
274,226,13583,5,0
250,156,13584,5,0
262,228,13585,5,0
263,158,13586,5,0
249,226,13587,5,0
274,164,13588,5,0
238,220,13589,5,0
282,173,13590,5,0
230,211,13591,5,0
285,185,13592,5,0
227,199,13593,5,0
284,198,13594,5,0
228,186,13595,5,0
277,209,13596,5,0
235,175,13597,5,0
433,118,13598,5,0
79,266,13599,5,0
428,131,13600,5,0
84,253,13601,5,0
423,144,13602,5,0
89,240,13603,5,0
417,156,13604,5,0
95,228,13605,5,0
411,168,13606,5,0
101,216,13607,5,0
405,180,13608,5,0
107,204,13609,5,0
398,191,13610,5,0
114,193,13611,5,0
391,202,13612,5,0
121,182,13613,5,0
383,212,13614,5,0
129,172,13615,5,0
375,221,13616,5,0
137,163,13617,5,0
366,230,13618,5,0
146,154,13619,5,0
357,239,13620,5,0
155,145,13621,5,0
347,246,13622,5,0
165,138,13623,5,0
336,252,13624,5,0
176,132,13625,5,0
325,258,13626,5,0
187,126,13627,5,0
314,262,13628,5,0
198,122,13629,5,0
302,265,13630,5,0
210,119,13631,5,0
290,267,13632,5,0
222,117,13633,5,0
278,267,13634,5,0
234,117,13635,5,0
265,266,13636,5,0
247,118,13637,5,0
254,263,13638,5,0
258,121,13639,5,0
242,258,13640,5,0
270,126,13641,5,0
232,251,13642,5,0
280,133,13643,5,0
223,243,13644,5,0
289,141,13645,5,0
216,234,13646,5,0
296,150,13647,5,0
210,223,13648,5,0
302,161,13649,5,0
207,211,13650,5,0
305,173,13651,5,0
207,199,13652,5,0
305,185,13653,5,0
209,186,13654,5,0
303,198,13655,5,0
214,175,13656,5,0
298,209,13657,5,0
222,166,13658,5,0
290,218,13659,5,0
232,159,13660,5,0
280,225,13661,5,0
244,155,13662,5,0
268,229,13663,5,0
257,155,13664,5,0
255,229,13665,5,0
268,159,13666,5,0
244,225,13667,5,0
278,167,13668,5,0
234,217,13669,5,0
285,178,13670,5,0
227,206,13671,5,0
286,191,13672,5,0
226,193,13673,5,0
283,203,13674,5,0
229,181,13675,5,0
274,212,13676,5,0
238,172,13677,5,0
443,150,13678,5,0
69,234,13679,5,0
436,162,13680,5,0
76,222,13681,5,0
429,174,13682,5,0
83,210,13683,5,0
421,185,13684,5,0
91,199,13685,5,0
413,196,13686,5,0
99,188,13687,5,0
405,206,13688,5,0
107,178,13689,5,0
396,216,13690,5,0
116,168,13691,5,0
387,225,13692,5,0
125,159,13693,5,0
378,234,13694,5,0
134,150,13695,5,0
368,242,13696,5,0
144,142,13697,5,0
358,249,13698,5,0
154,135,13699,5,0
347,255,13700,5,0
165,129,13701,5,0
336,261,13702,5,0
176,123,13703,5,0
324,265,13704,5,0
188,119,13705,5,0
313,269,13706,5,0
199,115,13707,5,0
301,271,13708,5,0
211,113,13709,5,0
288,272,13710,5,0
224,112,13711,5,0
276,272,13712,5,0
236,112,13713,5,0
264,270,13714,5,0
248,114,13715,5,0
253,266,13716,5,0
259,118,13717,5,0
241,261,13718,5,0
271,123,13719,5,0
231,254,13720,5,0
281,130,13721,5,0
222,246,13722,5,0
290,138,13723,5,0
215,237,13724,5,0
297,147,13725,5,0
209,226,13726,5,0
303,158,13727,5,0
206,214,13728,5,0
306,170,13729,5,0
205,202,13730,5,0
307,182,13731,5,0
206,190,13732,5,0
306,194,13733,5,0
211,178,13734,5,0
301,206,13735,5,0
218,168,13736,5,0
294,216,13737,5,0
227,160,13738,5,0
285,224,13739,5,0
238,155,13740,5,0
274,229,13741,5,0
251,154,13742,5,0
261,230,13743,5,0
263,156,13744,5,0
249,228,13745,5,0
274,162,13746,5,0
238,222,13747,5,0
282,171,13748,5,0
230,213,13749,5,0
286,183,13750,5,0
226,201,13751,5,0
286,196,13752,5,0
226,188,13753,5,0
280,207,13754,5,0
232,177,13755,5,0
270,215,13756,5,0
242,169,13757,5,0
448,183,13758,5,0
64,201,13759,5,0
439,194,13760,5,0
73,190,13761,5,0
429,204,13762,5,0
83,180,13763,5,0
420,214,13764,5,0
92,170,13765,5,0
410,223,13766,5,0
102,161,13767,5,0
400,232,13768,5,0
112,152,13769,5,0
390,240,13770,5,0
122,144,13771,5,0
379,247,13772,5,0
133,137,13773,5,0
369,254,13774,5,0
143,130,13775,5,0
358,260,13776,5,0
154,124,13777,5,0
346,266,13778,5,0
166,118,13779,5,0
335,270,13780,5,0
177,114,13781,5,0
323,274,13782,5,0
189,110,13783,5,0
311,276,13784,5,0
201,108,13785,5,0
298,277,13786,5,0
214,107,13787,5,0
286,278,13788,5,0
226,106,13789,5,0
274,276,13790,5,0
238,108,13791,5,0
262,274,13792,5,0
250,110,13793,5,0
251,270,13794,5,0
261,114,13795,5,0
240,264,13796,5,0
272,120,13797,5,0
230,258,13798,5,0
282,126,13799,5,0
221,249,13800,5,0
291,135,13801,5,0
213,240,13802,5,0
299,144,13803,5,0
208,229,13804,5,0
304,155,13805,5,0
204,217,13806,5,0
308,167,13807,5,0
203,205,13808,5,0
309,179,13809,5,0
204,193,13810,5,0
308,191,13811,5,0
207,181,13812,5,0
305,203,13813,5,0
214,171,13814,5,0
298,213,13815,5,0
222,162,13816,5,0
290,222,13817,5,0
233,156,13818,5,0
279,228,13819,5,0
245,153,13820,5,0
267,231,13821,5,0
258,153,13822,5,0
254,231,13823,5,0
269,158,13824,5,0
243,226,13825,5,0
279,165,13826,5,0
233,219,13827,5,0
285,176,13828,5,0
227,208,13829,5,0
288,189,13830,5,0
224,195,13831,5,0
285,201,13832,5,0
227,183,13833,5,0
277,211,13834,5,0
235,173,13835,5,0
266,217,13836,5,0
246,167,13837,5,0
446,216,13838,5,0
66,168,13839,5,0
436,225,13840,5,0
76,159,13841,5,0
425,234,13842,5,0
87,150,13843,5,0
414,242,13844,5,0
98,142,13845,5,0
402,249,13846,5,0
110,135,13847,5,0
391,256,13848,5,0
121,128,13849,5,0
380,262,13850,5,0
132,122,13851,5,0
368,268,13852,5,0
144,116,13853,5,0
356,273,13854,5,0
156,111,13855,5,0
344,277,13856,5,0
168,107,13857,5,0
332,280,13858,5,0
180,104,13859,5,0
320,283,13860,5,0
192,101,13861,5,0
307,284,13862,5,0
205,100,13863,5,0
295,284,13864,5,0
217,100,13865,5,0
283,283,13866,5,0
229,101,13867,5,0
271,281,13868,5,0
241,103,13869,5,0
259,278,13870,5,0
253,106,13871,5,0
248,274,13872,5,0
264,110,13873,5,0
237,268,13874,5,0
275,116,13875,5,0
227,261,13876,5,0
285,123,13877,5,0
219,252,13878,5,0
293,132,13879,5,0
211,242,13880,5,0
301,142,13881,5,0
206,231,13882,5,0
306,153,13883,5,0
202,220,13884,5,0
310,164,13885,5,0
200,208,13886,5,0
312,176,13887,5,0
201,196,13888,5,0
311,188,13889,5,0
204,184,13890,5,0
308,200,13891,5,0
210,173,13892,5,0
302,211,13893,5,0
218,164,13894,5,0
294,220,13895,5,0
228,157,13896,5,0
284,227,13897,5,0
240,152,13898,5,0
272,232,13899,5,0
252,151,13900,5,0
260,233,13901,5,0
264,154,13902,5,0
248,230,13903,5,0
275,160,13904,5,0
237,224,13905,5,0
283,170,13906,5,0
229,214,13907,5,0
288,182,13908,5,0
224,202,13909,5,0
288,194,13910,5,0
224,190,13911,5,0
283,206,13912,5,0
229,178,13913,5,0
274,215,13914,5,0
238,169,13915,5,0
262,219,13916,5,0
250,165,13917,5,0
439,249,13918,5,0
73,135,13919,5,0
427,256,13920,5,0
85,128,13921,5,0
415,263,13922,5,0
97,121,13923,5,0
403,268,13924,5,0
109,116,13925,5,0
390,274,13926,5,0
122,110,13927,5,0
378,279,13928,5,0
134,105,13929,5,0
365,283,13930,5,0
147,101,13931,5,0
353,286,13932,5,0
159,98,13933,5,0
341,289,13934,5,0
171,95,13935,5,0
328,291,13936,5,0
184,93,13937,5,0
316,292,13938,5,0
196,92,13939,5,0
303,292,13940,5,0
209,92,13941,5,0
291,291,13942,5,0
221,93,13943,5,0
279,290,13944,5,0
233,94,13945,5,0
267,287,13946,5,0
245,97,13947,5,0
255,283,13948,5,0
257,101,13949,5,0
244,277,13950,5,0
268,107,13951,5,0
234,271,13952,5,0
278,113,13953,5,0
224,263,13954,5,0
288,121,13955,5,0
216,254,13956,5,0
296,130,13957,5,0
209,245,13958,5,0
303,139,13959,5,0
203,234,13960,5,0
309,150,13961,5,0
200,222,13962,5,0
312,162,13963,5,0
198,210,13964,5,0
314,174,13965,5,0
198,198,13966,5,0
314,186,13967,5,0
201,186,13968,5,0
311,198,13969,5,0
207,175,13970,5,0
305,209,13971,5,0
214,165,13972,5,0
298,219,13973,5,0
224,158,13974,5,0
288,226,13975,5,0
235,152,13976,5,0
277,232,13977,5,0
247,150,13978,5,0
265,234,13979,5,0
259,151,13980,5,0
253,233,13981,5,0
271,156,13982,5,0
241,228,13983,5,0
280,164,13984,5,0
232,220,13985,5,0
287,175,13986,5,0
225,209,13987,5,0
289,187,13988,5,0
223,197,13989,5,0
287,200,13990,5,0
225,184,13991,5,0
280,210,13992,5,0
232,174,13993,5,0
269,217,13994,5,0
243,167,13995,5,0
257,219,13996,5,0
255,165,13997,5,0
427,280,13998,5,0
85,104,13999,5,0
413,285,14000,5,0
99,99,14001,5,0
400,289,14002,5,0
112,95,14003,5,0
387,293,14004,5,0
125,91,14005,5,0
374,296,14006,5,0
138,88,14007,5,0
361,298,14008,5,0
151,86,14009,5,0
348,300,14010,5,0
164,84,14011,5,0
335,302,14012,5,0
177,82,14013,5,0
322,302,14014,5,0
190,82,14015,5,0
310,302,14016,5,0
202,82,14017,5,0
297,301,14018,5,0
215,83,14019,5,0
285,299,14020,5,0
227,85,14021,5,0
273,296,14022,5,0
239,88,14023,5,0
261,292,14024,5,0
251,92,14025,5,0
250,287,14026,5,0
262,97,14027,5,0
239,281,14028,5,0
273,103,14029,5,0
229,274,14030,5,0
283,110,14031,5,0
220,266,14032,5,0
292,118,14033,5,0
212,257,14034,5,0
300,127,14035,5,0
206,247,14036,5,0
306,137,14037,5,0
200,236,14038,5,0
312,148,14039,5,0
197,224,14040,5,0
315,160,14041,5,0
195,212,14042,5,0
317,172,14043,5,0
196,200,14044,5,0
316,184,14045,5,0
198,188,14046,5,0
314,196,14047,5,0
203,177,14048,5,0
309,207,14049,5,0
210,167,14050,5,0
302,217,14051,5,0
219,158,14052,5,0
293,226,14053,5,0
230,152,14054,5,0
282,232,14055,5,0
242,149,14056,5,0
270,235,14057,5,0
254,149,14058,5,0
258,235,14059,5,0
266,153,14060,5,0
246,231,14061,5,0
277,159,14062,5,0
235,225,14063,5,0
285,169,14064,5,0
227,215,14065,5,0
289,181,14066,5,0
223,203,14067,5,0
289,193,14068,5,0
223,191,14069,5,0
285,205,14070,5,0
227,179,14071,5,0
276,214,14072,5,0
236,170,14073,5,0
265,219,14074,5,0
247,165,14075,5,0
252,219,14076,5,0
260,165,14077,5,0
409,308,14078,5,0
103,76,14079,5,0
395,311,14080,5,0
117,73,14081,5,0
381,313,14082,5,0
131,71,14083,5,0
368,314,14084,5,0
144,70,14085,5,0
354,315,14086,5,0
158,69,14087,5,0
341,315,14088,5,0
171,69,14089,5,0
328,315,14090,5,0
184,69,14091,5,0
315,314,14092,5,0
197,70,14093,5,0
302,312,14094,5,0
210,72,14095,5,0
290,310,14096,5,0
222,74,14097,5,0
278,306,14098,5,0
234,78,14099,5,0
266,302,14100,5,0
246,82,14101,5,0
255,297,14102,5,0
257,87,14103,5,0
244,291,14104,5,0
268,93,14105,5,0
234,285,14106,5,0
278,99,14107,5,0
224,277,14108,5,0
288,107,14109,5,0
216,268,14110,5,0
296,116,14111,5,0
208,259,14112,5,0
304,125,14113,5,0
202,248,14114,5,0
310,136,14115,5,0
197,237,14116,5,0
315,147,14117,5,0
194,225,14118,5,0
318,159,14119,5,0
192,213,14120,5,0
320,171,14121,5,0
193,201,14122,5,0
319,183,14123,5,0
195,189,14124,5,0
317,195,14125,5,0
200,178,14126,5,0
312,206,14127,5,0
207,168,14128,5,0
305,216,14129,5,0
215,159,14130,5,0
297,225,14131,5,0
226,153,14132,5,0
286,231,14133,5,0
237,149,14134,5,0
275,235,14135,5,0
250,147,14136,5,0
262,237,14137,5,0
262,150,14138,5,0
250,234,14139,5,0
273,155,14140,5,0
239,229,14141,5,0
282,163,14142,5,0
230,221,14143,5,0
288,174,14144,5,0
224,210,14145,5,0
291,186,14146,5,0
221,198,14147,5,0
289,199,14148,5,0
223,185,14149,5,0
282,210,14150,5,0
230,174,14151,5,0
272,217,14152,5,0
240,167,14153,5,0
260,220,14154,5,0
252,164,14155,5,0
248,218,14156,5,0
264,166,14157,5,0
386,333,14158,5,0
126,51,14159,5,0
372,333,14160,5,0
140,51,14161,5,0
358,332,14162,5,0
154,52,14163,5,0
345,331,14164,5,0
167,53,14165,5,0
331,330,14166,5,0
181,54,14167,5,0
318,328,14168,5,0
194,56,14169,5,0
305,325,14170,5,0
207,59,14171,5,0
293,322,14172,5,0
219,62,14173,5,0
281,318,14174,5,0
231,66,14175,5,0
269,314,14176,5,0
243,70,14177,5,0
258,308,14178,5,0
254,76,14179,5,0
247,302,14180,5,0
265,82,14181,5,0
236,296,14182,5,0
276,88,14183,5,0
227,288,14184,5,0
285,96,14185,5,0
218,279,14186,5,0
294,105,14187,5,0
210,270,14188,5,0
302,114,14189,5,0
203,260,14190,5,0
309,124,14191,5,0
197,249,14192,5,0
315,135,14193,5,0
193,238,14194,5,0
319,146,14195,5,0
190,226,14196,5,0
322,158,14197,5,0
189,214,14198,5,0
323,170,14199,5,0
190,202,14200,5,0
322,182,14201,5,0
192,190,14202,5,0
320,194,14203,5,0
197,179,14204,5,0
315,205,14205,5,0
203,168,14206,5,0
309,216,14207,5,0
212,159,14208,5,0
300,225,14209,5,0
222,153,14210,5,0
290,231,14211,5,0
233,148,14212,5,0
279,236,14213,5,0
245,146,14214,5,0
267,238,14215,5,0
257,147,14216,5,0
255,237,14217,5,0
269,151,14218,5,0
243,233,14219,5,0
279,158,14220,5,0
233,226,14221,5,0
287,168,14222,5,0
225,216,14223,5,0
291,180,14224,5,0
221,204,14225,5,0
291,193,14226,5,0
221,191,14227,5,0
287,204,14228,5,0
225,180,14229,5,0
279,214,14230,5,0
233,170,14231,5,0
268,220,14232,5,0
244,164,14233,5,0
255,221,14234,5,0
257,163,14235,5,0
243,216,14236,5,0
269,168,14237,5,0
360,354,14238,5,0
152,30,14239,5,0
346,351,14240,5,0
166,33,14241,5,0
332,348,14242,5,0
180,36,14243,5,0
319,345,14244,5,0
193,39,14245,5,0
306,341,14246,5,0
206,43,14247,5,0
294,337,14248,5,0
218,47,14249,5,0
282,332,14250,5,0
230,52,14251,5,0
270,327,14252,5,0
242,57,14253,5,0
258,321,14254,5,0
254,63,14255,5,0
248,314,14256,5,0
264,70,14257,5,0
237,307,14258,5,0
275,77,14259,5,0
228,299,14260,5,0
284,85,14261,5,0
219,291,14262,5,0
293,93,14263,5,0
210,281,14264,5,0
302,103,14265,5,0
203,271,14266,5,0
309,113,14267,5,0
197,261,14268,5,0
315,123,14269,5,0
192,250,14270,5,0
320,134,14271,5,0
188,238,14272,5,0
324,146,14273,5,0
186,226,14274,5,0
326,158,14275,5,0
185,214,14276,5,0
327,170,14277,5,0
186,202,14278,5,0
326,182,14279,5,0
189,190,14280,5,0
323,194,14281,5,0
193,179,14282,5,0
319,205,14283,5,0
200,169,14284,5,0
312,215,14285,5,0
208,160,14286,5,0
304,224,14287,5,0
218,152,14288,5,0
294,232,14289,5,0
229,147,14290,5,0
283,237,14291,5,0
241,145,14292,5,0
271,239,14293,5,0
253,145,14294,5,0
259,239,14295,5,0
265,148,14296,5,0
247,236,14297,5,0
276,154,14298,5,0
236,230,14299,5,0
285,163,14300,5,0
227,221,14301,5,0
290,174,14302,5,0
222,210,14303,5,0
292,186,14304,5,0
220,198,14305,5,0
290,199,14306,5,0
222,185,14307,5,0
284,210,14308,5,0
228,174,14309,5,0
275,218,14310,5,0
237,166,14311,5,0
263,221,14312,5,0
249,163,14313,5,0
250,220,14314,5,0
262,164,14315,5,0
239,213,14316,5,0
273,171,14317,5,0
330,369,14318,5,0
182,15,14319,5,0
317,364,14320,5,0
195,20,14321,5,0
304,359,14322,5,0
208,25,14323,5,0
292,353,14324,5,0
220,31,14325,5,0
280,347,14326,5,0
232,37,14327,5,0
268,341,14328,5,0
244,43,14329,5,0
257,334,14330,5,0
255,50,14331,5,0
246,327,14332,5,0
266,57,14333,5,0
236,319,14334,5,0
276,65,14335,5,0
227,311,14336,5,0
285,73,14337,5,0
218,302,14338,5,0
294,82,14339,5,0
209,293,14340,5,0
303,91,14341,5,0
202,283,14342,5,0
310,101,14343,5,0
196,272,14344,5,0
316,112,14345,5,0
190,261,14346,5,0
322,123,14347,5,0
186,250,14348,5,0
326,134,14349,5,0
183,238,14350,5,0
329,146,14351,5,0
181,226,14352,5,0
331,158,14353,5,0
181,214,14354,5,0
331,170,14355,5,0
182,201,14356,5,0
330,183,14357,5,0
185,190,14358,5,0
327,194,14359,5,0
190,178,14360,5,0
322,206,14361,5,0
197,168,14362,5,0
315,216,14363,5,0
205,159,14364,5,0
307,225,14365,5,0
214,152,14366,5,0
298,232,14367,5,0
225,146,14368,5,0
287,238,14369,5,0
237,143,14370,5,0
275,241,14371,5,0
249,143,14372,5,0
263,241,14373,5,0
262,145,14374,5,0
250,239,14375,5,0
273,150,14376,5,0
239,234,14377,5,0
282,158,14378,5,0
230,226,14379,5,0
289,168,14380,5,0
223,216,14381,5,0
293,180,14382,5,0
219,204,14383,5,0
293,193,14384,5,0
219,191,14385,5,0
289,204,14386,5,0
223,180,14387,5,0
281,214,14388,5,0
231,170,14389,5,0
270,221,14390,5,0
242,163,14391,5,0
257,222,14392,5,0
255,162,14393,5,0
245,219,14394,5,0
267,165,14395,5,0
236,210,14396,5,0
276,174,14397,5,0
298,379,14398,5,0
214,5,14399,5,0
286,372,14400,5,0
226,12,14401,5,0
274,365,14402,5,0
238,19,14403,5,0
263,357,14404,5,0
249,27,14405,5,0
252,349,14406,5,0
260,35,14407,5,0
242,341,14408,5,0
270,43,14409,5,0
232,332,14410,5,0
280,52,14411,5,0
223,323,14412,5,0
289,61,14413,5,0
214,314,14414,5,0
298,70,14415,5,0
206,304,14416,5,0
306,80,14417,5,0
199,294,14418,5,0
313,90,14419,5,0
193,283,14420,5,0
319,101,14421,5,0
187,272,14422,5,0
325,112,14423,5,0
183,260,14424,5,0
329,124,14425,5,0
179,249,14426,5,0
333,135,14427,5,0
177,237,14428,5,0
335,147,14429,5,0
176,224,14430,5,0
336,160,14431,5,0
176,212,14432,5,0
336,172,14433,5,0
178,200,14434,5,0
334,184,14435,5,0
182,189,14436,5,0
330,195,14437,5,0
187,177,14438,5,0
325,207,14439,5,0
194,167,14440,5,0
318,217,14441,5,0
202,158,14442,5,0
310,226,14443,5,0
211,151,14444,5,0
301,233,14445,5,0
222,145,14446,5,0
290,239,14447,5,0
234,142,14448,5,0
278,242,14449,5,0
246,141,14450,5,0
266,243,14451,5,0
258,142,14452,5,0
254,242,14453,5,0
270,147,14454,5,0
242,237,14455,5,0
280,154,14456,5,0
232,230,14457,5,0
288,163,14458,5,0
224,221,14459,5,0
293,174,14460,5,0
219,210,14461,5,0
294,187,14462,5,0
218,197,14463,5,0
292,199,14464,5,0
220,185,14465,5,0
286,210,14466,5,0
226,174,14467,5,0
277,218,14468,5,0
235,166,14469,5,0
265,222,14470,5,0
247,162,14471,5,0
252,222,14472,5,0
260,162,14473,5,0
241,216,14474,5,0
271,168,14475,5,0
233,206,14476,5,0
279,178,14477,5,0
265,384,14478,5,0
247,0,14479,5,0
254,375,14480,5,0
258,9,14481,5,0
244,365,14482,5,0
268,19,14483,5,0
234,356,14484,5,0
278,28,14485,5,0
225,346,14486,5,0
287,38,14487,5,0
216,336,14488,5,0
296,48,14489,5,0
208,326,14490,5,0
304,58,14491,5,0
201,315,14492,5,0
311,69,14493,5,0
194,305,14494,5,0
318,79,14495,5,0
188,294,14496,5,0
324,90,14497,5,0
182,282,14498,5,0
330,102,14499,5,0
178,271,14500,5,0
334,113,14501,5,0
174,259,14502,5,0
338,125,14503,5,0
172,247,14504,5,0
340,137,14505,5,0
171,234,14506,5,0
341,150,14507,5,0
170,222,14508,5,0
342,162,14509,5,0
172,210,14510,5,0
340,174,14511,5,0
174,198,14512,5,0
338,186,14513,5,0
178,187,14514,5,0
334,197,14515,5,0
184,176,14516,5,0
328,208,14517,5,0
190,166,14518,5,0
322,218,14519,5,0
199,157,14520,5,0
313,227,14521,5,0
208,149,14522,5,0
304,235,14523,5,0
219,144,14524,5,0
293,240,14525,5,0
231,140,14526,5,0
281,244,14527,5,0
243,139,14528,5,0
269,245,14529,5,0
255,140,14530,5,0
257,244,14531,5,0
267,143,14532,5,0
245,241,14533,5,0
277,150,14534,5,0
235,234,14535,5,0
286,158,14536,5,0
226,226,14537,5,0
292,169,14538,5,0
220,215,14539,5,0
295,181,14540,5,0
217,203,14541,5,0
295,194,14542,5,0
217,190,14543,5,0
290,205,14544,5,0
222,179,14545,5,0
283,215,14546,5,0
229,169,14547,5,0
272,221,14548,5,0
240,163,14549,5,0
259,224,14550,5,0
253,160,14551,5,0
247,221,14552,5,0
265,163,14553,5,0
237,213,14554,5,0
275,171,14555,5,0
231,202,14556,5,0
281,182,14557,5,0
232,382,14558,5,0
280,2,14559,5,0
223,372,14560,5,0
289,12,14561,5,0
214,361,14562,5,0
298,23,14563,5,0
206,350,14564,5,0
306,34,14565,5,0
199,338,14566,5,0
313,46,14567,5,0
192,327,14568,5,0
320,57,14569,5,0
186,316,14570,5,0
326,68,14571,5,0
180,304,14572,5,0
332,80,14573,5,0
175,292,14574,5,0
337,92,14575,5,0
171,280,14576,5,0
341,104,14577,5,0
168,268,14578,5,0
344,116,14579,5,0
165,256,14580,5,0
347,128,14581,5,0
164,243,14582,5,0
348,141,14583,5,0
164,231,14584,5,0
348,153,14585,5,0
165,219,14586,5,0
347,165,14587,5,0
167,207,14588,5,0
345,177,14589,5,0
170,195,14590,5,0
342,189,14591,5,0
174,184,14592,5,0
338,200,14593,5,0
180,173,14594,5,0
332,211,14595,5,0
187,163,14596,5,0
325,221,14597,5,0
196,155,14598,5,0
316,229,14599,5,0
206,147,14600,5,0
306,237,14601,5,0
217,142,14602,5,0
295,242,14603,5,0
228,138,14604,5,0
284,246,14605,5,0
240,136,14606,5,0
272,248,14607,5,0
252,137,14608,5,0
260,247,14609,5,0
264,140,14610,5,0
248,244,14611,5,0
275,146,14612,5,0
237,238,14613,5,0
284,154,14614,5,0
228,230,14615,5,0
291,164,14616,5,0
221,220,14617,5,0
296,176,14618,5,0
216,208,14619,5,0
297,188,14620,5,0
215,196,14621,5,0
294,200,14622,5,0
218,184,14623,5,0
288,211,14624,5,0
224,173,14625,5,0
278,219,14626,5,0
234,165,14627,5,0
266,224,14628,5,0
246,160,14629,5,0
254,224,14630,5,0
258,160,14631,5,0
242,219,14632,5,0
270,165,14633,5,0
233,210,14634,5,0
279,174,14635,5,0
229,198,14636,5,0
283,186,14637,5,0
199,375,14638,5,0
313,9,14639,5,0
192,363,14640,5,0
320,21,14641,5,0
185,351,14642,5,0
327,33,14643,5,0
180,339,14644,5,0
332,45,14645,5,0
174,326,14646,5,0
338,58,14647,5,0
169,314,14648,5,0
343,70,14649,5,0
165,301,14650,5,0
347,83,14651,5,0
162,289,14652,5,0
350,95,14653,5,0
159,277,14654,5,0
353,107,14655,5,0
157,264,14656,5,0
355,120,14657,5,0
156,252,14658,5,0
356,132,14659,5,0
156,239,14660,5,0
356,145,14661,5,0
157,227,14662,5,0
355,157,14663,5,0
158,215,14664,5,0
354,169,14665,5,0
161,203,14666,5,0
351,181,14667,5,0
165,191,14668,5,0
347,193,14669,5,0
171,180,14670,5,0
341,204,14671,5,0
177,170,14672,5,0
335,214,14673,5,0
185,160,14674,5,0
327,224,14675,5,0
194,152,14676,5,0
318,232,14677,5,0
203,145,14678,5,0
309,239,14679,5,0
214,139,14680,5,0
298,245,14681,5,0
226,136,14682,5,0
286,248,14683,5,0
238,134,14684,5,0
274,250,14685,5,0
250,134,14686,5,0
262,250,14687,5,0
262,137,14688,5,0
250,247,14689,5,0
273,143,14690,5,0
239,241,14691,5,0
283,150,14692,5,0
229,234,14693,5,0
290,160,14694,5,0
222,224,14695,5,0
296,171,14696,5,0
216,213,14697,5,0
298,183,14698,5,0
214,201,14699,5,0
297,195,14700,5,0
215,189,14701,5,0
292,207,14702,5,0
220,177,14703,5,0
284,216,14704,5,0
228,168,14705,5,0
273,223,14706,5,0
239,161,14707,5,0
261,225,14708,5,0
251,159,14709,5,0
248,223,14710,5,0
264,161,14711,5,0
238,216,14712,5,0
274,168,14713,5,0
231,205,14714,5,0
281,179,14715,5,0
229,193,14716,5,0
283,191,14717,5,0
168,363,14718,5,0
344,21,14719,5,0
163,349,14720,5,0
349,35,14721,5,0
159,336,14722,5,0
353,48,14723,5,0
155,323,14724,5,0
357,61,14725,5,0
152,310,14726,5,0
360,74,14727,5,0
150,297,14728,5,0
362,87,14729,5,0
148,284,14730,5,0
364,100,14731,5,0
146,271,14732,5,0
366,113,14733,5,0
146,258,14734,5,0
366,126,14735,5,0
146,246,14736,5,0
366,138,14737,5,0
147,233,14738,5,0
365,151,14739,5,0
149,221,14740,5,0
363,163,14741,5,0
152,209,14742,5,0
360,175,14743,5,0
156,197,14744,5,0
356,187,14745,5,0
161,186,14746,5,0
351,198,14747,5,0
167,175,14748,5,0
345,209,14749,5,0
174,165,14750,5,0
338,219,14751,5,0
182,156,14752,5,0
330,228,14753,5,0
191,148,14754,5,0
321,236,14755,5,0
201,142,14756,5,0
311,242,14757,5,0
212,136,14758,5,0
300,248,14759,5,0
224,133,14760,5,0
288,251,14761,5,0
236,131,14762,5,0
276,253,14763,5,0
248,132,14764,5,0
264,252,14765,5,0
260,134,14766,5,0
252,250,14767,5,0
271,139,14768,5,0
241,245,14769,5,0
281,146,14770,5,0
231,238,14771,5,0
290,155,14772,5,0
222,229,14773,5,0
296,166,14774,5,0
216,218,14775,5,0
299,178,14776,5,0
213,206,14777,5,0
299,190,14778,5,0
213,194,14779,5,0
295,202,14780,5,0
217,182,14781,5,0
289,213,14782,5,0
223,171,14783,5,0
279,221,14784,5,0
233,163,14785,5,0
267,225,14786,5,0
245,159,14787,5,0
255,225,14788,5,0
257,159,14789,5,0
243,221,14790,5,0
269,163,14791,5,0
234,212,14792,5,0
278,172,14793,5,0
229,201,14794,5,0
283,183,14795,5,0
229,188,14796,5,0
283,196,14797,5,0
140,345,14798,5,0
372,39,14799,5,0
137,331,14800,5,0
375,53,14801,5,0
135,317,14802,5,0
377,67,14803,5,0
134,304,14804,5,0
378,80,14805,5,0
133,290,14806,5,0
379,94,14807,5,0
133,277,14808,5,0
379,107,14809,5,0
133,264,14810,5,0
379,120,14811,5,0
134,251,14812,5,0
378,133,14813,5,0
136,238,14814,5,0
376,146,14815,5,0
138,226,14816,5,0
374,158,14817,5,0
142,214,14818,5,0
370,170,14819,5,0
146,202,14820,5,0
366,182,14821,5,0
151,191,14822,5,0
361,193,14823,5,0
157,180,14824,5,0
355,204,14825,5,0
163,170,14826,5,0
349,214,14827,5,0
171,160,14828,5,0
341,224,14829,5,0
180,152,14830,5,0
332,232,14831,5,0
189,144,14832,5,0
323,240,14833,5,0
200,138,14834,5,0
312,246,14835,5,0
211,133,14836,5,0
301,251,14837,5,0
223,130,14838,5,0
289,254,14839,5,0
235,128,14840,5,0
277,256,14841,5,0
247,129,14842,5,0
265,255,14843,5,0
259,131,14844,5,0
253,253,14845,5,0
270,136,14846,5,0
242,248,14847,5,0
280,143,14848,5,0
232,241,14849,5,0
289,151,14850,5,0
223,233,14851,5,0
295,162,14852,5,0
217,222,14853,5,0
299,173,14854,5,0
213,211,14855,5,0
301,186,14856,5,0
211,198,14857,5,0
298,198,14858,5,0
214,186,14859,5,0
293,209,14860,5,0
219,175,14861,5,0
285,218,14862,5,0
227,166,14863,5,0
274,224,14864,5,0
238,160,14865,5,0
262,227,14866,5,0
250,157,14867,5,0
249,225,14868,5,0
263,159,14869,5,0
238,218,14870,5,0
274,166,14871,5,0
231,208,14872,5,0
281,176,14873,5,0
228,196,14874,5,0
284,188,14875,5,0
230,184,14876,5,0
282,200,14877,5,0
115,322,14878,5,0
397,62,14879,5,0
115,308,14880,5,0
397,76,14881,5,0
116,294,14882,5,0
396,90,14883,5,0
117,281,14884,5,0
395,103,14885,5,0
118,267,14886,5,0
394,117,14887,5,0
120,254,14888,5,0
392,130,14889,5,0
123,241,14890,5,0
389,143,14891,5,0
126,229,14892,5,0
386,155,14893,5,0
130,217,14894,5,0
382,167,14895,5,0
134,205,14896,5,0
378,179,14897,5,0
140,194,14898,5,0
372,190,14899,5,0
146,183,14900,5,0
366,201,14901,5,0
152,172,14902,5,0
360,212,14903,5,0
160,163,14904,5,0
352,221,14905,5,0
169,154,14906,5,0
343,230,14907,5,0
178,146,14908,5,0
334,238,14909,5,0
188,139,14910,5,0
324,245,14911,5,0
199,133,14912,5,0
313,251,14913,5,0
210,129,14914,5,0
302,255,14915,5,0
222,126,14916,5,0
290,258,14917,5,0
234,125,14918,5,0
278,259,14919,5,0
246,126,14920,5,0
266,258,14921,5,0
258,128,14922,5,0
254,256,14923,5,0
269,133,14924,5,0
243,251,14925,5,0
280,139,14926,5,0
232,245,14927,5,0
289,148,14928,5,0
223,236,14929,5,0
295,158,14930,5,0
217,226,14931,5,0
300,169,14932,5,0
212,215,14933,5,0
302,181,14934,5,0
210,203,14935,5,0
301,193,14936,5,0
211,191,14937,5,0
297,205,14938,5,0
215,179,14939,5,0
290,215,14940,5,0
222,169,14941,5,0
280,223,14942,5,0
232,161,14943,5,0
268,227,14944,5,0
244,157,14945,5,0
255,227,14946,5,0
257,157,14947,5,0
244,223,14948,5,0
268,161,14949,5,0
234,215,14950,5,0
278,169,14951,5,0
228,204,14952,5,0
284,180,14953,5,0
227,191,14954,5,0
285,193,14955,5,0
232,179,14956,5,0
280,205,14957,5,0
94,296,14958,5,0
418,88,14959,5,0
97,282,14960,5,0
415,102,14961,5,0
100,268,14962,5,0
412,116,14963,5,0
103,255,14964,5,0
409,129,14965,5,0
107,242,14966,5,0
405,142,14967,5,0
111,230,14968,5,0
401,154,14969,5,0
116,218,14970,5,0
396,166,14971,5,0
121,206,14972,5,0
391,178,14973,5,0
127,194,14974,5,0
385,190,14975,5,0
134,184,14976,5,0
378,200,14977,5,0
141,173,14978,5,0
371,211,14979,5,0
149,164,14980,5,0
363,220,14981,5,0
157,155,14982,5,0
355,229,14983,5,0
167,146,14984,5,0
345,238,14985,5,0
177,139,14986,5,0
335,245,14987,5,0
187,133,14988,5,0
325,251,14989,5,0
198,128,14990,5,0
314,256,14991,5,0
210,124,14992,5,0
302,260,14993,5,0
222,122,14994,5,0
290,262,14995,5,0
234,121,14996,5,0
278,263,14997,5,0
246,122,14998,5,0
266,262,14999,5,0
258,125,15000,5,0
254,259,15001,5,0
269,129,15002,5,0
243,255,15003,5,0
279,136,15004,5,0
233,248,15005,5,0
288,144,15006,5,0
224,240,15007,5,0
296,154,15008,5,0
216,230,15009,5,0
301,165,15010,5,0
211,219,15011,5,0
303,177,15012,5,0
209,207,15013,5,0
303,189,15014,5,0
209,195,15015,5,0
300,201,15016,5,0
212,183,15017,5,0
294,212,15018,5,0
218,172,15019,5,0
285,221,15020,5,0
227,163,15021,5,0
274,226,15022,5,0
238,158,15023,5,0
262,228,15024,5,0
250,156,15025,5,0
249,226,15026,5,0
263,158,15027,5,0
238,220,15028,5,0
274,164,15029,5,0
230,211,15030,5,0
282,173,15031,5,0
227,199,15032,5,0
285,185,15033,5,0
228,186,15034,5,0
284,198,15035,5,0
235,175,15036,5,0
277,209,15037,5,0
79,266,15038,5,0
433,118,15039,5,0
84,253,15040,5,0
428,131,15041,5,0
89,240,15042,5,0
423,144,15043,5,0
95,228,15044,5,0
417,156,15045,5,0
101,216,15046,5,0
411,168,15047,5,0
107,204,15048,5,0
405,180,15049,5,0
114,193,15050,5,0
398,191,15051,5,0
121,182,15052,5,0
391,202,15053,5,0
129,172,15054,5,0
383,212,15055,5,0
137,163,15056,5,0
375,221,15057,5,0
146,154,15058,5,0
366,230,15059,5,0
155,145,15060,5,0
357,239,15061,5,0
165,138,15062,5,0
347,246,15063,5,0
176,132,15064,5,0
336,252,15065,5,0
187,126,15066,5,0
325,258,15067,5,0
198,122,15068,5,0
314,262,15069,5,0
210,119,15070,5,0
302,265,15071,5,0
222,117,15072,5,0
290,267,15073,5,0
234,117,15074,5,0
278,267,15075,5,0
247,118,15076,5,0
265,266,15077,5,0
258,121,15078,5,0
254,263,15079,5,0
270,126,15080,5,0
242,258,15081,5,0
280,133,15082,5,0
232,251,15083,5,0
289,141,15084,5,0
223,243,15085,5,0
296,150,15086,5,0
216,234,15087,5,0
302,161,15088,5,0
210,223,15089,5,0
305,173,15090,5,0
207,211,15091,5,0
305,185,15092,5,0
207,199,15093,5,0
303,198,15094,5,0
209,186,15095,5,0
298,209,15096,5,0
214,175,15097,5,0
290,218,15098,5,0
222,166,15099,5,0
280,225,15100,5,0
232,159,15101,5,0
268,229,15102,5,0
244,155,15103,5,0
255,229,15104,5,0
257,155,15105,5,0
244,225,15106,5,0
268,159,15107,5,0
234,217,15108,5,0
278,167,15109,5,0
227,206,15110,5,0
285,178,15111,5,0
226,193,15112,5,0
286,191,15113,5,0
229,181,15114,5,0
283,203,15115,5,0
238,172,15116,5,0
274,212,15117,5,0
69,234,15118,5,0
443,150,15119,5,0
76,222,15120,5,0
436,162,15121,5,0
83,210,15122,5,0
429,174,15123,5,0
91,199,15124,5,0
421,185,15125,5,0
99,188,15126,5,0
413,196,15127,5,0
107,178,15128,5,0
405,206,15129,5,0
116,168,15130,5,0
396,216,15131,5,0
125,159,15132,5,0
387,225,15133,5,0
134,150,15134,5,0
378,234,15135,5,0
144,142,15136,5,0
368,242,15137,5,0
154,135,15138,5,0
358,249,15139,5,0
165,129,15140,5,0
347,255,15141,5,0
176,123,15142,5,0
336,261,15143,5,0
188,119,15144,5,0
324,265,15145,5,0
199,115,15146,5,0
313,269,15147,5,0
211,113,15148,5,0
301,271,15149,5,0
224,112,15150,5,0
288,272,15151,5,0
236,112,15152,5,0
276,272,15153,5,0
248,114,15154,5,0
264,270,15155,5,0
259,118,15156,5,0
253,266,15157,5,0
271,123,15158,5,0
241,261,15159,5,0
281,130,15160,5,0
231,254,15161,5,0
290,138,15162,5,0
222,246,15163,5,0
297,147,15164,5,0
215,237,15165,5,0
303,158,15166,5,0
209,226,15167,5,0
306,170,15168,5,0
206,214,15169,5,0
307,182,15170,5,0
205,202,15171,5,0
306,194,15172,5,0
206,190,15173,5,0
301,206,15174,5,0
211,178,15175,5,0
294,216,15176,5,0
218,168,15177,5,0
285,224,15178,5,0
227,160,15179,5,0
274,229,15180,5,0
238,155,15181,5,0
261,230,15182,5,0
251,154,15183,5,0
249,228,15184,5,0
263,156,15185,5,0
238,222,15186,5,0
274,162,15187,5,0
230,213,15188,5,0
282,171,15189,5,0
226,201,15190,5,0
286,183,15191,5,0
226,188,15192,5,0
286,196,15193,5,0
232,177,15194,5,0
280,207,15195,5,0
242,169,15196,5,0
270,215,15197,5,0
64,201,15198,5,0
448,183,15199,5,0
73,190,15200,5,0
439,194,15201,5,0
83,180,15202,5,0
429,204,15203,5,0
92,170,15204,5,0
420,214,15205,5,0
102,161,15206,5,0
410,223,15207,5,0
112,152,15208,5,0
400,232,15209,5,0
122,144,15210,5,0
390,240,15211,5,0
133,137,15212,5,0
379,247,15213,5,0
143,130,15214,5,0
369,254,15215,5,0
154,124,15216,5,0
358,260,15217,5,0
166,118,15218,5,0
346,266,15219,5,0
177,114,15220,5,0
335,270,15221,5,0
189,110,15222,5,0
323,274,15223,5,0
201,108,15224,5,0
311,276,15225,5,0
214,107,15226,5,0
298,277,15227,5,0
226,106,15228,5,0
286,278,15229,5,0
238,108,15230,5,0
274,276,15231,5,0
250,110,15232,5,0
262,274,15233,5,0
261,114,15234,5,0
251,270,15235,5,0
272,120,15236,5,0
240,264,15237,5,0
282,126,15238,5,0
230,258,15239,5,0
291,135,15240,5,0
221,249,15241,5,0
299,144,15242,5,0
213,240,15243,5,0
304,155,15244,5,0
208,229,15245,5,0
308,167,15246,5,0
204,217,15247,5,0
309,179,15248,5,0
203,205,15249,5,0
308,191,15250,5,0
204,193,15251,5,0
305,203,15252,5,0
207,181,15253,5,0
298,213,15254,5,0
214,171,15255,5,0
290,222,15256,5,0
222,162,15257,5,0
279,228,15258,5,0
233,156,15259,5,0
267,231,15260,5,0
245,153,15261,5,0
254,231,15262,5,0
258,153,15263,5,0
243,226,15264,5,0
269,158,15265,5,0
233,219,15266,5,0
279,165,15267,5,0
227,208,15268,5,0
285,176,15269,5,0
224,195,15270,5,0
288,189,15271,5,0
227,183,15272,5,0
285,201,15273,5,0
235,173,15274,5,0
277,211,15275,5,0
246,167,15276,5,0
266,217,15277,5,0
66,168,15278,5,0
446,216,15279,5,0
76,159,15280,5,0
436,225,15281,5,0
87,150,15282,5,0
425,234,15283,5,0
98,142,15284,5,0
414,242,15285,5,0
110,135,15286,5,0
402,249,15287,5,0
121,128,15288,5,0
391,256,15289,5,0
132,122,15290,5,0
380,262,15291,5,0
144,116,15292,5,0
368,268,15293,5,0
156,111,15294,5,0
356,273,15295,5,0
168,107,15296,5,0
344,277,15297,5,0
180,104,15298,5,0
332,280,15299,5,0
192,101,15300,5,0
320,283,15301,5,0
205,100,15302,5,0
307,284,15303,5,0
217,100,15304,5,0
295,284,15305,5,0
229,101,15306,5,0
283,283,15307,5,0
241,103,15308,5,0
271,281,15309,5,0
253,106,15310,5,0
259,278,15311,5,0
264,110,15312,5,0
248,274,15313,5,0
275,116,15314,5,0
237,268,15315,5,0
285,123,15316,5,0
227,261,15317,5,0
293,132,15318,5,0
219,252,15319,5,0
301,142,15320,5,0
211,242,15321,5,0
306,153,15322,5,0
206,231,15323,5,0
310,164,15324,5,0
202,220,15325,5,0
312,176,15326,5,0
200,208,15327,5,0
311,188,15328,5,0
201,196,15329,5,0
308,200,15330,5,0
204,184,15331,5,0
302,211,15332,5,0
210,173,15333,5,0
294,220,15334,5,0
218,164,15335,5,0
284,227,15336,5,0
228,157,15337,5,0
272,232,15338,5,0
240,152,15339,5,0
260,233,15340,5,0
252,151,15341,5,0
248,230,15342,5,0
264,154,15343,5,0
237,224,15344,5,0
275,160,15345,5,0
229,214,15346,5,0
283,170,15347,5,0
224,202,15348,5,0
288,182,15349,5,0
224,190,15350,5,0
288,194,15351,5,0
229,178,15352,5,0
283,206,15353,5,0
238,169,15354,5,0
274,215,15355,5,0
250,165,15356,5,0
262,219,15357,5,0
73,135,15358,5,0
439,249,15359,5,0
85,128,15360,5,0
427,256,15361,5,0
97,121,15362,5,0
415,263,15363,5,0
109,116,15364,5,0
403,268,15365,5,0
122,110,15366,5,0
390,274,15367,5,0
134,105,15368,5,0
378,279,15369,5,0
147,101,15370,5,0
365,283,15371,5,0
159,98,15372,5,0
353,286,15373,5,0
171,95,15374,5,0
341,289,15375,5,0
184,93,15376,5,0
328,291,15377,5,0
196,92,15378,5,0
316,292,15379,5,0
209,92,15380,5,0
303,292,15381,5,0
221,93,15382,5,0
291,291,15383,5,0
233,94,15384,5,0
279,290,15385,5,0
245,97,15386,5,0
267,287,15387,5,0
257,101,15388,5,0
255,283,15389,5,0
268,107,15390,5,0
244,277,15391,5,0
278,113,15392,5,0
234,271,15393,5,0
288,121,15394,5,0
224,263,15395,5,0
296,130,15396,5,0
216,254,15397,5,0
303,139,15398,5,0
209,245,15399,5,0
309,150,15400,5,0
203,234,15401,5,0
312,162,15402,5,0
200,222,15403,5,0
314,174,15404,5,0
198,210,15405,5,0
314,186,15406,5,0
198,198,15407,5,0
311,198,15408,5,0
201,186,15409,5,0
305,209,15410,5,0
207,175,15411,5,0
298,219,15412,5,0
214,165,15413,5,0
288,226,15414,5,0
224,158,15415,5,0
277,232,15416,5,0
235,152,15417,5,0
265,234,15418,5,0
247,150,15419,5,0
253,233,15420,5,0
259,151,15421,5,0
241,228,15422,5,0
271,156,15423,5,0
232,220,15424,5,0
280,164,15425,5,0
225,209,15426,5,0
287,175,15427,5,0
223,197,15428,5,0
289,187,15429,5,0
225,184,15430,5,0
287,200,15431,5,0
232,174,15432,5,0
280,210,15433,5,0
243,167,15434,5,0
269,217,15435,5,0
255,165,15436,5,0
257,219,15437,5,0
85,104,15438,5,0
427,280,15439,5,0
99,99,15440,5,0
413,285,15441,5,0
112,95,15442,5,0
400,289,15443,5,0
125,91,15444,5,0
387,293,15445,5,0
138,88,15446,5,0
374,296,15447,5,0
151,86,15448,5,0
361,298,15449,5,0
164,84,15450,5,0
348,300,15451,5,0
177,82,15452,5,0
335,302,15453,5,0
190,82,15454,5,0
322,302,15455,5,0
202,82,15456,5,0
310,302,15457,5,0
215,83,15458,5,0
297,301,15459,5,0
227,85,15460,5,0
285,299,15461,5,0
239,88,15462,5,0
273,296,15463,5,0
251,92,15464,5,0
261,292,15465,5,0
262,97,15466,5,0
250,287,15467,5,0
273,103,15468,5,0
239,281,15469,5,0
283,110,15470,5,0
229,274,15471,5,0
292,118,15472,5,0
220,266,15473,5,0
300,127,15474,5,0
212,257,15475,5,0
306,137,15476,5,0
206,247,15477,5,0
312,148,15478,5,0
200,236,15479,5,0
315,160,15480,5,0
197,224,15481,5,0
317,172,15482,5,0
195,212,15483,5,0
316,184,15484,5,0
196,200,15485,5,0
314,196,15486,5,0
198,188,15487,5,0
309,207,15488,5,0
203,177,15489,5,0
302,217,15490,5,0
210,167,15491,5,0
293,226,15492,5,0
219,158,15493,5,0
282,232,15494,5,0
230,152,15495,5,0
270,235,15496,5,0
242,149,15497,5,0
258,235,15498,5,0
254,149,15499,5,0
246,231,15500,5,0
266,153,15501,5,0
235,225,15502,5,0
277,159,15503,5,0
227,215,15504,5,0
285,169,15505,5,0
223,203,15506,5,0
289,181,15507,5,0
223,191,15508,5,0
289,193,15509,5,0
227,179,15510,5,0
285,205,15511,5,0
236,170,15512,5,0
276,214,15513,5,0
247,165,15514,5,0
265,219,15515,5,0
260,165,15516,5,0
252,219,15517,5,0
125,72,15518,5,0
365,314,15519,5,0
139,71,15520,5,0
351,315,15521,5,0
153,69,15522,5,0
338,315,15523,5,0
166,69,15524,5,0
325,315,15525,5,0
179,69,15526,5,0
312,313,15527,5,0
192,70,15528,5,0
300,312,15529,5,0
205,71,15530,5,0
287,309,15531,5,0
217,73,15532,5,0
275,306,15533,5,0
229,76,15534,5,0
264,301,15535,5,0
241,80,15536,5,0
252,296,15537,5,0
253,85,15538,5,0
242,290,15539,5,0
264,90,15540,5,0
232,283,15541,5,0
274,97,15542,5,0
222,275,15543,5,0
284,104,15544,5,0
214,266,15545,5,0
293,112,15546,5,0
207,257,15547,5,0
301,121,15548,5,0
201,246,15549,5,0
308,132,15550,5,0
196,235,15551,5,0
313,142,15552,5,0
193,223,15553,5,0
317,154,15554,5,0
192,211,15555,5,0
319,166,15556,5,0
193,199,15557,5,0
320,178,15558,5,0
196,187,15559,5,0
318,190,15560,5,0
201,176,15561,5,0
314,202,15562,5,0
208,166,15563,5,0
308,212,15564,5,0
217,158,15565,5,0
300,222,15566,5,0
228,151,15567,5,0
291,229,15568,5,0
240,148,15569,5,0
279,234,15570,5,0
252,148,15571,5,0
267,237,15572,5,0
264,150,15573,5,0
255,236,15574,5,0
275,156,15575,5,0
243,232,15576,5,0
284,165,15577,5,0
233,224,15578,5,0
289,177,15579,5,0
226,214,15580,5,0
291,189,15581,5,0
222,203,15582,5,0
288,201,15583,5,0
222,190,15584,5,0
281,212,15585,5,0
227,178,15586,5,0
270,218,15587,5,0
235,169,15588,5,0
257,220,15589,5,0
247,164,15590,5,0
245,217,15591,5,0
260,164,15592,5,0
271,170,15593,5,0
195,56,15594,5,0
255,307,15595,5,0
208,59,15596,5,0
245,301,15597,5,0
220,62,15598,5,0
234,294,15599,5,0
232,66,15600,5,0
225,286,15601,5,0
244,71,15602,5,0
216,278,15603,5,0
255,76,15604,5,0
208,268,15605,5,0
266,82,15606,5,0
202,258,15607,5,0
277,89,15608,5,0
196,247,15609,5,0
286,97,15610,5,0
192,236,15611,5,0
295,105,15612,5,0
190,224,15613,5,0
303,115,15614,5,0
189,212,15615,5,0
310,125,15616,5,0
190,200,15617,5,0
315,136,15618,5,0
193,188,15619,5,0
319,147,15620,5,0
198,177,15621,5,0
322,159,15622,5,0
205,167,15623,5,0
323,171,15624,5,0
213,158,15625,5,0
322,183,15626,5,0
224,151,15627,5,0
320,195,15628,5,0
235,147,15629,5,0
315,206,15630,5,0
247,146,15631,5,0
308,217,15632,5,0
260,148,15633,5,0
300,225,15634,5,0
271,152,15635,5,0
289,232,15636,5,0
281,160,15637,5,0
278,236,15638,5,0
288,170,15639,5,0
266,238,15640,5,0
291,182,15641,5,0
253,237,15642,5,0
291,195,15643,5,0
242,232,15644,5,0
286,206,15645,5,0
232,225,15646,5,0
277,215,15647,5,0
225,215,15648,5,0
265,220,15649,5,0
221,203,15650,5,0
253,220,15651,5,0
221,190,15652,5,0
241,215,15653,5,0
226,179,15654,5,0
234,169,15655,5,0
246,164,15656,5,0
258,164,15657,5,0
270,169,15658,5,0
260,67,15659,5,0
188,236,15660,5,0
270,74,15661,5,0
186,224,15662,5,0
280,82,15663,5,0
185,212,15664,5,0
290,90,15665,5,0
186,200,15666,5,0
298,99,15667,5,0
189,188,15668,5,0
306,108,15669,5,0
194,177,15670,5,0
313,119,15671,5,0
201,167,15672,5,0
318,130,15673,5,0
210,158,15674,5,0
322,141,15675,5,0
220,151,15676,5,0
325,153,15677,5,0
231,147,15678,5,0
327,165,15679,5,0
243,144,15680,5,0
327,177,15681,5,0
255,145,15682,5,0
325,189,15683,5,0
267,149,15684,5,0
321,201,15685,5,0
278,155,15686,5,0
315,211,15687,5,0
286,165,15688,5,0
307,221,15689,5,0
291,176,15690,5,0
298,229,15691,5,0
292,188,15692,5,0
288,235,15693,5,0
290,201,15694,5,0
276,239,15695,5,0
283,211,15696,5,0
264,240,15697,5,0
273,219,15698,5,0
252,238,15699,5,0
260,222,15700,5,0
240,233,15701,5,0
248,219,15702,5,0
231,225,15703,5,0
238,212,15704,5,0
224,215,15705,5,0
220,203,15706,5,0
220,190,15707,5,0
225,179,15708,5,0
233,169,15709,5,0
244,164,15710,5,0
257,163,15711,5,0
269,167,15712,5,0
277,176,15713,5,0
310,102,15714,5,0
216,151,15715,5,0
317,113,15716,5,0
227,146,15717,5,0
322,124,15718,5,0
239,143,15719,5,0
326,135,15720,5,0
251,143,15721,5,0
329,147,15722,5,0
263,146,15723,5,0
331,159,15724,5,0
274,151,15725,5,0
331,171,15726,5,0
283,160,15727,5,0
329,183,15728,5,0
290,170,15729,5,0
326,195,15730,5,0
293,182,15731,5,0
321,206,15732,5,0
293,195,15733,5,0
315,217,15734,5,0
288,206,15735,5,0
306,225,15736,5,0
279,215,15737,5,0
297,233,15738,5,0
268,221,15739,5,0
286,238,15740,5,0
256,222,15741,5,0
274,241,15742,5,0
244,218,15743,5,0
262,241,15744,5,0
235,209,15745,5,0
250,239,15746,5,0
238,233,15747,5,0
229,225,15748,5,0
222,215,15749,5,0
219,203,15750,5,0
219,190,15751,5,0
224,179,15752,5,0
232,169,15753,5,0
243,163,15754,5,0
256,162,15755,5,0
268,166,15756,5,0
277,175,15757,5,0
336,154,15758,5,0
293,176,15759,5,0
336,167,15760,5,0
294,188,15761,5,0
335,179,15762,5,0
292,201,15763,5,0
332,190,15764,5,0
285,211,15765,5,0
328,202,15766,5,0
275,219,15767,5,0
322,212,15768,5,0
263,223,15769,5,0
314,222,15770,5,0
251,221,15771,5,0
305,230,15772,5,0
239,215,15773,5,0
295,237,15774,5,0
232,205,15775,5,0
283,241,15776,5,0
271,243,15777,5,0
259,243,15778,5,0
247,240,15779,5,0
236,234,15780,5,0
227,225,15781,5,0
221,215,15782,5,0
218,203,15783,5,0
218,190,15784,5,0
223,178,15785,5,0
231,169,15786,5,0
242,163,15787,5,0
254,161,15788,5,0
267,165,15789,5,0
276,173,15790,5,0
281,184,15791,5,0
328,209,15792,5,0
236,212,15793,5,0
321,219,15794,5,0
230,201,15795,5,0
313,228,15796,5,0
303,235,15797,5,0
292,241,15798,5,0
281,244,15799,5,0
268,245,15800,5,0
256,244,15801,5,0
245,240,15802,5,0
234,234,15803,5,0
226,225,15804,5,0
220,214,15805,5,0
217,202,15806,5,0
217,190,15807,5,0
222,178,15808,5,0
230,169,15809,5,0
241,162,15810,5,0
253,160,15811,5,0
266,163,15812,5,0
276,171,15813,5,0
282,183,15814,5,0
289,245,15815,5,0
277,247,15816,5,0
265,248,15817,5,0
253,245,15818,5,0
242,241,15819,5,0
232,234,15820,5,0
223,225,15821,5,0
218,214,15822,5,0
215,202,15823,5,0
216,189,15824,5,0
221,178,15825,5,0
229,168,15826,5,0
240,162,15827,5,0
252,160,15828,5,0
265,162,15829,5,0
275,170,15830,5,0
282,181,15831,5,0
283,193,15832,5,0
239,241,15833,5,0
229,234,15834,5,0
221,224,15835,5,0
216,213,15836,5,0
214,201,15837,5,0
215,188,15838,5,0
220,177,15839,5,0
229,167,15840,5,0
239,161,15841,5,0
252,159,15842,5,0
264,161,15843,5,0
275,168,15844,5,0
282,179,15845,5,0
283,192,15846,5,0
213,200,15847,5,0
215,187,15848,5,0
220,176,15849,5,0
228,167,15850,5,0
239,160,15851,5,0
251,158,15852,5,0
264,160,15853,5,0
274,167,15854,5,0
282,177,15855,5,0
284,190,15856,5,0
281,202,15857,5,0
238,160,15858,5,0
251,157,15859,5,0
263,159,15860,5,0
274,166,15861,5,0
282,176,15862,5,0
284,188,15863,5,0
282,201,15864,5,0
282,175,15865,5,0
285,187,15866,5,0
283,199,15867,5,0
276,210,15868,5,0
256,192,17999,1,0
