osu file format v7

[General]
AudioFilename: Vuvuzela.mp3
AudioLeadIn: 3000
PreviewTime: -1
Countdown: 1
SampleSet: Normal
StackLeniency: 1
Mode: 0
LetterboxInBreaks: 1

[Editor]
DistanceSpacing: 1.39999997615814
BeatDivisor: 4
GridSize: 8

[Metadata]
Title:Vuvuzela
Artist:Instrument
Creator:[Dango]
Version:Only My Vuvuzela
Source:
Tags:

[Difficulty]
HPDrainRate:5
CircleSize:4
OverallDifficulty:8
SliderMultiplier:1.9
SliderTickRate:1

[Events]
//Background and Video events
//Break Periods
//Storyboard Layer 0 (Background)
//Storyboard Layer 1 (Fail)
//Storyboard Layer 2 (Pass)
//Storyboard Layer 3 (Foreground)
//Storyboard Sound Samples
//Background Colour Transformations
3,100,163,162,255

[TimingPoints]
200,419.58041958042,4,1,0,100,1,0

[HitObjects]
480,32,200,5,8
448,96,410,1,8
416,160,619,1,0
384,224,829,5,4
320,224,1039,1,0
304,224,1143,2,0,C|256:224,1,47.5,2|8
224,160,1458,1,0
256,96,1668,1,0
224,32,1878,1,0
208,32,1983,2,0,C|160:32,1,47.5,2|8
96,64,2297,1,0
64,128,2507,5,0
32,192,2717,1,0
32,208,2822,2,0,C|32:256,1,47.5,2|8
64,320,3136,1,0
128,352,3346,1,0
192,352,3556,1,0
256,352,3766,1,10
320,352,3976,1,0
384,352,4185,6,2,B|448:336|460:288|448:240|383:224,3,190,2|10|2|10
224,224,5864,6,2,C|224:80,1,142.5,2|2
224,64,6283,1,12
288,32,6493,2,0,C|384:32,1,95,2|4
448,64,6913,1,8
416,128,7122,1,8
480,160,7332,1,0
480,224,7542,5,4
480,288,7752,1,0
480,320,7857,2,0,C|440:360,1,47.5,2|8
384,352,8171,1,0
320,320,8381,1,0
320,256,8591,1,0
320,224,8696,2,0,C|280:184,1,47.5,2|8
224,160,9011,1,0
160,192,9220,5,0
160,256,9430,1,0
160,288,9535,2,0,C|120:328,1,47.5,2|8
64,352,9850,1,0
32,288,10060,1,0
32,224,10269,1,0
32,160,10479,1,10
32,96,10689,1,0
32,32,10899,6,2,C|224:32,1,190,6|10
384,32,11738,1,0
448,64,11948,1,0
480,128,12157,1,10
448,192,12367,1,0
384,224,12577,6,2,C|192:224,3,190,6|10|2|10
64,320,14255,5,4
128,352,14465,1,0
144,352,14570,2,0,C|192:352,1,47.5,2|8
224,288,14885,1,0
288,288,15095,1,4
320,352,15304,1,0
336,352,15409,2,0,C|384:352,1,47.5,2|8
448,320,15724,1,0
480,256,15934,5,4
480,192,16143,1,0
480,160,16248,2,0,C|416:32,1,142.5,8|8
352,32,16773,1,0
288,32,16983,1,0
256,32,17088,2,0,C|192:160,1,142.5,8|8
192,224,17612,5,0
256,256,17822,1,0
256,288,17927,2,0,C|128:352,1,142.5,8|8
64,320,18451,1,2
32,256,18661,1,10
32,224,18766,1,8
32,192,18871,1,10
32,128,19081,1,10
32,96,19185,1,8
