osu file format v7

[General]
AudioFilename: Vuvuzela.mp3
AudioLeadIn: 2000
PreviewTime: -1
Countdown: 1
SampleSet: Normal
StackLeniency: 0.7
Mode: 1
LetterboxInBreaks: 1

[Editor]
Bookmarks: 15691
DistanceSpacing: 2
BeatDivisor: 4
GridSize: 8

[Metadata]
Title:Vuvuzela
Artist:Instrument
Creator:[Dango]
Version:Kitazela2000
Source:
Tags:maping of world

[Difficulty]
HPDrainRate:0
CircleSize:5
OverallDifficulty:2
SliderMultiplier:1.4
SliderTickRate:2

[Events]
//Background and Video events
0,0,"Vuvuzela.jpg"
//Break Periods
//Storyboard Layer 0 (Background)
//Storyboard Layer 1 (Fail)
//Storyboard Layer 2 (Pass)
//Storyboard Layer 3 (Foreground)
//Storyboard Sound Samples
//Background Colour Transformations
3,100,163,162,255

[TimingPoints]
1999,307.692307692308,4,1,0,100,1,0
1999,-100,4,1,0,100,0,1

[HitObjects]
240,272,1999,1,0
240,272,2152,1,8
240,272,2306,1,0
240,272,2460,1,8
240,272,2614,1,0
240,272,2768,1,0
240,272,2845,1,8
240,272,2922,1,8
240,272,3075,1,0
240,272,3229,1,0
240,272,3306,1,8
240,272,3460,1,8
240,272,3537,1,0
240,272,3691,1,8
240,272,3845,1,0
240,272,3999,1,8
240,272,4075,1,8
240,272,4152,1,0
240,272,4306,1,0
240,272,4460,1,8
240,272,4537,1,8
240,272,4614,1,0
240,272,4768,1,8
240,272,4922,1,0
240,272,5075,1,0
240,272,5152,1,8
240,272,5229,1,8
240,272,5383,1,0
240,272,5537,1,8
240,272,5614,1,8
240,272,5691,1,0
240,272,5845,1,8
240,272,5922,1,8
240,272,5999,1,0
240,272,6152,1,8
240,272,6306,1,0
240,272,6460,1,0
240,272,6537,1,8
240,272,6614,1,8
240,272,6768,1,0
240,272,6922,1,0
240,272,6999,1,8
240,272,7152,1,8
240,272,7229,1,0
240,272,7383,1,8
240,272,7537,1,0
240,272,7691,1,8
240,272,7768,1,8
240,272,7845,1,0
240,272,7999,1,0
240,272,8152,1,8
240,272,8229,1,8
240,272,8306,1,0
240,272,8460,1,0
240,272,8537,1,8
240,272,8691,1,8
240,272,8768,1,0
240,272,8999,1,0
240,272,9229,1,0
240,272,9306,1,0
240,272,9383,1,0
240,272,9537,1,0
240,272,9614,1,0
240,272,9691,1,0
240,272,9845,1,8
240,272,9999,1,0
240,272,10152,1,8
240,272,10306,1,0
240,272,10460,1,0
240,272,10537,1,8
240,272,10614,1,8
240,272,10768,1,0
240,272,10922,1,0
240,272,10999,1,8
240,272,11152,1,8
240,272,11229,1,0
240,272,11383,1,8
240,272,11537,1,0
240,272,11691,1,8
240,272,11768,1,8
240,272,11845,1,0
240,272,11999,1,0
240,272,12152,1,8
240,272,12229,1,8
240,272,12306,1,0
240,272,12460,1,8
240,272,12614,1,0
240,272,12768,1,0
240,272,12845,1,8
240,272,12922,1,8
240,272,13075,1,0
240,272,13229,1,8
240,272,13306,1,8
240,272,13383,1,0
240,272,13537,1,8
240,272,13691,1,0
240,272,13845,1,8
240,272,13999,1,0
240,272,14152,1,0
240,272,14229,1,8
240,272,14306,1,8
240,272,14460,1,0
240,272,14614,1,0
240,272,14691,1,8
240,272,14845,1,8
240,272,14922,1,0
240,272,15075,1,8
240,272,15229,1,0
240,272,15383,1,8
240,272,15460,1,8
240,272,15537,1,0
240,272,15691,1,0
240,272,15845,1,8
240,272,15922,1,8
240,272,15999,1,0
240,272,16152,1,0
240,272,16306,1,8
240,272,16460,1,0
240,272,16537,1,8
240,272,16614,1,8
240,272,16691,1,0
240,272,16768,1,8
240,272,16845,1,8
240,272,16922,1,0
240,272,16999,1,0
240,272,17075,1,0
240,272,17152,1,8
240,272,17229,1,0
240,272,17306,1,0
240,272,17383,1,0
240,272,17537,1,0
240,272,17614,1,0
240,272,17691,1,0
240,272,17845,1,0
240,272,17998,1,0
240,272,18152,1,0
240,272,18229,1,8
240,272,18306,1,8
272,272,18460,1,0
272,272,18537,1,0
272,272,18614,1,0
240,272,18768,1,0
240,272,18845,1,0
240,272,18922,1,0
240,272,18999,1,0
240,272,19076,1,0
240,272,19229,1,0
240,272,19306,1,8
240,272,19383,1,8
240,272,19537,1,0
240,272,19614,1,0
272,272,19768,1,0
272,272,19845,1,8
