osu file format v7

[General]
AudioFilename: Vuvuzela.mp3
AudioLeadIn: 2000
PreviewTime: 468
Countdown: 0
SampleSet: Normal
StackLeniency: 0.7
Mode: 0
LetterboxInBreaks: 1

[Editor]
DistanceSpacing: 1
BeatDivisor: 4
GridSize: 8

[Metadata]
Title:Vuvuzela
Artist:Instrument
Creator:[Dango]
Version:Kanbuzela
Source:
Tags:mapping of world

[Difficulty]
HPDrainRate:3
CircleSize:5
OverallDifficulty:8
SliderMultiplier:1.5
SliderTickRate:2

[Events]
//Background and Video events
0,0,"Vuvuzela.jpg"
//Break Periods
//Storyboard Layer 0 (Background)
//Storyboard Layer 1 (Fail)
//Storyboard Layer 2 (Pass)
//Storyboard Layer 3 (Foreground)
//Storyboard Sound Samples
//Background Colour Transformations
3,100,163,162,255

[TimingPoints]
-1812,299.9400119976,4,1,0,100,1,0
19932,-100,4,1,0,0,0,0
20041,-100,4,1,0,100,0,0

[HitObjects]
64,96,1787,5,0
112,64,1937,1,0
160,96,2087,1,0
208,64,2237,1,0
256,96,2387,1,0
304,64,2537,1,0
352,96,2687,1,0
400,64,2837,1,0
448,96,2987,5,0
400,128,3137,1,0
448,160,3287,1,0
400,192,3437,1,0
448,224,3587,1,0
400,256,3737,1,0
448,288,3887,1,0
400,320,4037,1,0
352,288,4187,5,0
304,320,4337,1,0
256,288,4487,1,0
208,320,4637,1,0
160,288,4787,1,0
112,320,4936,1,0
64,288,5086,1,0
112,256,5236,1,0
64,224,5386,5,0
112,192,5536,1,0
64,160,5686,1,0
112,128,5836,1,0
64,96,5986,1,0
112,64,6136,1,0
160,96,6286,1,0
208,64,6436,1,0
368,192,6586,5,0
368,192,6661,1,0
368,192,6736,1,0
368,192,6811,1,0
368,192,6886,1,0
368,192,6961,1,0
368,192,7036,1,0
368,192,7111,1,0
368,192,7186,1,0
368,192,7261,1,0
368,192,7336,1,0
368,192,7411,1,0
368,192,7486,1,0
368,192,7561,1,0
368,192,7636,1,0
368,192,7711,1,0
368,192,7786,5,0
368,192,7861,1,0
368,192,7936,1,0
368,192,8011,1,0
368,192,8086,1,0
368,192,8161,1,0
368,192,8236,1,0
368,192,8311,1,0
368,192,8386,1,0
368,192,8461,1,0
368,192,8536,1,0
368,192,8611,1,0
368,192,8686,1,0
368,192,8761,1,0
368,192,8836,1,0
368,192,8911,1,0
368,192,8986,5,2
288,272,9286,1,2
208,192,9586,1,2
128,272,9885,1,2
48,192,10185,6,2,B|40:117|59:61|102:40|180:35|400:32,1,450
