osu file format v7

[General]
AudioFilename: Vuvuzela.mp3
AudioLeadIn: 2000
PreviewTime: -1
Countdown: 1
SampleSet: Normal
StackLeniency: 0.7
Mode: 0
LetterboxInBreaks: 1

[Editor]
DistanceSpacing: 1.29999995231628
BeatDivisor: 2
GridSize: 8

[Metadata]
Title:Vuvuzela
Artist:Instrument
Creator:[Dango]
Version:Dragvonzella
Source:
Tags:mapping of world

[Difficulty]
HPDrainRate:5
CircleSize:4
OverallDifficulty:0
SliderMultiplier:1.4
SliderTickRate:1

[Events]
//Background and Video events
0,0,"Vuvuzela.jpg"
//Break Periods
//Storyboard Layer 0 (Background)
//Storyboard Layer 1 (Fail)
//Storyboard Layer 2 (Pass)
//Storyboard Layer 3 (Foreground)
//Storyboard Sound Samples
//Background Colour Transformations
3,100,163,162,255

[TimingPoints]
1999,307.692307692308,4,1,0,100,1,0

[HitObjects]
256,104,1537,1,2
256,280,1998,1,2
256,192,2306,12,0,2460
120,192,2922,5,2
384,192,3383,1,2
256,192,3691,12,0,3845
256,280,4306,5,2
256,104,4767,1,2
256,192,5075,12,0,5229
160,104,5691,5,2
160,272,5999,2,0,B|240:272|240:272,1,70,0|2
256,192,6460,12,0,6614
352,104,7075,5,2
352,272,7383,2,0,B|272:272|272:272,1,70,0|2
256,192,7844,12,0,7998
216,192,8460,6,0,B|312:192|312:192,3,70,2|0|0|2
256,192,9229,12,0,9383
256,152,9845,6,0,B|256:248|256:248,3,70,2|0|0|2
256,192,10614,12,0,10768
184,168,11229,6,2,B|184:248|184:248,1,70
216,240,11537,2,2,B|288:240|288:240,1,70
328,240,11845,2,2,B|328:160|328:160,1,70
256,160,12152,1,2
256,192,12460,12,2,12537
256,192,12768,12,2,12845
256,192,13075,12,2,13152
256,192,13383,12,2,13460
256,192,13691,12,2,13768
256,192,13999,12,2,14075
256,192,14152,12,2,14228
256,192,14307,12,2,14383
256,192,14460,12,2,14536
256,192,14614,12,2,14691
256,192,14768,12,2,14844
256,192,14922,12,2,14999
256,192,15075,12,2,15151
256,192,15230,12,2,15306
256,192,15383,12,2,15459
256,192,15537,12,2,15575
256,192,15614,12,2,15652
256,192,15691,12,2,15729
256,192,15768,12,2,15806
256,192,15845,12,2,15883
256,192,15922,12,2,15960
256,192,15999,12,2,16037
256,192,16076,12,2,16114
256,192,16153,12,2,16191
256,192,16230,12,2,16268
256,192,16307,12,2,16345
256,192,16384,12,2,16422
256,192,16460,12,2,16498
256,192,16537,12,2,16575
256,192,16614,12,2,16652
256,192,16691,12,2,16729
256,192,16768,12,2,16806
256,192,16845,12,2,16883
256,192,16922,12,2,16960
256,192,16999,12,2,17037
256,192,17076,12,2,17114
256,192,17153,12,2,17191
256,192,17230,12,2,17268
256,192,17307,12,2,17345
256,192,17383,12,2,17421
256,192,17460,12,2,17498
256,192,17537,12,2,17575
256,192,17614,12,2,17652
256,192,17691,12,2,17729
256,192,17768,12,2,17806
256,192,17845,12,2,17883
256,192,17922,12,2,17960
256,192,17999,12,2,18037
256,192,18076,12,2,18114
256,192,18153,12,2,18191
256,192,18230,12,2,18268
256,192,18306,12,2,18344
256,192,18383,12,2,18421
256,192,18460,12,2,18498
256,192,18537,12,2,18575
256,192,18614,12,2,18652
256,192,18691,12,2,18729
256,192,18768,12,2,18806
256,192,18845,12,2,18883
256,192,18922,12,2,18960
256,192,18999,12,2,19037
256,192,19076,12,2,19114
256,192,19153,12,6,19191
