osu file format v7

[General]
AudioFilename: Vuvuzela.mp3
AudioLeadIn: 2000
PreviewTime: -1
Countdown: 1
SampleSet: Normal
StackLeniency: 0.7
Mode: 1
LetterboxInBreaks: 1

[Editor]
DistanceSpacing: 1
BeatDivisor: 4
GridSize: 8

[Metadata]
Title:Vuvuzela
Artist:Instrument
Creator:[Dango]
Version:2000zela
Source:
Tags:mapping of world

[Difficulty]
HPDrainRate:5
CircleSize:5
OverallDifficulty:5
SliderMultiplier:1.4
SliderTickRate:1

[Events]
//Background and Video events
0,0,"Vuvuzela.jpg"
//Break Periods
//Storyboard Layer 0 (Background)
//Storyboard Layer 1 (Fail)
//Storyboard Layer 2 (Pass)
//Storyboard Layer 3 (Foreground)
//Storyboard Sound Samples
//Background Colour Transformations
3,100,163,162,255

[TimingPoints]
1999,324.324324324324,4,1,0,100,1,0

[HitObjects]
288,264,1999,1,0
288,264,2161,1,0
288,264,2242,1,8
288,264,2323,1,8
288,264,2404,1,8
288,264,2485,1,0
288,264,2566,1,8
288,264,2647,1,0
288,264,2809,1,8
288,264,2971,1,0
288,264,3134,1,8
288,264,3296,1,0
288,264,3512,1,0
288,264,3620,1,0
288,264,3836,1,8
288,264,3944,1,0
288,264,4161,1,0
288,264,4269,1,0
288,264,4485,1,0
288,264,4593,1,0
288,264,4674,1,0
288,264,4755,1,0
288,264,4836,1,0
288,264,4917,1,8
288,264,4998,1,8
288,264,5079,1,8
288,264,5160,1,8
288,264,5241,1,0
288,264,5323,1,0
288,264,5404,1,0
288,264,5485,1,0
288,264,5566,1,8
288,264,5647,1,8
288,264,5728,1,8
288,264,5809,1,8
288,264,5890,1,0
288,264,6053,1,8
288,264,6215,1,0
288,264,6296,1,8
288,264,6377,1,8
288,264,6539,1,0
288,264,6701,1,8
288,264,6863,1,0
288,264,7026,1,8
288,264,7188,1,8
288,264,7296,1,8
288,264,7404,1,8
288,264,7512,1,8
288,264,7620,1,8
288,264,7728,1,8
288,264,7836,1,8
288,264,7917,1,8
288,264,7998,1,8
288,264,8080,1,8
288,232,8161,1,8
288,232,8215,1,8
288,232,8269,1,8
288,232,8323,1,8
288,232,8377,1,8
288,232,8431,1,8
288,232,8485,1,0
304,288,8809,1,8
304,288,8890,1,0
304,288,8971,1,0
304,288,9053,1,0
304,288,9134,1,0
304,288,9215,1,0
304,288,9296,1,8
304,288,9377,1,0
304,288,9539,1,0
304,288,9620,1,0
304,288,9701,1,0
304,288,9782,1,0
304,288,9863,1,0
304,288,9944,1,0
304,288,10026,1,8
304,288,10107,1,8
304,288,10269,1,0
304,288,10350,1,0
304,288,10431,1,0
304,288,10512,1,8
304,288,10593,1,8
304,288,10755,1,0
304,288,10836,1,0
304,288,10917,1,0
304,288,10998,1,8
304,184,11080,1,8
304,184,11161,1,8
352,216,11242,1,0
352,216,11296,1,8
352,216,11350,1,8
352,216,11404,1,0
352,216,11566,1,0
352,216,11728,1,8
312,240,11809,1,8
352,216,11890,1,0
352,216,11944,1,8
352,216,11998,1,8
352,216,12053,1,0
352,216,12377,1,8
352,216,12458,1,8
352,216,12539,1,0
352,216,12620,1,8
352,216,12701,1,0
352,216,12863,1,8
352,216,12944,1,8
352,216,13026,1,0
352,216,13107,1,8
352,216,13188,1,0
352,216,13350,1,8
352,216,13431,1,8
352,216,13512,1,0
352,216,13593,1,8
352,216,13674,1,0
352,216,13755,1,8
352,216,13836,1,8
352,216,13917,1,0
352,216,13998,1,8
352,216,14161,1,0
352,216,14242,1,8
352,216,14323,1,8
352,216,14485,1,8
352,216,14566,1,8
352,216,14647,1,0
352,216,14971,1,0
352,216,15134,1,8
304,184,15296,1,0
304,184,15377,1,0
304,184,15458,1,8
304,184,15620,1,0
360,176,15701,1,0
360,176,15742,1,0
360,176,15782,1,8
360,176,15863,1,0
360,176,15944,1,8
360,176,16026,1,0
360,176,16107,1,0
360,176,16147,1,0
360,176,16188,1,8
360,176,16269,1,0
304,184,16309,1,0
304,184,16350,1,0
352,216,16431,1,0
352,216,16512,1,0
352,216,16593,1,0
352,216,16674,1,0
360,176,16755,1,0
360,176,16836,1,0
360,176,16917,1,0
400,144,16958,1,0
400,144,16998,1,0
368,96,17080,1,0
368,96,17161,1,0
368,96,17242,1,0
368,96,17323,1,0
368,96,17404,1,0
368,96,17485,1,0
344,112,17566,1,0
352,216,17647,1,8
352,216,17728,1,8
352,216,17809,1,0
352,216,17890,1,8
352,216,17971,1,8
352,216,18053,1,0
352,216,18134,1,0
352,216,18215,1,0
352,216,18296,1,8
352,216,18377,1,0
352,216,18458,1,0
352,216,18539,1,0
112,192,18863,2,0,L|424:216|352:120,1,420
