osu file format v13

[General]
AudioFilename: Noob.mp3
AudioLeadIn: 0
PreviewTime: 39488
Countdown: 0
SampleSet: Soft
StackLeniency: 0.3
Mode: 0
LetterboxInBreaks: 0
WidescreenStoryboard: 0

[Editor]
DistanceSpacing: 1
BeatDivisor: 2
GridSize: 4
TimelineZoom: 0.8

[Metadata]
Title:Noob
TitleUnicode:Noob
Artist:Instalok
ArtistUnicode:Instalok
Creator:KiwiTheBird
Version:Normal
Source:League of Legends
Tags:MAGIC!, Rude, Parody, english
BeatmapID:504793
BeatmapSetID:207523

[Difficulty]
HPDrainRate:4
CircleSize:3
OverallDifficulty:4
ApproachRate:4
SliderMultiplier:1
SliderTickRate:1

[Events]
//Background and Video events
0,0,"bg.jpg",0,0
//Break Periods
2,76146,79626
//Storyboard Layer 0 (Background)
//Storyboard Layer 1 (Fail)
//Storyboard Layer 2 (Pass)
//Storyboard Layer 3 (Foreground)
//Storyboard Sound Samples
//Background Colour Transformations
3,100,163,162,255

[TimingPoints]
113,416.666666666667,4,2,0,73,1,0
113,-100,4,2,0,60,0,0
7196,-100,4,2,0,73,0,0
20738,-100,4,2,0,78,0,0
26779,-100,4,2,0,73,0,0
32404,-100,4,2,0,42,0,0
33446,-100,4,2,0,68,0,0
43029,-100,4,2,0,73,0,0
46779,-100,4,2,0,78,0,0
60113,-100,4,2,0,78,0,1
73029,-100,4,2,0,73,0,0
106779,-100,4,2,0,68,0,0
116363,-100,4,2,0,73,0,0
120113,-100,4,2,0,78,0,0
133446,-100,4,2,0,78,0,1
146363,-100,4,2,0,73,0,0
173446,-100,4,2,0,68,0,0
184696,-100,4,2,0,73,0,0

[Colours]
Combo1 : 81,135,205
Combo2 : 255,169,136
Combo3 : 44,148,139
Combo4 : 222,54,41

[HitObjects]
204,96,529,5,8,0:0:0:0:
8,60,1363,2,0,B|80:104|80:104|70:180|146:243,1,200,8|8,0:0|0:0,0:0:0:0:
308,164,3029,1,8,0:0:0:0:
492,240,3863,2,0,P|444:224|392:240,1,100,8|0,0:0|0:0,0:0:0:0:
340,316,4696,5,8,0:0:0:0:
148,256,5529,2,0,B|186:237|186:237|187:234|187:234|260:196,1,100,8|0,0:0|0:0,0:0:0:0:
328,168,6363,2,0,B|368:224|328:276|328:276,1,100,8|0,0:0|0:0,0:0:0:0:
260,328,7196,1,8,0:0:0:0:
180,268,7613,6,0,L|256:188,1,100,0|8,0:0|0:0,0:0:0:0:
204,108,8446,2,0,P|156:60|108:60,1,100,0|8,0:0|0:0,0:0:0:0:
72,140,9279,6,0,B|56:176|56:176|72:208|76:252,1,100,0|8,0:0|0:0,0:0:0:0:
172,240,10113,2,0,P|168:304|148:352,1,100,0|8,0:0|0:0,0:0:0:0:
252,304,10946,1,0,0:0:0:0:
308,224,11363,1,8,0:0:0:0:
252,304,11779,6,0,P|284:352|348:364,1,100,0|8,0:0|0:0,0:0:0:0:
388,292,12613,1,0,0:0:0:0:
468,236,13029,2,0,P|436:188|372:176,2,100,8|0|8,0:0|0:0|0:0,0:0:0:0:
368,248,14279,6,0,B|228:228,1,100,0|8,0:0|0:0,0:0:0:0:
260,132,15113,2,0,P|220:92|160:64,1,100,0|8,0:0|0:0,0:0:0:0:
88,40,15946,1,0,0:0:0:0:
40,128,16363,2,0,P|44:236|128:272,1,200,8|8,0:0|0:0,0:0:0:0:
216,256,17613,1,0,0:0:0:0:
172,168,18029,1,8,0:0:0:0:
264,132,18446,6,0,B|276:116|284:84|284:84|316:40,1,100,0|8,0:0|0:0,0:0:0:0:
412,52,19279,1,0,0:0:0:0:
408,152,19696,2,0,P|364:188|296:200,1,100,8|0,0:0|0:0,0:0:0:0:
228,224,20529,1,8,0:0:0:0:
304,288,20946,6,0,P|304:340|284:388,1,100,0|8,0:0|0:0,0:0:0:0:
384,356,21779,2,0,P|392:304|384:252,1,100,0|8,0:0|0:0,0:0:0:0:
364,160,22613,1,0,0:0:0:0:
272,128,23029,1,8,0:0:0:0:
180,92,23446,2,0,P|208:36|256:32,1,100,0|8,0:0|0:0,0:0:0:0:
344,28,24279,2,0,P|364:76|376:156,1,100,0|8,0:0|0:0,0:0:0:0:
392,220,25113,5,0,0:0:0:0:
292,212,25529,1,8,0:0:0:0:
248,124,25946,1,0,0:0:0:0:
248,124,26363,2,0,P|208:88|164:76,1,100,8|0,0:0|0:0,0:0:0:0:
188,276,27613,6,0,L|188:156,1,100,0|8,0:0|0:0,0:0:0:0:
248,96,28446,2,0,P|268:156|320:176,1,100,0|8,0:0|0:0,0:0:0:0:
384,228,29279,1,0,0:0:0:0:
304,288,29696,1,8,0:0:0:0:
224,352,30113,2,0,B|212:295|212:295|167:284|156:238|156:238|99:227,1,200,0|8,0:0|0:0,0:0:0:0:
256,192,31363,12,0,33029,0:0:0:0:
384,88,33446,6,0,P|312:68|284:48,1,100,0|8,0:0|0:0,0:0:0:0:
300,156,34279,2,0,P|236:112|216:76,1,100,0|8,0:0|0:0,0:0:0:0:
172,8,35113,2,0,P|116:28|104:152,1,200
200,120,36363,5,8,0:0:0:0:
292,84,36779,1,0,0:0:0:0:
268,180,37196,2,0,P|320:164|404:172,1,100,8|0,0:0|0:0,0:0:0:0:
376,264,38029,2,0,L|248:308,1,100,8|0,0:0|0:0,0:0:0:0:
188,332,38863,1,8,0:0:0:0:
220,236,39279,1,0,0:0:0:0:
124,260,39696,6,0,B|68:280|20:228,1,100,8|0,0:0|0:0,0:0:0:0:
40,144,40529,1,8,0:0:0:0:
140,124,40946,2,0,P|192:116|244:124,1,100,0|8,0:0|0:0,0:0:0:0:
332,156,41779,1,0,0:0:0:0:
380,68,42196,1,8,0:0:0:0:
280,72,42613,1,0,0:0:0:0:
332,156,43029,6,0,P|376:188|432:196,1,100,8|0,0:0|0:0,0:0:0:0:
420,296,43863,1,8,0:0:0:0:
324,264,44279,2,0,L|232:184,1,100,0|8,0:0|0:0,0:0:0:0:
204,108,45113,2,0,P|256:96|304:112,2,100,0|8|0,0:0|0:0|0:0,0:0:0:0:
200,208,46363,1,8,0:0:0:0:
200,308,46779,2,0,B|143:273|143:273|98:228,1,100,0|8,0:0|0:0,0:0:0:0:
68,164,47613,5,0,0:0:0:0:
168,172,48029,2,0,P|216:180|272:172,1,100,8|0,0:0|0:0,0:0:0:0:
248,76,48863,1,8,0:0:0:0:
164,24,49279,2,0,B|116:72|148:120|148:120|180:168|132:216,1,200
48,168,50529,1,8,0:0:0:0:
80,264,50946,6,0,P|124:288|172:296,1,100,0|8,0:0|0:0,0:0:0:0:
160,196,51779,1,0,0:0:0:0:
252,232,52196,1,8,0:0:0:0:
232,132,52613,2,0,B|212:100|212:100|192:88|152:44,2,100,0|8|0,0:0|0:0|0:0,0:0:0:0:
416,52,54279,5,0,0:0:0:0:
332,108,54696,1,8,0:0:0:0:
408,176,55113,2,0,P|364:204|280:208,1,100,0|8,0:0|0:0,0:0:0:0:
220,224,55946,2,0,P|184:268|196:184,1,200
248,128,57196,1,8,0:0:0:0:
168,68,57613,6,0,P|128:88|68:140,1,100,0|8,0:0|0:0,0:0:0:0:
16,196,58446,1,0,0:0:0:0:
92,264,58863,2,0,P|136:300|196:324,2,100,8|0|8,0:0|0:0|0:0,0:0:0:0:
176,208,60113,5,0,0:0:0:0:
192,108,60529,1,8,0:0:0:0:
212,8,60946,2,0,L|340:16,1,100,0|8,0:0|0:0,0:0:0:0:
276,108,61779,6,0,L|224:160|200:184,1,100,0|8,0:0|0:0,0:0:0:0:
300,216,62613,2,0,L|268:320,1,100,0|8,0:0|0:0,0:0:0:0:
368,288,63446,5,0,0:0:0:0:
456,236,63863,1,8,0:0:0:0:
384,164,64279,2,0,P|428:112|432:68,2,100,0|8|0,0:0|0:0|0:0,0:0:0:0:
292,204,65529,5,8,0:0:0:0:
292,304,65946,2,0,P|240:324|172:320,1,100,0|8,0:0|0:0,0:0:0:0:
124,252,66779,6,0,L|140:132,1,100,0|8,0:0|0:0,0:0:0:0:
212,220,67613,1,0,0:0:0:0:
308,252,68029,1,8,0:0:0:0:
388,192,68446,6,0,P|333:175|293:139,1,100,0|8,0:0|0:0,0:0:0:0:
380,88,69279,1,0,0:0:0:0:
480,84,69696,1,8,0:0:0:0:
480,184,70113,2,0,B|472:236|424:248|376:224,1,100,0|8,0:0|0:0,0:0:0:0:
372,140,70946,6,0,B|312:136|272:96,1,100,0|8,0:0|0:0,0:0:0:0:
280,208,71779,1,0,0:0:0:0:
280,308,72196,1,8,0:0:0:0:
42,127,73446,6,0,P|37:44|51:15,1,100,0|8,0:0|0:0,0:0:0:0:
128,80,74279,2,0,P|170:11|191:4,1,100,0|8,0:0|0:0,0:0:0:0:
214,104,75113,2,0,P|264:128|289:167,2,100,0|8|4,0:0|0:0|0:0,0:0:0:0:
368,100,80946,6,0,P|324:68|272:72,1,100,0|8,0:0|0:0,0:0:0:0:
272,168,81779,1,0,0:0:0:0:
180,132,82196,2,0,B|204:24,1,100,8|0,0:0|0:0,0:0:0:0:
104,52,83029,6,0,B|116:92|80:136|40:132|40:132|28:108|-16:132|-4:172|20:180,1,200,8|8,0:0|0:0,0:0:0:0:
100,212,84279,1,0,0:0:0:0:
164,288,84696,1,8,0:0:0:0:
220,204,85113,6,0,P|268:264|316:272,1,100,0|8,0:0|0:0,0:0:0:0:
376,220,85946,2,0,P|388:332|316:384,1,200,0|0,0:0|0:0,0:0:0:0:
216,216,87613,5,0,0:0:0:0:
140,152,88029,1,8,0:0:0:0:
44,180,88446,2,0,L|48:76,2,100,0|8|0,0:0|0:0|0:0,0:0:0:0:
12,276,89696,5,8,0:0:0:0:
112,256,90113,2,0,P|164:292|148:356,1,100,0|8,0:0|0:0,0:0:0:0:
268,312,90946,1,0,0:0:0:0:
360,380,91362,1,8,0:0:0:0:
408,292,91779,6,0,B|368:292|352:280|352:280|336:268|328:240,1,100,0|8,0:0|0:0,0:0:0:0:
316,144,92613,2,0,B|280:140|260:168|260:168|252:180|256:196|208:192,2,100,0|8|0,0:0|0:0|0:0,0:0:0:0:
416,148,93863,1,8,0:0:0:0:
368,60,94279,1,0,0:0:0:0:
468,64,94696,5,8,0:0:0:0:
500,160,95113,2,0,B|480:207|456:230|456:230|410:267|410:267|360:328,1,200
468,348,96363,5,8,0:0:0:0:
468,348,96779,1,0,0:0:0:0:
372,372,97196,1,8,0:0:0:0:
364,272,97613,6,0,P|304:312|264:320,1,100,0|8,0:0|0:0,0:0:0:0:
232,228,98446,2,0,L|96:228,2,100,0|8|0,0:0|0:0|0:0,0:0:0:0:
184,316,99696,1,8,0:0:0:0:
100,368,100113,1,0,0:0:0:0:
224,224,100946,6,0,B|236:182|236:182|251:158|251:158|256:130,1,100,0|8,0:0|0:0,0:0:0:0:
314,44,101779,2,0,B|363:75|354:125|354:125|344:176|399:210,1,200
480,152,103029,5,8,0:0:0:0:
400,208,103446,2,0,L|288:192,1,100,0|8,0:0|0:0,0:0:0:0:
256,104,104279,2,0,B|216:112|216:144|216:144|176:168,2,100,0|8|0,0:0|0:0|0:0,0:0:0:0:
320,176,105529,2,0,P|352:240|328:272,1,100,8|0,0:0|0:0,0:0:0:0:
240,280,106363,1,8,0:0:0:0:
168,212,106779,6,0,P|136:268|88:292,1,100,0|8,0:0|0:0,0:0:0:0:
20,336,107613,1,0,0:0:0:0:
112,372,108029,1,8,0:0:0:0:
212,372,108446,2,0,P|216:320|236:256,2,100,0|8|0,0:0|0:0|0:0,0:0:0:0:
304,332,109696,5,8,0:0:0:0:
380,268,110113,1,0,0:0:0:0:
284,244,110529,2,0,L|172:244,1,100,8|0,0:0|0:0,0:0:0:0:
244,164,111363,2,0,B|275:156|275:156|307:157|307:157|350:148,1,100,8|0,0:0|0:0,0:0:0:0:
435,115,112196,1,8,0:0:0:0:
397,208,112613,1,0,0:0:0:0:
356,300,113029,6,0,B|320:284|304:260|312:184,1,100,8|0,0:0|0:0,0:0:0:0:
