osu file format v13

[General]
AudioFilename: Noob.mp3
AudioLeadIn: 0
PreviewTime: 39488
Countdown: 0
SampleSet: Soft
StackLeniency: 0.6
Mode: 0
LetterboxInBreaks: 0
WidescreenStoryboard: 0

[Editor]
DistanceSpacing: 1
BeatDivisor: 4
GridSize: 4
TimelineZoom: 1.9

[Metadata]
Title:Noob
TitleUnicode:Noob
Artist:Instalok
ArtistUnicode:Instalok
Creator:KiwiTheBird
Version:Hard
Source:League of Legends
Tags:MAGIC!, Rude, Parody, english
BeatmapID:488949
BeatmapSetID:207523

[Difficulty]
HPDrainRate:6
CircleSize:4
OverallDifficulty:7
ApproachRate:7
SliderMultiplier:1.6
SliderTickRate:1

[Events]
//Background and Video events
0,0,"bg.jpg",0,0
//Break Periods
2,76146,80046
2,149479,157338
//Storyboard Layer 0 (Background)
//Storyboard Layer 1 (Fail)
//Storyboard Layer 2 (Pass)
//Storyboard Layer 3 (Foreground)
//Storyboard Sound Samples
//Background Colour Transformations
3,100,163,162,255

[TimingPoints]
113,416.666666666667,4,2,0,30,1,0
113,-100,4,2,0,30,0,0
7196,-100,4,2,0,38,0,0
19279,-100,4,2,0,55,0,0
20738,-86.9565217391304,4,2,0,63,0,0
26779,-100,4,2,0,58,0,0
32404,-100,4,2,0,42,0,0
33446,-117.647058823529,4,2,0,53,0,0
43029,-100,4,2,0,58,0,0
46779,-86.9565217391304,4,2,0,63,0,0
60113,-86.9565217391304,4,2,0,63,0,1
73029,-133.333333333333,4,2,0,58,0,0
76363,-100,4,2,0,58,0,0
106779,-117.647058823529,4,2,0,53,0,0
116363,-100,4,2,0,58,0,0
120113,-86.9565217391304,4,2,0,63,0,0
133446,-86.9565217391304,4,2,0,63,0,1
146363,-100,4,2,0,58,0,0
173446,-117.647058823529,4,2,0,38,0,0
184696,-100,4,2,0,45,0,0
186779,-100,4,2,0,52,0,0

[HitObjects]
256,156,529,6,0,P|200:188|140:268,1,160,8|0,0:0|0:0,0:0:0:0:
288,328,1363,2,0,P|328:364|352:376,2,80,8|0|0,0:0|0:0|0:0,0:0:0:0:
408,220,2196,1,8,0:0:0:0:
308,96,2613,1,0,0:0:0:0:
148,104,3029,6,0,B|104:128|104:128|68:156,2,80,8|0|0,0:0|0:0|0:0,0:0:0:0:
296,164,3863,1,8,0:0:0:0:
296,164,4279,2,0,P|344:176|404:176,1,80,0|0,0:0|0:0,0:0:0:0:
404,100,4696,6,0,P|336:68|260:100,1,160,8|0,0:0|0:0,0:0:0:0:
384,208,5529,1,8,0:0:0:0:
224,224,5946,1,0,0:0:0:0:
224,224,6154,1,0,0:0:0:0:
168,280,6363,2,0,P|148:232|156:180,2,80,8|0|0,0:0|0:0|0:0,0:0:0:0:
312,352,7196,1,4,0:0:0:0:
440,244,7613,6,0,L|364:212,1,80,0|0,0:0|0:0,0:0:0:0:
300,168,8029,1,8,0:0:0:0:
300,168,8238,1,0,0:0:0:0:
304,88,8446,2,0,B|232:48|216:128|144:80,1,160,0|8,0:0|0:0,0:0:0:0:
80,48,9071,5,0,0:0:0:0:
40,116,9279,1,0,0:0:0:0:
80,48,9488,2,0,P|120:84|136:132,1,80,0|8,0:0|0:0,0:0:0:0:
112,184,9904,1,0,0:0:0:0:
112,184,10113,2,0,L|216:160,2,80,0|0|8,0:0|0:0|0:0,0:0:0:0:
272,216,10946,2,0,B|272:144|236:104|236:104|260:36,1,160,0|8,0:0|0:0,0:0:0:0:
249,66,11571,5,0,0:0:0:0:
296,140,11779,2,0,P|252:156|212:132,1,80
155,101,12196,1,8,0:0:0:0:
155,101,12404,1,0,0:0:0:0:
108,166,12613,2,0,P|115:245|189:235,1,160,0|8,0:0|0:0,0:0:0:0:
247,198,13238,1,0,0:0:0:0:
267,275,13446,2,0,P|322:267|370:237,1,80,4|0,0:0|0:0,0:0:0:0:
418,229,13863,2,0,P|396:192|394:131,1,80,8|0,0:0|0:0,0:0:0:0:
312,148,14279,6,0,P|280:184|224:204,1,80,0|0,0:0|0:0,0:0:0:0:
172,196,14696,1,8,0:0:0:0:
172,196,14904,1,0,0:0:0:0:
180,116,15113,2,0,B|200:80|200:80|272:92|313:41,1,160,0|8,0:0|0:0,0:0:0:0:
356,112,15738,5,0,0:0:0:0:
288,152,15946,2,0,P|256:176|204:196,1,80
264,260,16363,1,8,0:0:0:0:
188,280,16571,1,0,0:0:0:0:
149,209,16779,2,0,B|117:165|53:181|53:253|53:253|53:301,2,160,0|8|0,0:0|0:0|0:0,0:0:0:0:
186,138,17821,1,0,0:0:0:0:
125,85,18029,1,8,0:0:0:0:
280,56,18446,6,0,P|288:96|264:144,1,80
352,144,18863,2,0,P|328:192|296:224,1,80,8|0,0:0|0:0,0:0:0:0:
376,256,19279,1,0,0:0:0:0:
376,256,19383,1,0,0:0:0:0:
376,256,19488,2,0,B|415:234|415:234|421:233|421:233|464:208,2,80,0|8|0,0:0|0:0|0:0,0:0:0:0:
392,336,20113,1,4,0:0:0:0:
280,224,20529,5,8,0:0:0:0:
260,316,20738,1,0,0:0:0:0:
260,316,20946,2,0,P|324:300|352:272,1,92.0000017547608
384,200,21363,1,8,0:0:0:0:
328,128,21571,2,0,P|280:112|232:136,1,92.0000017547608
160,88,21988,1,0,0:0:0:0:
160,84,22092,1,0,0:0:0:0:
160,80,22196,2,0,B|128:120|83:130,1,92.0000017547608,8|0,0:0|0:0,0:0:0:0:
208,168,22613,5,0,0:0:0:0:
120,192,22821,2,0,P|72:208|32:216,1,92.0000017547608,0|8,0:0|0:0,0:0:0:0:
208,168,23238,1,0,0:0:0:0:
184,256,23446,2,0,B|234:250|246:284|246:284|257:306|285:301|285:301|308:289|348:329,2,184.000003509522,0|8|0,0:0|0:0|0:0,0:0:0:0:
176,168,24488,1,0,0:0:0:0:
176,168,24696,1,8,0:0:0:0:
163,77,24904,5,0,0:0:0:0:
70,81,25113,2,0,P|14:57|-2:25,1,92.0000017547608,0|0,0:0|0:0,0:0:0:0:
107,8,25529,1,8,0:0:0:0:
163,78,25738,2,0,B|163:126|163:126|155:206,1,92.0000017547608
152,261,26154,1,0,0:0:0:0:
243,250,26363,1,8,0:0:0:0:
251,246,26467,1,0,0:0:0:0:
259,242,26571,2,0,P|315:290|371:282,1,92.0000017547608,0|4,0:0|0:0,0:0:0:0:
367,144,27196,5,8,0:0:0:0:
412,77,27404,1,0,0:0:0:0:
459,14,27613,2,0,B|379:-18|291:14|291:14,1,160,0|8,0:0|0:0,0:0:0:0:
256,96,28238,1,0,0:0:0:0:
256,176,28446,2,0,B|304:176|312:232|312:232|320:288|368:288,1,160,0|8,0:0|0:0,0:0:0:0:
392,216,29071,5,0,0:0:0:0:
392,216,29279,2,0,P|432:208|464:156,1,80
408,116,29696,1,8,0:0:0:0:
408,116,29904,1,0,0:0:0:0:
328,144,30113,2,0,B|320:144|320:144|312:152|312:152|304:144|304:144|296:152|296:152|288:144|288:144|280:152|280:152|272:144|272:144|264:152|264:152|256:144|256:144|248:152|248:152|240:144|240:144|232:152|232:152|224:144|224:144|216:152|216:152|208:144|208:144|200:152|200:152,2,160,0|8|0,0:0|0:0|0:0,0:0:0:0:
256,192,31363,12,8,33029,0:0:0:0:
360,272,33446,6,0,P|312:272|280:240,1,68.0000012969971,4|0,0:0|0:0,0:0:0:0:
296,184,33863,1,8,0:0:0:0:
296,184,34071,1,0,0:0:0:0:
368,168,34279,2,0,P|416:136|432:104,1,68.0000012969971
352,96,34696,2,0,P|320:48|272:48,1,102.000001945496,8|0,0:0|0:0,0:0:0:0:
279,45,35113,2,0,P|264:80|231:101,1,68.0000012969971
176,64,35529,1,8,0:0:0:0:
159,137,35738,1,0,0:0:0:0:
223,174,35946,2,0,B|251:218|221:247|221:247|182:258|189:301,1,136.000002593994,0|8,0:0|0:0,0:0:0:0:
119,250,36571,5,0,0:0:0:0:
88,176,36779,2,0,L|0:208,1,68.0000012969971,4|0,0:0|0:0,0:0:0:0:
19,124,37196,2,0,P|51:108|90:79,1,68.0000012969971,8|0,0:0|0:0,0:0:0:0:
152,104,37613,1,0,0:0:0:0:
152,104,37821,1,0,0:0:0:0:
216,144,38029,2,0,B|228:180|272:216,1,68.0000012969971,8|0,0:0|0:0,0:0:0:0:
304,144,38446,2,0,B|328:144|328:144|336:232|416:232,1,136.000002593994,0|8,0:0|0:0,0:0:0:0:
440,176,39071,1,0,0:0:0:0:
440,176,39279,1,0,0:0:0:0:
461,248,39488,5,0,0:0:0:0:
404,297,39696,2,0,P|379:331|351:371,1,68.0000012969971,8|0,0:0|0:0,0:0:0:0:
436,372,40113,2,0,P|484:348|516:348,1,68.0000012969971,4|0,0:0|0:0,0:0:0:0:
480,274,40529,1,8,0:0:0:0:
466,200,40738,1,0,0:0:0:0:
466,200,40946,2,0,B|458:160|434:144|434:144|458:128|458:72,1,136.000002593994,0|8,0:0|0:0,0:0:0:0:
383,65,41571,5,0,0:0:0:0:
360,136,41779,2,0,P|328:128|288:136,1,68.0000012969971,0|0,0:0|0:0,0:0:0:0:
326,202,42196,1,8,0:0:0:0:
326,202,42404,1,0,0:0:0:0:
250,200,42613,1,0,0:0:0:0:
250,200,42821,1,0,0:0:0:0:
187,261,43029,6,0,P|216:287|274:296,1,80,8|0,0:0|0:0,0:0:0:0:
343,295,43446,1,4,0:0:0:0:
421,255,43654,1,0,0:0:0:0:
341,216,43863,2,0,P|300:217|247:248,1,80,8|0,0:0|0:0,0:0:0:0:
225,310,44279,2,0,L|169:226,1,80
261,206,44696,1,8,0:0:0:0:
188,157,44904,1,0,0:0:0:0:
116,208,45113,6,0,P|76:208|44:248,1,80,0|0,0:0|0:0,0:0:0:0:
108,298,45529,2,0,P|156:290|180:258,1,80,8|0,0:0|0:0,0:0:0:0:
226,195,45946,1,0,0:0:0:0:
226,195,46154,1,0,0:0:0:0:
314,196,46363,1,8,0:0:0:0:
314,196,46571,1,0,0:0:0:0:
320,112,46779,2,4,P|224:112|192:16,1,184.000003509522,4|8,0:0|0:0,0:0:0:0:
40,152,47613,5,0,0:0:0:0:
104,224,47821,1,0,0:0:0:0:
40,152,48029,2,0,P|104:128|128:88,1,92.0000017547608,8|0,0:0|0:0,0:0:0:0:
200,160,48446,2,0,B|240:208|240:208|256:240,1,92.0000017547608
344,208,48863,1,8,0:0:0:0:
344,208,49071,1,0,0:0:0:0:
312,120,49279,6,0,P|272:100|212:92,1,92.0000017547608,0|0,0:0|0:0,0:0:0:0:
300,36,49696,2,0,P|352:60|388:108,1,92.0000017547608,8|0,0:0|0:0,0:0:0:0:
371,177,50113,2,0,L|347:265,1,92.0000017547608
346,265,50529,1,8,0:0:0:0:
216,136,50946,5,0,0:0:0:0:
216,136,51154,1,0,0:0:0:0:
132,180,51363,1,8,0:0:0:0:
132,180,51571,1,0,0:0:0:0:
144,88,51779,2,0,P|92:96|56:124,1,92.0000017547608,0|0,0:0|0:0,0:0:0:0:
132,180,52196,2,0,P|172:216|240:228,1,92.0000017547608,8|0,0:0|0:0,0:0:0:0:
260,304,52613,2,0,L|288:200,2,92.0000017547608,0|0|8,0:0|0:0|0:0,0:0:0:0:
352,292,53238,1,0,0:0:0:0:
376,196,53446,2,0,P|392:148|436:112,2,92.0000017547608,4|0|8,0:0|0:0|0:0,0:0:0:0:
220,96,54279,5,0,0:0:0:0:
220,188,54488,1,0,0:0:0:0:
148,128,54696,1,8,0:0:0:0:
144,36,54904,1,0,0:0:0:0:
67,87,55113,2,0,P|57:133|83:183,1,92.0000017547608,0|0,0:0|0:0,0:0:0:0:
149,224,55529,1,8,0:0:0:0:
215,160,55738,1,0,0:0:0:0:
193,71,55946,2,0,P|245:75|285:79,1,92.0000017547608
347,147,56363,2,0,P|311:187|267:199,1,92.0000017547608,8|0,0:0|0:0,0:0:0:0:
184,205,56779,2,0,P|196:165|260:137,1,92.0000017547608,4|0,0:0|0:0,0:0:0:0:
325,114,57196,1,8,0:0:0:0:
396,56,57404,2,0,P|395:113|409:161,1,92.0000017547608
321,189,57821,5,0,0:0:0:0:
249,246,58029,2,0,P|325:274|377:270,1,92.0000017547608,8|0,0:0|0:0,0:0:0:0:
417,232,58446,1,4,0:0:0:0:
420,140,58654,1,0,0:0:0:0:
420,140,58863,1,8,0:0:0:0:
328,152,59071,1,0,0:0:0:0:
328,152,59279,1,0,0:0:0:0:
268,80,59488,1,0,0:0:0:0:
268,80,59592,1,0,0:0:0:0:
268,80,59696,2,0,P|192:104|140:100,1,92.0000017547608,8|0,0:0|0:0,0:0:0:0:
112,196,60113,6,0,B|158:227|188:196|188:196|208:176|238:180,1,138.000002632141,4|0,0:0|0:0,0:0:0:0:
237,179,60529,2,0,P|266:235|309:252,1,92.0000017547608,8|0,0:0|0:0,0:0:0:0:
356,184,60946,2,0,B|392:224|436:228,2,92.0000017547608,0|0|8,0:0|0:0|0:0,0:0:0:0:
408,108,61571,5,0,0:0:0:0:
324,60,61779,2,0,P|296:100|240:92,2,92.0000017547608,4|0|8,0:0|0:0|0:0,0:0:0:0:
240,24,62404,1,0,0:0:0:0:
184,98,62613,1,0,0:0:0:0:
111,41,62821,1,0,0:0:0:0:
107,45,62925,1,0,0:0:0:0:
103,49,63029,2,0,P|60:43|12:63,1,92.0000017547608,8|0,0:0|0:0,0:0:0:0:
94,136,63446,5,4,0:0:0:0:
180,168,63654,1,0,0:0:0:0:
180,168,63863,2,0,P|212:224|252:248,1,92.0000017547608,8|0,0:0|0:0,0:0:0:0:
304,180,64280,1,0,0:0:0:0:
304,180,64383,1,0,0:0:0:0:
304,180,64488,2,0,B|376:227|454:172|435:88,1,184.000003509522
348,96,65113,5,4,0:0:0:0:
260,72,65321,1,0,0:0:0:0:
260,72,65529,1,8,0:0:0:0:
216,152,65738,1,0,0:0:0:0:
216,152,65946,1,0,0:0:0:0:
136,192,66154,1,0,0:0:0:0:
136,192,66258,1,0,0:0:0:0:
136,192,66363,2,0,B|120:185|93:182|78:188|64:206|53:223,1,92.0000017547608,8|0,0:0|0:0,0:0:0:0:
120,312,66779,6,0,L|204:232,1,92.0000017547608,4|0,0:0|0:0,0:0:0:0:
260,304,67196,2,0,L|316:196,1,92.0000017547608,8|0,0:0|0:0,0:0:0:0:
384,268,67613,1,0,0:0:0:0:
384,268,67717,1,0,0:0:0:0:
384,268,67821,2,0,B|396:224|396:224|396:216|396:216|408:152,1,92.0000017547608,0|8,0:0|0:0,0:0:0:0:
403,178,68238,5,0,0:0:0:0:
320,144,68446,1,4,0:0:0:0:
320,144,68654,1,0,0:0:0:0:
260,72,68863,1,8,0:0:0:0:
260,72,69071,1,0,0:0:0:0:
260,72,69279,2,0,B|272:16|352:0|416:48|400:112,1,184.000003509522,0|8,0:0|0:0,0:0:0:0:
440,160,69904,1,0,0:0:0:0:
400,243,70113,2,0,P|340:275|292:287,1,92.0000017547608,4|0,0:0|0:0,0:0:0:0:
292,195,70529,2,0,L|180:227,1,92.0000017547608,8|0,0:0|0:0,0:0:0:0:
110,235,70946,5,0,0:0:0:0:
52,167,71154,1,0,0:0:0:0:
52,167,71363,2,0,P|96:227|140:243,1,92.0000017547608,8|0,0:0|0:0,0:0:0:0:
160,159,71779,2,0,B|248:103,1,92.0000017547608,4|0,0:0|0:0,0:0:0:0:
308,163,72196,1,8,0:0:0:0:
256,192,72404,12,4,73238,0:0:0:0:
256,320,73446,6,0,B|188:320|140:276|140:200,1,180.000006866455,0|0,0:0|0:0,0:0:0:0:
208,176,74279,2,0,B|240:160|272:160|296:184|296:184|320:208|352:208|384:192,1,180.000006866455,8|0,0:0|0:0,0:0:0:0:
344,128,75113,2,0,B|286:94|264:44|264:44|196:20|144:40,1,240.000009155274,0|4,0:0|0:0,0:0:0:0:
192,148,80946,6,0,P|228:112|272:88,1,80
308,152,81363,1,8,0:0:0:0:
308,152,81571,1,0,0:0:0:0:
380,188,81779,1,0,0:0:0:0:
380,188,81988,2,0,B|328:188|272:236|272:288,1,160,0|8,0:0|0:0,0:0:0:0:
200,252,82613,6,0,P|140:284|112:316,1,80,0|0,0:0|0:0,0:0:0:0:
64,248,83029,1,8,0:0:0:0:
16,184,83238,1,0,0:0:0:0:
92,160,83446,1,0,0:0:0:0:
92,160,83654,2,0,P|72:88|80:56,1,80,0|8,0:0|0:0,0:0:0:0:
148,112,84071,1,0,0:0:0:0:
172,188,84279,2,0,L|264:232,2,80,0|0|8,0:0|0:0|0:0,0:0:0:0:
256,296,84904,5,0,0:0:0:0:
176,280,85113,2,0,P|148:320|160:352,1,80
256,296,85529,1,8,0:0:0:0:
256,300,85633,1,0,0:0:0:0:
256,304,85738,1,0,0:0:0:0:
224,224,85946,2,0,P|196:184|188:144,1,80
160,80,86363,2,0,L|72:148,1,80,8|0,0:0|0:0,0:0:0:0:
164,168,86779,2,0,B|197:190|244:184|244:184|280:204|304:236,1,160,4|8,0:0|0:0,0:0:0:0:
344,164,87404,5,0,0:0:0:0:
344,164,87613,1,0,0:0:0:0:
412,124,87821,2,0,P|452:156|484:192,1,80,0|8,0:0|0:0,0:0:0:0:
400,216,88238,1,0,0:0:0:0:
325,244,88446,2,0,B|277:262|236:232|223:194|223:194|165:192,1,160,0|8,0:0|0:0,0:0:0:0:
190,192,89071,1,0,0:0:0:0:
114,216,89279,5,0,0:0:0:0:
114,216,89488,1,0,0:0:0:0:
108,136,89696,2,0,B|104:88|104:88|92:32,1,80,8|0,0:0|0:0,0:0:0:0:
176,68,90113,2,0,P|216:28|256:4,1,80,4|0,0:0|0:0,0:0:0:0:
264,88,90529,2,0,P|220:128|220:176,1,80,8|0,0:0|0:0,0:0:0:0:
292,168,90946,1,0,0:0:0:0:
292,168,91154,1,0,0:0:0:0:
244,232,91363,2,0,P|272:184|316:160,1,80,8|0,0:0|0:0,0:0:0:0:
356,128,91779,6,0,P|428:148|456:148,1,80,0|0,0:0|0:0,0:0:0:0:
380,212,92196,2,0,P|440:252|460:268,1,80,8|0,0:0|0:0,0:0:0:0:
368,296,92613,1,0,0:0:0:0:
364,288,92717,1,0,0:0:0:0:
360,280,92821,2,0,B|328:320|288:304|280:312|280:312|244:292|204:292,1,160,0|8,0:0|0:0,0:0:0:0:
152,348,93446,1,4,0:0:0:0:
262,232,93863,1,8,0:0:0:0:
185,254,94071,2,0,B|137:262|81:262|81:262,1,80,0|0,0:0|0:0,0:0:0:0:
113,181,94488,5,0,0:0:0:0:
43,221,94696,1,8,0:0:0:0:
43,300,94904,1,0,0:0:0:0:
111,341,95113,2,0,P|163:297|267:329,1,160,0|8,0:0|0:0,0:0:0:0:
327,327,95738,1,0,0:0:0:0:
255,362,95946,2,0,L|215:286,1,80
286,249,96363,1,8,0:0:0:0:
252,176,96571,1,0,0:0:0:0:
332,164,96779,2,0,P|388:132|372:28,1,160,4|8,0:0|0:0,0:0:0:0:
232,8,97613,5,0,0:0:0:0:
180,68,97821,1,0,0:0:0:0:
232,8,98029,2,0,P|300:16|336:48,1,80,8|0,0:0|0:0,0:0:0:0:
272,92,98446,2,0,B|236:132|236:132|216:168,1,80
300,172,98863,1,8,0:0:0:0:
352,112,99071,1,0,0:0:0:0:
364,112,99175,1,0,0:0:0:0:
372,120,99279,1,0,0:0:0:0:
388,196,99488,2,0,P|428:172|460:124,1,80,0|8,0:0|0:0,0:0:0:0:
460,244,99904,2,0,L|524:164,1,80,0|4,0:0|0:0,0:0:0:0:
384,284,100529,5,8,0:0:0:0:
384,284,100738,2,0,P|332:284|296:272,1,80
244,328,101154,1,0,0:0:0:0:
200,260,101363,2,0,P|187:220|199:180,1,80,8|0,0:0|0:0,0:0:0:0:
292,176,101779,1,0,0:0:0:0:
296,168,101883,1,0,0:0:0:0:
300,160,101988,2,0,B|260:131|260:131|210:107,1,80,0|8,0:0|0:0,0:0:0:0:
175,61,102404,5,0,0:0:0:0:
175,61,102613,1,0,0:0:0:0:
100,32,102821,1,0,0:0:0:0:
88,110,103029,2,0,P|125:149|123:196,1,80,8|0,0:0|0:0,0:0:0:0:
199,136,103446,2,0,P|259:160|279:180,1,80,4|0,0:0|0:0,0:0:0:0:
201,212,103863,2,0,L|221:320,1,80,8|0,0:0|0:0,0:0:0:0:
293,306,104279,5,0,0:0:0:0:
293,306,104488,1,0,0:0:0:0:
293,306,104696,2,0,P|267:338|212:365,1,80,8|0,0:0|0:0,0:0:0:0:
154,350,105113,2,0,P|138:310|134:262,1,80
136,193,105529,1,8,0:0:0:0:
105,118,105738,1,0,0:0:0:0:
70,46,105946,1,0,0:0:0:0:
70,46,106154,2,0,B|118:40|118:40|166:37,1,80,0|8,0:0|0:0,0:0:0:0:
191,106,106571,2,0,P|204:145|209:188,1,80,0|4,0:0|0:0,0:0:0:0:
208,183,106988,6,0,P|172:192|130:190,1,68.0000012969971,0|8,0:0|0:0,0:0:0:0:
98,252,107404,2,0,P|146:264|182:252,1,68.0000012969971
237,248,107821,1,0,0:0:0:0:
293,196,108029,1,8,0:0:0:0:
261,128,108238,1,0,0:0:0:0:
329,96,108446,2,0,P|345:124|353:172,1,68.0000012969971
389,172,108758,1,0,0:0:0:0:
389,172,108863,2,0,P|377:236|365:260,1,68.0000012969971,8|0,0:0|0:0,0:0:0:0:
449,248,109279,2,0,B|469:216|493:196|493:196|477:164|477:124,1,136.000002593994,0|8,0:0|0:0,0:0:0:0:
423,77,109904,5,0,0:0:0:0:
423,77,110113,2,0,L|335:105,1,68.0000012969971,4|0,0:0|0:0,0:0:0:0:
338,169,110529,1,8,0:0:0:0:
338,169,110738,1,0,0:0:0:0:
395,216,110946,2,0,P|429:261|459:285,1,68.0000012969971
437,268,111363,1,8,0:0:0:0:
364,286,111571,1,0,0:0:0:0:
306,238,111779,2,0,P|262:218|222:206,1,68.0000012969971
285,149,112196,1,8,0:0:0:0:
215,120,112404,2,0,P|187:152|176:191,1,68.0000012969971
112,128,112821,5,0,0:0:0:0:
160,70,113029,2,0,L|88:50,1,68.0000012969971,8|0,0:0|0:0,0:0:0:0:
112,128,113446,2,0,L|184:172,1,68.0000012969971,4|0,0:0|0:0,0:0:0:0:
232,124,113863,1,8,0:0:0:0:
232,200,114071,1,0,0:0:0:0:
156,196,114279,2,0,B|174:261|71:249|92:322,1,136.000002593994,0|8,0:0|0:0,0:0:0:0:
52,224,114904,5,0,0:0:0:0:
52,224,115113,2,0,P|71:194|106:156,1,68.0000012969971
45,112,115529,2,0,B|65:96|65:96|113:76,1,68.0000012969971,8|0,0:0|0:0,0:0:0:0:
101,4,115946,2,0,B|157:-12|197:20|197:76,1,136.000002593994,0|8,0:0|0:0,0:0:0:0:
285,68,116571,5,0,0:0:0:0:
312,152,116779,2,0,P|344:188|360:236,1,80,4|0,0:0|0:0,0:0:0:0:
268,212,117196,2,0,L|184:196,1,80,8|0,0:0|0:0,0:0:0:0:
248,132,117613,2,0,L|332:148,1,80
408,176,118029,1,8,0:0:0:0:
408,176,118238,1,0,0:0:0:0:
364,252,118446,2,0,B|336:280|336:280|292:308,1,80,4|0,0:0|0:0,0:0:0:0:
276,216,118863,2,0,B|220:256|216:292,1,80,8|0,0:0|0:0,0:0:0:0:
220,360,119279,1,0,0:0:0:0:
220,360,119488,1,0,0:0:0:0:
248,284,119696,1,8,0:0:0:0:
248,284,119904,1,0,0:0:0:0:
344,168,120113,6,0,B|285:226|285:226|236:190|182:255,1,184.000003509522,4|8,0:0|0:0,0:0:0:0:
194,240,120738,1,0,0:0:0:0:
164,324,120946,1,0,0:0:0:0:
100,256,121154,2,0,P|52:288|24:336,1,92.0000017547608,0|8,0:0|0:0,0:0:0:0:
164,324,121571,1,0,0:0:0:0:
100,256,121779,2,0,P|52:276|-12:284,1,92.0000017547608
100,340,122196,1,8,0:0:0:0:
100,340,122404,1,0,0:0:0:0:
100,340,122613,6,0,L|212:312,1,92.0000017547608
168,228,123029,2,0,P|196:192|272:184,1,92.0000017547608,8|0,0:0|0:0,0:0:0:0:
240,268,123446,2,0,P|230:219|242:171,1,92.0000017547608
278,95,123863,1,8,0:0:0:0:
130,101,124071,6,0,B|170:61|210:61,1,92.0000017547608
211,153,124488,2,0,P|263:157|299:201,2,92.0000017547608,0|8|0,0:0|0:0|0:0,0:0:0:0:
124,183,125113,2,0,L|144:279,1,92.0000017547608
223,228,125529,2,0,L|199:124,1,92.0000017547608,8|0,0:0|0:0,0:0:0:0:
288,104,125946,2,0,P|276:48|224:12,2,92.0000017547608,0|0|8,0:0|0:0|0:0,0:0:0:0:
192,92,126571,1,0,0:0:0:0:
192,92,126779,2,0,B|144:96|144:96|128:112|128:112|80:128,2,92.0000017547608,4|0|8,0:0|0:0|0:0,0:0:0:0:
368,176,127613,5,0,0:0:0:0:
380,83,127821,1,0,0:0:0:0:
448,16,128029,2,0,P|460:56|448:104,1,92.0000017547608,8|0,0:0|0:0,0:0:0:0:
420,192,128446,1,0,0:0:0:0:
420,192,128654,1,0,0:0:0:0:
500,240,128863,1,8,0:0:0:0:
500,240,129071,1,0,0:0:0:0:
412,268,129279,6,0,P|364:304|356:348,1,92.0000017547608
448,336,129696,2,0,B|484:308|484:308|480:272|496:256,1,92.0000017547608,8|0,0:0|0:0,0:0:0:0:
424,196,130113,2,0,P|380:212|328:204,2,92.0000017547608,4|0|8,0:0|0:0|0:0,0:0:0:0:
372,120,130738,1,0,0:0:0:0:
284,144,130946,1,0,0:0:0:0:
196,172,131154,5,0,0:0:0:0:
196,172,131363,2,0,P|184:224|200:264,1,92.0000017547608,8|0,0:0|0:0,0:0:0:0:
288,268,131779,1,4,0:0:0:0:
288,268,131988,1,0,0:0:0:0:
216,328,132196,2,0,P|172:327|113:309,2,92.0000017547608,8|0|0,0:0|0:0|0:0,0:0:0:0:
208,236,132821,1,0,0:0:0:0:
208,240,132925,1,0,0:0:0:0:
208,244,133029,1,8,0:0:0:0:
140,180,133238,1,0,0:0:0:0:
140,180,133446,6,0,L|260:136,1,92.0000017547608,4|0,0:0|0:0,0:0:0:0:
152,92,133863,2,0,P|200:64|276:60,1,92.0000017547608,8|0,0:0|0:0,0:0:0:0:
288,132,134279,1,0,0:0:0:0:
356,72,134488,1,0,0:0:0:0:
424,12,134696,2,0,P|376:16|328:32,1,92.0000017547608,8|0,0:0|0:0,0:0:0:0:
328,120,135113,5,4,0:0:0:0:
400,176,135321,2,0,P|356:220|304:244,1,92.0000017547608,0|8,0:0|0:0,0:0:0:0:
260,172,135738,2,0,P|212:148|184:116,1,92.0000017547608
256,60,136154,1,0,0:0:0:0:
256,60,136258,1,0,0:0:0:0:
256,60,136363,2,0,L|340:144,1,92.0000017547608,8|0,0:0|0:0,0:0:0:0:
388,64,136779,5,4,0:0:0:0:
468,20,136988,1,0,0:0:0:0:
472,112,137196,2,0,P|440:140|372:144,1,92.0000017547608,8|0,0:0|0:0,0:0:0:0:
388,64,137613,1,0,0:0:0:0:
384,56,137717,1,0,0:0:0:0:
380,48,137821,1,0,0:0:0:0:
332,128,138029,5,8,0:0:0:0:
280,52,138238,1,0,0:0:0:0:
280,52,138446,2,0,P|240:68|232:116,1,92.0000017547608,4|0,0:0|0:0,0:0:0:0:
296,180,138863,1,8,0:0:0:0:
296,180,139071,1,0,0:0:0:0:
212,216,139279,1,0,0:0:0:0:
124,240,139488,1,0,0:0:0:0:
120,242,139592,1,0,0:0:0:0:
116,244,139696,2,0,P|104:192|124:136,1,92.0000017547608,8|0,0:0|0:0,0:0:0:0:
212,216,140113,6,0,L|276:296,1,92.0000017547608,4|0,0:0|0:0,0:0:0:0:
328,216,140529,2,0,P|344:272|376:296,1,92.0000017547608,8|0,0:0|0:0,0:0:0:0:
436,228,140946,1,0,0:0:0:0:
440,220,141050,1,0,0:0:0:0:
444,212,141154,2,0,B|448:156|400:132|400:132,1,92.0000017547608,0|8,0:0|0:0,0:0:0:0:
403,134,141571,5,0,0:0:0:0:
328,84,141779,2,0,P|276:60|240:64,1,92.0000017547608,4|0,0:0|0:0,0:0:0:0:
264,152,142196,1,8,0:0:0:0:
264,152,142404,1,0,0:0:0:0:
264,152,142613,2,0,B|304:200|304:200|332:216|332:216|356:264|396:288,1,184.000003509522,0|8,0:0|0:0,0:0:0:0:
176,252,143446,5,4,0:0:0:0:
344,172,143863,1,8,0:0:0:0:
344,172,144071,1,0,0:0:0:0:
276,108,144279,2,0,P|268:160|236:196,1,92.0000017547608
152,192,144696,1,8,0:0:0:0:
184,276,144904,1,0,0:0:0:0:
276,272,145113,1,4,0:0:0:0:
276,272,145321,1,0,0:0:0:0:
300,184,145529,2,0,L|280:84,1,92.0000017547608,8|0,0:0|0:0,0:0:0:0:
192,104,145946,5,0,0:0:0:0:
192,104,146050,1,0,0:0:0:0:
192,104,146154,1,0,0:0:0:0:
192,104,146363,2,0,L|108:144,1,80,8|0,0:0|0:0,0:0:0:0:
256,192,146779,12,8,148029,0:0:0:0:
256,192,148238,12,4,149279,0:0:0:0:
232,184,158238,6,0,L|168:124,1,80
248,96,158654,2,0,L|300:32,1,80,0|8,0:0|0:0,0:0:0:0:
340,102,159071,1,0,0:0:0:0:
342,105,159175,1,0,0:0:0:0:
344,108,159279,2,0,P|312:147|277:166,2,80,0|0|8,0:0|0:0|0:0,0:0:0:0:
420,133,159904,1,0,0:0:0:0:
408,212,160113,2,0,B|392:192|372:208|340:200|332:244|332:244|292:248|252:220,1,160,0|8,0:0|0:0,0:0:0:0:
132,157,160946,5,0,0:0:0:0:
132,157,161154,1,0,0:0:0:0:
191,210,161363,1,8,0:0:0:0:
165,285,161571,1,0,0:0:0:0:
229,332,161779,2,0,B|293:348|341:284|325:220,1,160,0|8,0:0|0:0,0:0:0:0:
223,236,162404,2,0,L|139:264,1,80
119,160,162821,6,0,P|75:224|47:236,1,80,0|8,0:0|0:0,0:0:0:0:
147,260,163238,2,0,P|135:316|159:356,1,80
211,296,163654,1,0,0:0:0:0:
223,216,163863,1,8,0:0:0:0:
231,136,164071,2,0,B|301:165|256:216|314:271,1,160
360,184,164696,6,0,P|392:152|432:124,1,80,8|0,0:0|0:0,0:0:0:0:
392,56,165113,2,0,P|356:80|304:96,1,80
252,132,165529,2,0,L|264:224,1,80,8|0,0:0|0:0,0:0:0:0:
184,196,165946,2,0,P|168:236|176:308,2,80,0|0|8,0:0|0:0|0:0,0:0:0:0:
237,263,166571,1,0,0:0:0:0:
304,216,166779,1,0,0:0:0:0:
304,216,166988,2,0,P|360:232|396:224,1,80,0|8,0:0|0:0,0:0:0:0:
412,108,167404,6,0,P|444:160|452:196,1,80
368,172,167821,2,0,L|372:272,1,80,0|8,0:0|0:0,0:0:0:0:
316,312,168238,2,0,B|228:312|228:244|240:176,1,160
312,224,168863,1,8,0:0:0:0:
348,152,169071,1,0,0:0:0:0:
268,148,169279,2,0,P|200:148|168:124,1,80
128,96,169696,2,0,L|40:152,2,80,8|0|0,0:0|0:0|0:0,0:0:0:0:
188,244,170529,1,8,0:0:0:0:
224,172,170738,1,0,0:0:0:0:
248,96,170946,6,0,L|164:172,1,80,2|0,0:0|0:0,0:0:0:0:
240,212,171363,2,0,L|344:164,1,80,2|0,0:0|0:0,0:0:0:0:
348,108,171779,2,0,B|300:88|300:88|324:28|260:-4|184:28|220:96,1,240,0|0,0:0|0:0,0:0:0:0:
208,164,172613,5,0,0:0:0:0:
208,164,172821,1,0,0:0:0:0:
264,208,173029,1,8,0:0:0:0:
264,208,173238,1,0,0:0:0:0:
248,304,173446,6,4,P|208:300|156:284,1,68.0000012969971,4|0,0:0|0:0,0:0:0:0:
188,220,173863,2,0,P|132:208|112:192,1,68.0000012969971,8|0,0:0|0:0,0:0:0:0:
173,146,174279,2,0,L|249:102,1,68.0000012969971
174,63,174696,1,8,0:0:0:0:
109,100,174904,1,0,0:0:0:0:
109,100,175113,2,0,L|33:122,1,68.0000012969971
49,44,175529,2,0,P|77:15|112:7,1,68.0000012969971,8|0,0:0|0:0,0:0:0:0:
177,3,175946,1,0,0:0:0:0:
247,27,176154,1,0,0:0:0:0:
286,90,176363,6,0,P|254:114|246:170,1,68.0000012969971,8|0,0:0|0:0,0:0:0:0:
240,216,176779,1,0,0:0:0:0:
240,216,176988,1,0,0:0:0:0:
312,200,177196,2,0,P|352:192|400:160,1,68.0000012969971,8|0,0:0|0:0,0:0:0:0:
400,248,177613,2,0,L|488:200,1,68.0000012969971
432,144,178029,1,8,0:0:0:0:
432,144,178238,1,0,0:0:0:0:
432,144,178446,2,0,P|376:160|344:88,1,136.000002593994,0|8,0:0|0:0,0:0:0:0:
408,72,179071,2,0,B|432:32|432:32|456:8,1,68.0000012969971
336,32,179488,5,0,0:0:0:0:
272,72,179696,1,8,0:0:0:0:
272,72,179904,1,0,0:0:0:0:
200,88,180113,2,0,P|184:120|180:160,1,68.0000012969971
256,152,180529,1,8,0:0:0:0:
304,208,180738,1,0,0:0:0:0:
304,208,180946,2,0,P|340:176|380:148,1,68.0000012969971
416,120,181363,5,8,0:0:0:0:
420,196,181571,1,0,0:0:0:0:
484,160,181779,2,0,B|508:204|508:204|484:228|484:272|508:296,1,136.000002593994,0|8,0:0|0:0,0:0:0:0:
424,296,182404,1,0,0:0:0:0:
424,296,182613,2,0,P|384:336|352:344,1,68.0000012969971
340,276,183029,6,0,P|300:272|252:296,1,68.0000012969971,8|0,0:0|0:0,0:0:0:0:
248,208,183446,2,0,P|288:196|332:164,1,68.0000012969971
376,144,183863,1,8,0:0:0:0:
376,144,184071,1,0,0:0:0:0:
304,132,184279,2,0,P|236:124|180:176,1,136.000002593994,0|8,0:0|0:0,0:0:0:0:
160,256,184904,5,0,0:0:0:0:
160,256,185113,1,0,0:0:0:0:
128,184,185321,1,0,0:0:0:0:
128,184,185529,2,0,P|160:112|192:96,1,80,2|0,0:0|0:0,0:0:0:0:
224,160,185946,2,0,L|312:120,1,80
280,48,186363,5,8,0:0:0:0:
280,48,186467,1,0,0:0:0:0:
280,48,186571,1,0,0:0:0:0:
256,192,186779,12,0,188029,0:0:0:0:
268,320,188446,6,0,P|328:332|416:276,1,160,0|8,0:0|0:0,0:0:0:0:
276,200,189279,2,0,P|232:180|168:176,2,80,0|0|8,0:0|0:0|0:0,0:0:0:0:
432,168,190113,1,4,0:0:0:0:
328,44,190529,2,0,P|272:52|248:72,1,80,8|0,0:0|0:0,0:0:0:0:
188,112,190946,2,0,B|224:152|224:152|260:184|260:184|304:228,1,160,0|8,0:0|0:0,0:0:0:0:
464,144,191779,5,4,0:0:0:0:
308,188,192196,2,0,L|196:200,1,80,8|0,0:0|0:0,0:0:0:0:
268,268,192613,2,0,P|272:308|168:336,1,160,0|8,0:0|0:0,0:0:0:0:
112,196,193446,5,4,0:0:0:0:
268,160,193863,2,0,L|320:92,1,80,8|0,0:0|0:0,0:0:0:0:
244,60,194279,1,0,0:0:0:0:
244,60,194488,1,0,0:0:0:0:
228,140,194696,2,0,B|268:172|268:172|320:200,1,80,8|0,0:0|0:0,0:0:0:0:
228,232,195113,5,4,0:0:0:0:
116,116,195529,2,0,L|76:220,1,80,8|0,0:0|0:0,0:0:0:0:
168,200,195946,1,0,0:0:0:0:
168,280,196154,1,0,0:0:0:0:
244,308,196363,1,8,0:0:0:0:
420,236,196779,5,4,0:0:0:0:
348,92,197196,2,0,P|392:116|420:148,1,80,8|0,0:0|0:0,0:0:0:0:
348,188,197613,2,0,L|260:212,1,80
256,192,198029,12,8,198863,0:0:0:0:
200,152,199071,6,0,L|280:84,1,80,0|0,0:0|0:0,0:0:0:0:
324,52,199488,1,0,0:0:0:0:
328,132,199696,1,8,0:0:0:0:
276,192,199904,2,0,P|320:248|324:288,1,80,0|4,0:0|0:0,0:0:0:0:
