osu file format v5

[General]
AudioFilename: Virtual Emotion.mp3
AudioLeadIn: 0
PreviewTime: -1
Countdown: 1
SampleSet: Normal
StackLeniency: 0.7
Mode: 0
LetterboxInBreaks: 1
EditorBookmarks: 46028

[Metadata]
Title:Virtual Emotion
Artist:Inspektor K
Creator:steve_krd
Version:Normal
Source:
Tags:

[Difficulty]
HPDrainRate:7
CircleSize:5
OverallDifficulty:6
SliderMultiplier:2.2
SliderTickRate:4

[Events]
//Background and Video events
//Break Periods
2,24664,31540
2,53790,55578
2,67728,77016
//Storyboard Layer 0 (Background)
//Storyboard Layer 1 (Failing)
//Storyboard Layer 2 (Passing)
//Storyboard Layer 3 (Foreground)
//Storyboard Sound Samples
//Background Colour Transformations
3,100,255,0,0

[TimingPoints]
24590,375.009155698687,3,1,0,100,1

[Colours]
Combo1 : 193,62,62
Combo2 : 244,0,0
Combo3 : 179,100,66
Combo4 : 211,33,33

[HitObjects]
48,48,5714,2,0,B|464:48,1,396.666666666667
48,144,7402,2,0,B|464:144,1,396.666666666667
432,224,9152,5,0
336,224,9777,1,0
256,224,10402,1,0
256,192,11152,12,0,12089
256,192,12714,12,0,13464
256,192,14089,12,0,14777
256,192,15402,12,0,16089
208,48,16777,5,0
144,96,17089,1,0
96,144,17464,1,4
304,48,18089,5,0
368,80,18464,1,0
416,128,18777,1,4
256,80,19464,5,0
256,144,19839,1,0
256,208,20152,1,0
256,272,20527,1,4
48,32,21152,5,8
112,96,21839,1,0
176,160,22339,1,0
256,240,22839,1,0
288,240,23152,1,0
288,112,23652,5,8
384,112,24152,1,8
448,112,24464,1,8
464,48,32590,5,8
368,48,33215,1,8
272,48,33902,1,8
192,48,34590,1,8
48,48,35215,5,8
48,48,35590,1,8
48,48,35902,1,8
32,304,36840,5,0
32,304,36965,1,8
32,304,37652,1,8
144,304,37965,1,0
256,304,38590,1,0
368,304,39340,1,0
480,304,40027,1,0
464,32,40652,5,0
464,32,40965,1,0
464,32,41340,1,0
48,48,42215,5,0
48,48,42402,1,0
48,48,42965,1,0
256,32,43340,5,0
256,144,44027,1,0
256,288,44652,1,0
16,192,45278,1,0
480,192,46028,2,0,B|48:320|16:0,7,586.666666666667
256,192,56778,12,0,67528
448,48,78216,5,0
448,48,78528,1,0
448,48,78903,1,0
112,64,79591,5,0
112,64,79903,1,0
112,64,80278,1,0
96,256,80903,5,0
96,256,81216,1,0
96,256,81591,1,0
256,192,82278,5,0
288,208,82528,1,0
448,256,82903,1,0
448,256,83028,1,0
448,256,83153,1,0
96,32,83903,5,0
80,96,84216,1,0
96,160,84591,1,0
240,96,85278,5,0
240,64,85466,1,0
416,32,85966,5,0
448,96,86591,1,0
448,144,86904,1,0
432,192,87279,1,0
480,304,87904,5,0
384,304,88279,1,0
384,304,88404,1,0
384,304,88529,1,0
32,32,88966,6,0,B|496:32,1,550
480,48,90529,6,0,B|128:320,1,440
176,320,91654,5,0
224,320,91966,1,0
288,320,92341,1,0
432,224,92966,5,0
432,160,93341,1,0
432,96,93654,1,12
144,48,94279,5,0
144,48,94654,1,0
144,48,94966,1,0
48,192,95904,5,0
48,192,96279,1,0
272,224,97091,5,0
496,272,97716,5,0
416,64,98341,5,0
224,176,99029,5,0
64,304,99654,5,0
112,112,100341,5,0
432,192,101029,5,0
272,288,101654,5,0
320,64,102341,5,0
176,128,103029,5,0
144,288,103654,5,0
432,304,104404,5,0
64,32,105029,5,0
48,352,105654,5,0
224,224,106341,5,0
480,64,107029,5,0
304,32,107717,5,0
144,64,108404,5,0
112,208,109092,5,0
432,272,109779,5,0
256,192,109967,12,0,110467
