osu file format v5

[General]
AudioFilename: Virtual Emotion.mp3
AudioLeadIn: 0
PreviewTime: -1
Countdown: 2
SampleSet: Normal
StackLeniency: 0.7
Mode: 0
LetterboxInBreaks: 1

[Metadata]
Title:Virtual Emotion
Artist:Inspektor K
Creator:steve_krd
Version:Easy
Source:
Tags:

[Difficulty]
HPDrainRate:6
CircleSize:4
OverallDifficulty:2
SliderMultiplier:1.4
SliderTickRate:1

[Events]
//Background and Video events
//Break Periods
2,78478,87406
//Storyboard Layer 0 (Background)
//Storyboard Layer 1 (Failing)
//Storyboard Layer 2 (Passing)
//Storyboard Layer 3 (Foreground)
//Storyboard Sound Samples
//Background Colour Transformations
3,100,163,162,255

[TimingPoints]
24590,375.009155698687,4,1,0,100,1

[Colours]
Combo1 : 193,62,62
Combo2 : 244,0,0
Combo3 : 179,100,66
Combo4 : 211,33,33

[HitObjects]
96,48,5714,1,0
288,48,7027,1,0
464,48,8402,1,0
464,256,9714,2,0,B|96:256,1,350
160,32,15464,5,2
128,80,15777,1,0
96,128,16152,1,4
432,64,17839,5,4
448,272,19152,5,4
256,192,20527,5,2
160,192,21214,1,0
64,192,21839,1,0
80,32,24464,5,0
80,96,24840,1,0
80,160,25215,1,4
176,64,25902,5,0
176,128,26215,1,0
176,192,26527,1,4
352,48,27215,5,0
352,320,27902,1,0
464,48,28527,5,0
464,112,28902,1,0
464,176,29277,1,0
480,304,29902,5,0
256,304,30590,1,0
32,304,31277,1,0
32,256,31590,1,0
32,208,31902,1,0
64,48,32590,5,0
128,48,33277,1,0
192,48,33965,1,0
256,48,34590,1,8
464,176,35215,5,0
416,176,35590,1,0
384,176,35965,1,0
256,192,36652,5,0
256,192,36965,1,0
256,192,37277,1,0
48,48,37965,5,0
144,48,38652,1,0
240,48,39277,1,0
336,48,39965,1,0
432,48,40652,1,4
464,320,41340,5,0
368,320,41965,1,0
272,320,42715,1,0
176,320,43340,1,0
80,320,44027,1,0
16,240,44715,1,0
16,112,45340,1,0
32,32,45903,6,0,B|160:32,6,116.666666666667
480,32,48590,6,0,B|16:320|16:304,1,536.666666666667
32,32,51403,6,0,B|480:304,1,513.333333333333
48,48,54090,5,0
176,48,55340,1,0
320,48,56778,5,2
448,48,57403,1,0
448,176,58090,1,0
448,320,58778,5,2
352,288,59403,1,2
272,336,60028,1,2
176,272,60778,5,2
96,336,61403,1,2
80,240,62090,1,2
32,160,62840,1,2
80,80,63465,5,2
176,32,64090,1,2
304,48,64840,1,2
432,48,65465,5,2
480,144,66091,1,2
464,256,66841,1,2
256,192,67528,12,2,72903
256,192,73528,12,2,77966
64,64,88966,5,0
192,64,89591,1,0
304,64,90279,1,0
416,64,90966,1,0
496,160,91591,5,0
432,176,92279,1,0
368,160,92904,1,0
272,128,93591,1,0
176,112,94279,1,0
48,320,94966,5,0
128,288,95654,1,0
224,272,96279,1,0
288,224,97029,1,0
384,128,97654,1,0
448,64,98341,1,0
496,144,99091,1,0
480,272,99716,5,0
400,272,100029,1,0
320,272,100404,1,0
256,304,101029,5,0
192,304,101341,1,0
128,304,101716,1,0
48,160,102404,5,0
112,112,103091,1,0
176,64,103716,1,0
240,32,104341,1,0
448,48,105029,5,0
448,48,105341,1,0
448,48,105716,1,0
464,144,106404,5,0
464,144,106779,1,0
464,144,107092,1,0
464,272,107779,5,0
384,288,108404,1,0
304,304,109029,1,0
224,320,109779,1,0
256,192,110467,5,4
