osu file format v9

[General]
AudioFilename: Infektami.mp3
AudioLeadIn: 2500
PreviewTime: 49537
Countdown: 0
SampleSet: Normal
StackLeniency: 0.3
Mode: 0
LetterboxInBreaks: 0

[Editor]
Bookmarks: 115880
DistanceSpacing: 1
BeatDivisor: 4
GridSize: 8

[Metadata]
Title:Infektami
Artist:Inspector K vs. KaW vs. DJ Deadly
Creator:fanzhen0019
Version:Hyper
Source:
Tags:Dr_dy

[Difficulty]
HPDrainRate:6
CircleSize:4
OverallDifficulty:5
ApproachRate:8
SliderMultiplier:1.8
SliderTickRate:1

[Events]
//Background and Video events
0,0,"1002111012852866ecc98d4036.jpg"
//Break Periods
2,42677,47375
//Storyboard Layer 0 (Background)
//Storyboard Layer 1 (Fail)
//Storyboard Layer 2 (Pass)
//Storyboard Layer 3 (Foreground)
//Storyboard Sound Samples
//Background Colour Transformations
3,100,163,162,255

[TimingPoints]
120.131683576209,352.982703847512,4,1,1,60,1,0
5722,-100,4,1,1,80,0,0
5811,-100,4,1,1,60,0,0
10002,-100,4,1,1,40,0,0
10178,-100,4,1,1,50,0,0
10354,-100,4,1,1,60,0,0
10531,-100,4,1,1,70,0,0
10707,-100,4,1,1,60,0,0
11369,-100,4,1,1,80,0,0
11457,-100,4,1,1,60,0,0
17016,-100,4,1,1,80,0,0
17104,-100,4,1,1,60,0,0
22663,-100,4,1,1,80,0,0
22751,-100,4,1,1,60,0,0
24780,-100,4,1,1,80,0,0
25574,-100,4,1,1,60,0,0
28310,-100,4,1,1,80,0,0
28398,-100,4,1,1,60,0,0
31133,-100,4,1,1,80,0,0
31221,-100,4,1,1,60,0,0
33956,-100,4,1,1,80,0,0
34045,-100,4,1,1,60,0,0
36780,-100,4,1,1,80,0,0
36868,-100,4,1,1,60,0,0
37839,-100,4,1,1,80,0,0
37927,-100,4,1,1,60,0,0
38544,-100,4,1,1,80,0,0
38633,-100,4,1,1,60,0,0
39250,-100,4,1,1,80,0,0
39339,-100,4,1,1,60,0,0
39603,-100,4,1,1,80,0,0
39692,-100,4,1,1,60,0,0
40309,-100,4,1,1,80,0,0
40397,-100,4,1,1,60,0,0
41015,-100,4,1,1,80,0,0
41103,-100,4,1,1,60,0,0
41544,-100,4,1,1,80,0,0
41633,-100,4,1,1,60,0,0
41897,-100,4,1,1,80,0,0
42515,-100,4,1,1,60,0,0
49485,-100,4,1,1,80,0,0
49573,-100,4,1,1,60,0,0
53817,-100,4,1,1,40,0,0
53905,-100,4,1,1,70,0,0
53993,-100,4,1,1,40,0,0
54081,-100,4,1,1,60,0,0
60779,-100,4,1,1,80,0,0
60867,-100,4,1,1,60,0,0
65110,-100,4,1,1,40,0,0
65198,-100,4,1,1,70,0,0
65287,-100,4,1,1,40,0,0
65375,-100,4,1,1,60,0,0
66426,-100,4,1,1,80,0,0
66514,-100,4,1,1,60,0,0
70705,-100,4,1,1,80,0,0
70793,-100,4,1,1,60,0,0
71764,-100,4,1,1,80,0,0
71852,-100,4,1,1,60,0,0
77058,-100,4,2,1,60,0,0
77719,-100,4,1,1,80,0,0
77808,-100,4,1,1,60,0,0
80013,-100,4,2,1,60,0,0
80543,-100,4,1,1,60,0,0
83322,-100,4,1,1,80,0,0
83499,-100,4,1,1,60,0,0
83763,-111.111111111111,4,1,1,60,0,0
88969,-111.111111111111,4,1,1,80,0,0
89145,-111.111111111111,4,1,1,60,0,0
92586,-111.111111111111,4,1,1,30,0,0
92675,-111.111111111111,4,1,1,40,0,0
92763,-111.111111111111,4,1,1,50,0,0
92851,-111.111111111111,4,1,1,60,0,0
92939,-111.111111111111,4,1,1,70,0,0
93028,-111.111111111111,4,1,1,80,0,0
93116,-111.111111111111,4,1,1,90,0,0
93292,-100,4,1,1,100,0,0
94792,-100,4,1,1,60,0,0
100307,-100,4,1,1,80,0,0
100395,-100,4,1,1,60,0,0
102777,-100,4,1,1,80,0,0
102865,-100,4,1,1,60,0,0
103130,-100,4,1,1,80,0,0
103218,-100,4,1,1,60,0,0
105953,-100,4,1,1,80,0,0
106042,-100,4,1,1,60,0,0
107012,-100,4,1,1,80,0,0
107100,-100,4,1,1,60,0,0
108027,-100,4,1,1,80,0,0
108203,-100,4,1,1,60,0,0
108777,-100,4,1,1,80,0,0
108865,-100,4,1,1,60,0,0
109836,-100,4,1,1,80,0,0
109924,-100,4,1,1,60,0,0
111247,-100,4,1,1,80,0,0
111336,-100,4,1,1,60,0,0
111662,-100,4,1,1,80,0,1
117247,-100,4,1,1,80,0,1
117310,-100,4,1,1,80,0,0
117335,-100,4,1,1,60,0,0
119056,-100,4,1,1,40,0,0
124173,-100,4,1,1,90,0,0

[Colours]
Combo1 : 255,209,140
Combo2 : 131,252,131
Combo3 : 181,181,253
Combo4 : 253,164,164

[HitObjects]
384,156,120,1,4
228,248,473,2,0,B|136:304,1,90
68,260,826,2,0,B|160:204,2,90
68,260,1355,1,0
152,296,1532,5,0
228,248,1708,1,0
304,200,1885,1,0
388,236,2061,1,0
460,184,2238,2,0,B|504:252|504:252|464:360,2,180
388,236,3120,5,0
304,200,3296,1,0
384,148,3473,1,0
228,248,3649,5,0
144,212,3826,1,0
132,128,4002,1,0
216,164,4179,1,0
304,200,4355,5,0
296,112,4532,1,0
376,60,4708,1,0
384,148,4885,1,0
468,92,5061,5,0
468,92,5414,1,0
472,184,5591,1,0
392,236,5767,6,0,B|316:284|316:284|288:328|288:328|228:364,1,180,4|0
168,344,6297,1,0
208,264,6473,2,0,B|304:208,1,90
464,280,6826,2,0,B|368:336,1,90
208,264,7179,5,0
120,240,7356,1,0
40,280,7532,1,0
120,240,7709,1,0
112,152,7885,2,0,B|104:40,1,90
16,72,8238,2,0,B|64:55|112:63,1,90
368,56,8591,6,0,B|320:73|272:65,1,90
112,152,8944,1,0
192,104,9121,1,0
280,66,9297,6,0,B|297:113|289:161,1,90
328,312,9650,1,0
280,240,9827,1,0
291,155,10003,6,0,B|338:137|386:145,1,90
512,96,10356,1,0
472,176,10533,1,0
256,192,10709,12,4,11415
160,112,11768,5,0
128,288,12121,1,0
296,224,12474,1,0
112,192,12827,6,0,B|24:176,2,90
200,208,13356,1,0
256,144,13533,2,0,B|304:88|304:88|416:48,1,180
464,264,14239,6,0,B|368:312|280:256,1,180
224,320,14768,1,0
176,240,14945,1,0
40,296,15121,1,0
176,240,15298,1,0
40,296,15474,1,0
88,216,15651,5,0
56,128,15827,1,0
144,152,16004,1,0
160,64,16180,1,0
224,128,16357,2,0,B|280:160|368:144,1,135
355,146,16710,1,0
392,280,16886,1,0
355,146,17063,6,0,B|312:240|200:248,1,180,4|0
168,168,17592,1,0
96,224,17769,2,0,B|16:280,1,90
96,144,18122,2,0,B|16:200,1,90
96,64,18475,2,0,B|16:120,2,90
176,104,19004,1,0
264,96,19181,2,0,B|352:64|440:96,1,180
352,120,19710,1,0
264,96,19887,6,0,B|256:168|192:216,1,135
199,210,20240,2,0,B|232:304,1,90
336,344,20593,2,0,B|303:250,1,90
120,240,20946,1,0
88,152,21122,1,0
192,160,21299,5,0
335,172,21475,1,0
277,65,21652,1,0
192,160,21828,1,0
112,192,22005,6,0,B|288:120,1,180
448,56,22711,1,4
256,192,22799,12,0,24652
256,192,24828,12,4,25534
208,232,25711,5,0
304,232,25887,1,0
256,144,26064,5,0
200,240,26240,1,0
312,240,26417,1,0
256,136,26593,5,0
192,248,26770,1,0
320,248,26946,1,0
256,128,27123,5,0
256,216,27299,1,0
256,304,27476,1,0
256,304,27652,2,0,B|224:224|288:224|256:128,1,180
408,208,28358,6,0,B|480:280,2,90,4|0|0
360,144,28888,2,0,B|386:45,2,90,0|0|0
328,216,29417,2,0,B|229:242,2,90,0|0|0
376,296,29947,5,0
320,360,30123,1,0
240,328,30300,1,0
240,240,30476,2,0,B|240:48,1,180
168,112,31006,1,0
312,112,31182,5,4
400,112,31359,2,0,B|392:160|344:184,1,90
312,112,31712,1,0
400,112,31888,2,0,B|448:144|432:200,1,90
348,181,32241,1,0
400,112,32418,2,0,B|464:96|504:136,1,90
434,188,32771,5,0
384,264,32947,1,0
348,181,33124,1,0
312,112,33300,2,0,B|400:160|384:264,1,180
344,288,33741,1,0
296,288,33829,2,0,B|312:336,1,45
264,328,34006,6,0,B|224:304|168:312,2,90,4|0|0
216,232,34535,2,0,B|168:224|120:248,2,90
104,152,35065,2,0,B|56:168|24:208,2,90
192,120,35594,5,0
216,232,35771,1,0
192,120,35947,1,0
128,216,36124,2,0,B|205:172|205:172|296:184,1,180
496,136,36830,6,0,B|440:104|384:160,1,90,4|0
344,192,37183,1,0
216,56,37359,6,0,B|216:120|292:140,1,90,0|0
344,192,37712,1,0
304,360,37889,6,0,B|359:327|339:251,1,90,4|0
344,192,38242,1,0
184,160,38418,5,0
256,216,38595,1,4
344,192,38771,1,0
272,136,38948,2,0,B|240:224|128:232,1,180,0|4
272,136,39654,6,0,B|304:168|360:176,1,90,4|0
344,88,40007,1,0
272,152,40183,6,0,B|240:184|184:192,1,90,0|4
200,104,40536,1,0
272,168,40713,6,0,B|304:200|360:208,1,90,0|0
344,120,41066,1,4
272,184,41242,2,0,B|272:280,2,90,0|0|4
192,240,41772,1,0
272,274,41948,1,4
352,240,42125,2,0,B|272:200|272:200|192:240,1,180,4|4
256,192,48125,12,8,49184
408,112,49537,6,0,B|344:296,2,180,4|8|0
440,288,50596,1,8
384,352,50773,1,0
296,344,50949,1,0
176,208,51302,5,8
264,192,51479,1,2
328,256,51655,1,0
296,344,51832,1,2
208,360,52008,1,2
56,272,52361,6,0,B|152:296|240:280,1,180,0|8
504,288,53067,2,0,B|408:256|352:152,1,180,0|8
280,152,53597,1,0
192,192,53773,6,0,B|152:224,3,45,2|2|0|2
120,248,54126,2,0,B|176:248|224:304,1,90,2|0
352,160,54479,5,2
280,216,54655,1,0
192,192,54832,1,2
120,248,55008,1,2
32,224,55185,5,4
128,72,55538,2,0,B|152:144|192:192,1,135,8|0
192,192,55891,2,0,B|168:288,2,90,0|8|8
368,208,56597,5,0
280,184,56773,1,8
192,192,56950,1,8
280,216,57126,1,0
403,208,57303,5,0
280,152,57479,1,8
152,176,57656,1,0
280,304,58009,6,0,B|336:352|416:336,1,135,0|0
472,224,58538,1,0
352,224,58715,2,0,B|312:112,1,90
280,304,59068,1,0
352,224,59244,1,0
472,224,59421,6,0,B|456:176,3,45
416,200,59774,2,0,B|384:168,3,45
352,200,60127,2,0,B|312:176,1,45
288,216,60303,2,0,B|240:208,1,45
248,256,60480,2,0,B|192:272,1,45
232,304,60656,2,0,B|200:336,1,45
240,360,60833,6,0,B|304:296|304:296|400:320,2,180,4|8|0
288,216,61892,1,8
288,216,62068,1,0
288,216,62245,6,0,B|416:248,1,90
280,136,62598,2,0,B|152:104,1,90,8|2
312,64,62951,2,0,B|440:96,2,90,0|0|10
68,190,63657,6,0,B|148:230|224:154|180:78,1,180,0|8
104,104,64186,1,0
68,190,64362,5,0
0,248,64539,1,0
80,288,64715,1,8
152,232,64892,1,0
264,272,65068,6,0,B|312:296,1,45,2|0
336,256,65245,2,0,B|384:264,1,45,2|0
400,224,65421,2,0,B|488:216,1,90,2|0
432,112,65774,5,2
352,152,65951,1,0
272,192,66127,1,2
192,232,66304,1,0
120,176,66480,6,0,B|184:368,2,180,4|8|0
176,104,67363,1,0
256,136,67539,1,8
336,104,67716,1,0
392,176,67892,6,0,B|448:248,1,90
336,344,68245,2,0,B|312:232,1,90,8|0
194,255,68598,2,0,B|176:344,1,90,0|0
64,247,68951,1,8
256,120,69304,6,0,B|256:224,1,90
176,160,69657,1,8
256,210,69834,1,0
336,160,70010,2,0,B|256:120|256:120|176:160,1,180,0|8
256,210,70540,1,0
320,272,70716,6,0,B|352:320,3,45,4|0|0|0
368,272,71069,2,0,B|392:234,3,45
416,272,71422,2,0,B|448:320,3,45
464,272,71775,2,0,B|488:234,3,45,4|0|0|0
512,272,72128,5,4
384,144,72481,1,0
512,272,72834,1,0
448,208,73011,1,0
360,232,73187,1,0
296,160,73364,1,0
280,32,73540,5,0
232,104,73717,1,0
152,144,73893,1,0
64,168,74070,1,0
96,88,74246,2,0,B|112:176|216:232,1,180
280,176,74775,1,0
232,104,74952,6,0,B|160:152|160:152|56:120,1,180
0,184,75481,1,0
0,184,75658,2,0,B|104:216,1,90
224,208,76011,2,0,B|128:272,1,90
64,376,76364,6,0,B|72:272,2,90
144,344,76893,1,0
248,344,77070,5,0
264,272,77246,1,2
312,216,77423,1,2
384,192,77599,1,2
456,184,77776,6,0,B|376:248|408:360,2,180,4|0|0
328,104,78658,2,0,B|368:144|440:128,1,90
512,40,79011,2,0,B|472:64|472:120,1,90
416,48,79364,1,0
328,104,79541,1,0
304,200,79717,1,0
328,304,79894,5,0
288,256,80070,1,2
224,240,80247,1,2
160,248,80423,1,2
112,288,80600,6,0,B|120:176|16:144,2,180
192,320,81482,1,0
224,240,81659,1,0
200,152,81835,1,0
128,208,82012,5,0
224,240,82188,1,0
320,208,82365,1,0
384,136,82541,1,0
256,192,82718,12,4,83424
400,192,83777,5,0
400,192,84130,5,0
384,248,84306,1,0
328,232,84482,1,0
344,176,84659,1,0
344,176,85012,5,0
328,120,85188,1,0
272,136,85365,1,0
288,192,85541,2,0,B|208:344,1,161.999992275238
112,192,86247,5,4
112,192,86600,5,0
112,192,86953,5,0
128,248,87130,1,0
184,232,87306,1,0
168,176,87483,1,0
168,176,87836,5,0
184,120,88012,1,0
240,136,88189,1,0
224,192,88365,2,0,B|304:344,1,161.999992275238
408,104,89071,5,4
408,104,89424,5,0
408,104,89777,5,0
352,144,89954,1,0
296,104,90130,1,0
320,40,90307,1,0
320,40,90660,5,0
384,40,90836,1,0
408,104,91013,1,0
416,168,91189,2,0,B|416:280|296:296,1,161.999992275238
104,280,91895,5,4
104,280,92248,5,0
104,280,92586,6,0,B|88:232,3,40.4999980688096
104,208,92954,2,0,B|120:160,3,40.4999980688096
104,136,93307,6,4,B|176:56|272:56,1,180
440,104,94013,2,4,B|368:184|272:184,1,180
328,56,94543,1,0
360,64,94631,1,0
384,88,94719,6,0,B|400:128|392:184,1,90,4|0
285,184,95072,1,0
192,280,95248,2,0,B|176:240|184:184,1,90,0|0
285,184,95601,1,0
375,280,95778,6,0,B|336:296|287:288,1,90,0|0
285,184,96131,1,0
184,87,96307,2,0,B|224:72|272:79,1,90,0|0
304,96,96572,1,0
336,112,96660,2,0,B|384:112,1,45
416,96,96837,6,0,B|472:176|456:296,1,180,2|2
432,288,97278,2,0,B|456:352,2,45
400,280,97543,6,0,B|384:224|328:208,1,90,0|0
256,232,97896,1,0
168,208,98072,6,0,B|184:152|240:136,1,90
312,160,98425,1,0
400,144,98602,6,0,B|384:88|328:72,1,90
256,96,98955,1,0
168,96,99131,2,0,B|118:105|48:64,2,90
336,32,99661,6,0,B|240:48|168:96,1,180
128,192,100190,1,0
160,288,100367,6,0,B|208:264|224:216,1,90,4|0
128,192,100720,1,0
296,272,100896,2,0,B|312:216|288:160,1,90
222,225,101249,1,0
376,176,101426,6,0,B|376:112|304:96,1,90
296,184,101779,1,0
400,56,101955,2,0,B|360:16|304:24,1,90
330,103,102308,1,0
392,256,102485,6,0,B|344:352|232:352,1,180,2|6
208,336,102926,2,0,B|184:384,2,45
168,312,103191,6,0,B|80:304,2,90,4|0|0
232,248,103720,2,0,B|320:256,2,90,0|0|0
184,168,104250,2,0,B|96:160,2,90,0|0|0
248,104,104779,6,0,B|336:112,2,90,0|0|0
40,72,105308,2,0,B|48:8|152:-8|176:72,1,180
248,104,105838,1,0
256,192,106014,6,0,B|288:232|336:232,1,90,4|0
328,144,106367,1,0
320,56,106544,6,0,B|269:63|245:105,1,90,0|0
328,144,106897,1,0
408,184,107073,6,0,B|426:136|402:94,1,90,4|0
328,144,107426,1,0
256,192,107603,6,0,B|240:240|272:296,1,90,0|0
352,360,107956,2,0,B|368:312|344:272,2,90,0|4|0
192,328,108485,2,0,B|152:248|184:144,1,180,0|4
256,192,109015,5,0
328,144,109191,1,0
480,120,109368,5,0
416,184,109544,1,0
328,144,109721,1,0
200,16,109897,5,4
256,88,110074,1,0
344,64,110250,1,0
432,40,110427,5,0
480,120,110603,1,0
416,184,110780,1,0
336,232,110956,2,0,B|240:264|160:192,1,180,0|4
168,112,111486,1,0
248,160,111662,6,0,B|256:208|248:264,1,90,4|0
176,304,112015,1,0
336,288,112192,6,0,B|299:320|247:343,1,90
176,304,112545,1,0
96,168,112721,6,0,B|140:187|183:224,1,90,4|0
177,305,113074,1,0
96,168,113251,5,0
248,160,113427,1,4
336,288,113604,1,0
456,288,113780,2,0,B|496:208|480:112,1,180,0|4
448,80,114221,2,0,B|464:24,2,45
408,104,114486,6,0,B|360:136|304:128,1,90,4|0
256,72,114839,1,0
248,160,115016,6,0,B|240:208|184:232,1,90,0|4
112,216,115368,1,0
160,296,115545,6,0,B|184:344|160:392,1,90,0|0
72,384,115898,1,0
160,296,116074,5,4
248,296,116251,1,0
320,248,116427,1,4
408,256,116604,2,0,B|464:176|440:72,1,180,4|4
336,72,117133,1,0
256,136,117310,5,4
256,192,117398,12,4,118722
288,264,119251,6,0,B|376:296|464:264,1,180
376,104,119957,2,0,B|296:152,1,90
48,264,120663,1,0
48,264,120840,2,0,B|16:160,2,90
136,104,121546,5,0
47,263,122075,2,0,B|136:296|224:264,1,180
136,104,122781,1,0
256,192,122958,12,4,124370
