osu file format v9

[General]
AudioFilename: Disconnected Hardkore.mp3
AudioLeadIn: 3000
PreviewTime: 49496
Countdown: 0
SampleSet: Normal
StackLeniency: 0.7
Mode: 1
LetterboxInBreaks: 0

[Editor]
DistanceSpacing: 0.8
BeatDivisor: 4
GridSize: 8

[Metadata]
Title:Disconnected Hardkore (CanBlaster Remix)
Artist:Inspector K
Creator:Shiirn
Version:Taikore
Source:
Tags:Zelos lolcubes

[Difficulty]
HPDrainRate:7
CircleSize:5
OverallDifficulty:7
ApproachRate:5
SliderMultiplier:1.4
SliderTickRate:1

[Events]
//Background and Video events
0,0,"7iPr.png"
//Break Periods
//Storyboard Layer 0 (Background)
//Storyboard Layer 1 (Fail)
//Storyboard Layer 2 (Pass)
//Storyboard Layer 3 (Foreground)
//Storyboard Sound Samples
//Background Colour Transformations
3,100,163,162,255
3,100,163,162,255
3,100,163,162,255

[TimingPoints]
34,431.654676258993,4,1,0,70,1,0
15573,428.571428571429,4,1,0,70,1,0
17287,400,4,1,0,70,1,0
18887,375,4,1,0,70,1,0
20387,352.941176470588,4,1,0,70,1,0
21798,333.333333333333,4,1,0,70,1,0
23131,315.789473684211,4,1,0,70,1,0
24394,300,4,1,0,70,1,0
25594,285.714285714286,4,1,0,70,1,0
87308,279.06976744186,4,1,0,70,1,0
88424,272.727272727273,4,1,0,70,1,0
89514,266.666666666667,4,1,0,70,1,0
90580,260.869565217391,4,1,0,70,1,0
91623,255.31914893617,4,1,0,70,1,0
92644,250,4,1,0,70,1,0
93644,244.897959183673,4,1,0,70,1,0
102460,-100,4,1,0,70,0,1
110541,-50,4,1,0,70,0,0

[HitObjects]
224,160,34,1,4
108,112,249,1,0
108,112,357,1,8
108,112,465,1,8
476,192,681,1,0
300,164,789,1,8
372,80,1005,1,8
372,80,1113,1,0
432,148,1328,1,8
376,296,1544,1,0
376,296,1760,1,8
88,164,1976,1,0
88,164,2084,1,0
88,164,2192,1,0
216,176,2408,1,8
216,176,2516,1,0
216,176,2731,1,8
216,176,2839,1,0
304,40,3055,1,0
304,40,3271,1,8
88,88,3487,1,0
88,88,3595,1,8
88,88,3703,1,0
88,88,3810,1,8
88,88,3918,1,0
168,128,4134,1,8
168,128,4242,1,0
168,128,4350,1,8
168,128,4458,1,0
168,128,4566,1,8
248,112,4782,1,8
248,112,4890,1,0
248,112,4998,1,0
248,112,5105,1,0
248,112,5213,1,8
192,240,5429,1,0
192,240,5537,1,0
192,240,5645,1,0
360,136,5861,1,8
408,176,5969,1,0
408,176,6185,1,8
408,176,6292,1,0
288,64,6508,1,8
288,64,6616,1,0
80,120,6832,1,0
80,120,6940,1,8
232,248,7156,1,0
232,248,7264,1,0
232,248,7372,1,8
192,208,7587,1,12
208,144,7803,1,8
208,144,7911,1,0
208,144,8019,1,8
104,216,8235,1,8
104,216,8343,1,0
104,216,8451,1,0
104,216,8559,1,0
104,216,8667,1,8
160,104,8882,1,0
160,104,8990,1,0
160,104,9098,1,0
24,80,9314,1,8
24,80,9422,1,0
312,176,9638,1,8
312,176,9746,1,0
112,168,9962,1,0
112,168,10177,1,8
216,48,10393,1,12
272,280,10609,1,0
216,48,10825,1,12
384,120,11041,1,8
384,120,11149,1,0
384,120,11364,1,8
384,120,11472,1,0
192,136,11688,1,0
192,136,11796,1,8
192,136,11904,1,0
192,136,12012,1,8
112,64,12120,1,8
176,216,12336,1,0
176,216,12444,1,0
176,216,12552,1,0
152,152,12767,1,0
152,152,12875,1,0
152,152,12983,1,8
152,152,13091,1,8
152,152,13199,1,8
152,152,13307,1,8
152,152,13415,1,0
368,112,13631,1,8
368,112,13739,1,8
368,112,13846,1,0
184,96,14062,1,0
184,96,14170,1,8
184,96,14278,1,0
104,216,14494,1,0
352,224,14710,1,12
352,224,15142,1,12
272,168,15573,1,0
144,128,16001,1,8
144,128,16215,1,0
248,88,16430,1,0
248,88,16537,1,0
248,88,16644,1,0
160,264,16858,1,8
160,264,16965,1,8
160,264,17073,1,0
72,224,17287,1,0
328,200,17487,1,8
328,200,17587,1,0
328,200,17687,1,0
208,136,17887,1,8
208,136,17987,1,0
208,136,18087,1,0
208,136,18187,1,0
208,136,18287,1,8
232,312,18487,1,4
232,312,18687,1,4
96,200,18887,1,0
136,48,19262,1,8
136,48,19449,1,0
288,96,19637,1,0
288,96,19730,1,0
288,96,19824,1,0
128,160,20012,1,8
128,160,20105,1,8
168,168,20199,1,0
64,112,20387,1,0
64,112,20563,1,0
64,112,20739,1,0
64,112,20828,1,8
64,112,20916,1,0
312,272,21092,1,8
312,272,21181,1,0
312,272,21269,1,0
312,272,21357,1,0
312,272,21445,1,8
312,272,21534,1,0
312,272,21622,1,0
312,272,21710,1,0
312,272,21798,1,8
224,184,21964,1,0
224,184,22131,1,8
232,72,22298,1,0
112,136,22464,1,8
112,136,22548,1,0
112,136,22631,1,0
128,48,22798,1,8
128,48,22881,1,0
128,48,22964,1,8
96,232,23131,1,0
96,232,23288,1,0
96,232,23367,1,0
96,232,23446,1,0
288,224,23604,1,8
288,224,23683,1,0
288,224,23762,1,0
288,224,23841,1,0
288,224,23920,1,8
352,112,24078,1,0
352,112,24236,1,0
160,152,24394,1,4
248,144,24694,1,8
248,144,24844,1,0
104,56,24994,1,0
104,56,25069,1,0
104,56,25144,1,0
208,88,25294,1,8
208,88,25369,1,0
208,88,25444,1,0
72,272,25594,1,8
72,272,25736,1,0
72,272,25879,1,8
72,272,26022,1,0
72,272,26165,1,8
72,272,26236,1,0
72,272,26308,1,0
72,272,26379,1,0
72,272,26451,1,8
72,272,26522,1,0
72,272,26594,1,0
72,272,26665,1,0
72,272,26736,1,8
96,176,26879,1,0
96,176,27022,1,0
96,176,27165,1,0
336,144,27308,1,8
336,144,27451,1,0
336,144,27594,1,0
336,144,27736,1,0
192,96,27879,1,8
160,192,28022,1,0
160,192,28165,1,0
160,192,28308,1,0
320,256,28451,1,8
112,304,28594,1,0
96,176,28736,1,8
96,176,28808,1,8
96,176,28879,1,8
96,176,28951,1,8
96,176,29022,1,8
40,120,29165,1,0
40,120,29308,1,0
40,120,29451,1,0
152,48,29594,1,8
152,48,29736,1,0
152,48,29879,1,0
152,48,30022,1,0
304,184,30165,1,12
304,184,30308,1,0
304,184,30451,1,0
304,184,30594,1,0
304,184,30736,1,12
304,184,30879,1,0
304,184,31022,1,0
304,184,31165,1,0
304,184,31308,1,0
176,136,31451,1,8
176,136,31594,1,0
176,136,31736,1,8
176,136,31879,1,0
176,136,32022,1,8
176,136,32165,1,0
104,64,32308,1,8
104,64,32379,1,0
104,64,32451,1,0
104,64,32594,1,8
104,64,32736,1,0
288,48,32879,1,8
200,48,33022,1,0
160,264,33165,1,8
160,264,33236,1,0
160,264,33308,1,8
160,264,33379,1,0
160,264,33451,1,8
160,264,33522,1,0
160,264,33594,1,0
96,136,33736,1,8
96,136,33879,1,0
304,160,34022,1,8
304,160,34094,1,8
304,160,34165,1,0
152,128,34308,1,8
152,128,34451,1,0
272,48,34594,1,8
272,48,34665,1,8
272,48,34736,1,0
160,208,34879,1,8
160,208,35022,1,0
160,208,35165,1,8
160,208,35308,1,8
240,280,35379,1,0
240,280,35451,1,8
48,160,35594,1,8
48,160,35665,1,0
48,160,35736,1,0
48,160,35808,1,0
48,160,35879,1,8
176,136,36022,1,8
176,136,36165,1,0
176,136,36307,1,8
176,136,36450,1,0
176,136,36593,1,8
176,136,36736,1,0
104,64,36879,1,8
104,64,36950,1,0
104,64,37022,1,0
104,64,37165,1,8
104,64,37307,1,0
288,48,37450,1,8
200,48,37593,1,0
160,264,37736,1,8
160,264,37807,1,0
160,264,37879,1,8
160,264,37950,1,0
160,264,38022,1,8
160,264,38093,1,0
160,264,38165,1,0
96,136,38307,1,8
96,136,38450,1,0
304,160,38593,1,8
304,160,38665,1,8
304,160,38736,1,0
152,128,38879,1,8
152,128,39022,1,0
272,48,39165,1,8
192,168,39308,1,8
192,168,39379,1,0
192,168,39451,1,0
192,168,39522,1,0
192,168,39594,1,8
192,168,39665,1,0
192,168,39736,1,0
192,168,39808,1,0
192,168,39879,1,8
192,168,39951,1,0
192,168,40022,1,8
192,168,40094,1,0
192,168,40165,1,8
192,168,40236,1,0
192,168,40308,1,8
192,168,40379,1,0
192,168,40451,1,8
400,112,40594,1,0
176,88,40736,1,8
48,128,40879,1,0
96,248,41022,1,0
184,280,41165,1,0
360,200,41308,1,8
296,48,41451,1,8
296,48,41522,1,8
296,48,41594,1,0
296,48,41736,1,8
296,48,41808,1,8
296,48,41879,1,0
88,64,42022,1,8
88,64,42094,1,8
88,64,42165,1,0
88,64,42236,1,8
88,64,42308,1,0
176,144,42379,1,8
176,144,42451,1,8
136,232,42594,1,0
136,232,42665,1,0
192,168,42736,1,8
400,112,42879,1,0
176,88,43021,1,8
48,128,43164,1,0
96,248,43307,1,0
184,280,43450,1,0
360,200,43593,1,8
296,48,43736,1,8
296,48,43807,1,8
296,48,43879,1,0
296,48,44021,1,8
296,48,44093,1,8
296,48,44164,1,0
88,64,44307,1,8
88,64,44379,1,8
88,64,44450,1,0
88,64,44521,1,8
88,64,44593,1,0
176,144,44664,1,8
176,144,44736,1,8
136,232,44879,1,0
136,232,44950,1,0
264,144,45022,1,8
400,112,45165,1,0
176,88,45307,1,8
48,128,45450,1,0
96,248,45593,1,0
184,280,45736,1,0
360,200,45879,1,8
296,48,46022,1,8
296,48,46093,1,8
296,48,46165,1,0
296,48,46307,1,8
296,48,46379,1,8
296,48,46450,1,0
88,64,46593,1,8
88,64,46665,1,8
88,64,46736,1,0
88,64,46807,1,8
88,64,46879,1,0
176,144,46950,1,8
176,144,47022,1,8
136,232,47165,1,0
136,232,47236,1,0
192,168,47307,1,8
288,296,47451,1,0
288,296,47594,1,0
288,296,47736,1,0
368,176,47879,1,12
200,64,48022,1,0
200,64,48165,1,0
200,64,48308,1,0
360,72,48451,1,12
272,120,48594,1,0
272,120,48736,1,12
88,160,48879,1,0
224,224,49022,1,12
224,224,49165,1,12
224,224,49308,1,12
224,224,49451,1,12
160,144,49594,1,12
216,56,50022,1,12
320,144,50451,1,4
320,144,50879,1,4
144,208,51308,1,12
208,144,51451,1,4
160,144,51879,1,12
216,56,52307,1,12
320,144,52736,1,4
320,144,53164,1,4
40,144,53451,1,0
160,168,53594,1,0
160,168,53736,1,0
160,48,53879,1,0
160,48,53951,1,0
160,48,54022,1,0
160,48,54094,1,0
120,72,54165,1,8
48,48,54308,1,0
48,48,54379,1,0
48,48,54451,1,0
400,120,54594,1,8
240,96,54736,1,0
240,96,54808,1,0
240,96,54879,1,0
336,32,55022,1,8
336,32,55165,1,0
336,32,55236,1,0
336,32,55308,1,0
152,200,55451,1,8
152,200,55594,1,0
16,160,55665,1,0
96,160,55736,1,0
80,96,55879,1,0
80,96,56022,1,0
176,32,56165,1,0
176,32,56308,1,0
208,136,56451,1,8
336,112,56594,1,0
336,112,56665,1,0
336,112,56736,1,8
256,72,56879,1,8
264,272,57022,1,8
264,272,57094,1,0
264,272,57165,1,8
368,224,57308,1,8
368,224,57451,1,8
416,168,57736,1,4
192,192,58022,1,8
192,192,58165,1,8
168,120,58308,1,0
168,120,58451,1,8
168,120,58522,1,0
168,120,58594,1,0
168,120,58665,1,0
168,120,58736,1,8
256,64,59022,1,0
112,192,59165,1,8
112,192,59236,1,0
112,192,59308,1,8
72,72,59451,1,8
192,192,59594,1,8
336,176,59736,1,4
216,128,60022,1,4
392,96,60308,1,4
32,152,60451,1,0
32,152,60522,1,0
32,152,60594,1,0
352,240,60736,1,8
352,240,60808,1,8
352,240,60879,1,8
392,96,61022,1,4
176,40,61165,1,0
176,40,61236,1,8
176,40,61308,1,8
256,40,61451,1,8
256,40,61522,1,0
256,40,61594,1,8
368,176,61736,1,8
368,176,61879,1,8
208,168,62022,1,4
104,160,62308,1,4
216,264,62594,1,4
96,256,62736,1,0
96,256,62808,1,8
96,256,62879,1,8
96,256,63022,1,8
48,112,63094,1,0
48,112,63165,1,8
168,120,63308,1,8
256,64,63594,1,0
112,192,63737,1,8
112,192,63808,1,0
112,192,63880,1,8
72,72,64023,1,8
192,192,64166,1,8
336,176,64308,1,4
216,128,64594,1,4
392,96,64880,1,4
32,152,65023,1,0
32,152,65094,1,0
32,152,65166,1,0
352,240,65308,1,8
352,240,65380,1,8
352,240,65451,1,8
392,96,65594,1,4
176,40,65737,1,0
176,40,65808,1,8
176,40,65880,1,8
256,40,66023,1,8
256,40,66094,1,0
256,40,66166,1,8
368,176,66308,1,8
368,176,66451,1,8
208,168,66594,1,4
104,160,66880,1,4
216,264,67166,1,4
96,256,67308,1,0
96,256,67380,1,8
96,256,67451,1,8
96,256,67594,1,8
48,112,67666,1,0
48,112,67737,1,8
144,40,67879,1,0
144,40,68022,1,8
248,136,68165,1,0
248,136,68236,1,0
248,136,68308,1,8
144,40,68451,1,0
144,40,68594,1,8
248,136,68737,1,0
248,136,68808,1,0
248,136,68880,1,8
152,208,69022,1,0
336,192,69165,1,8
336,192,69236,1,8
336,192,69308,1,0
64,144,69451,1,8
64,288,69594,1,0
64,288,69665,1,0
64,288,69736,1,8
64,288,69808,1,8
64,288,69879,1,0
352,112,70022,1,8
144,40,70165,1,0
144,40,70308,1,8
248,136,70451,1,0
248,136,70522,1,0
248,136,70594,1,8
144,40,70737,1,0
144,40,70880,1,8
248,136,71023,1,0
248,136,71094,1,0
248,136,71166,1,8
152,208,71308,1,0
336,192,71451,1,8
336,192,71522,1,8
336,192,71594,1,0
64,144,71737,1,8
64,288,71880,1,0
64,288,71951,1,0
64,288,72022,1,8
64,288,72094,1,8
64,288,72165,1,0
352,112,72308,1,8
144,40,72451,1,0
144,40,72594,1,8
248,136,72737,1,0
248,136,72808,1,0
248,136,72880,1,8
144,40,73023,1,0
144,40,73166,1,8
248,136,73309,1,0
248,136,73380,1,0
248,136,73452,1,8
152,208,73594,1,0
336,192,73737,1,8
336,192,73808,1,8
336,192,73880,1,0
64,144,74023,1,8
64,288,74166,1,0
64,288,74237,1,0
64,288,74308,1,8
64,288,74380,1,8
64,288,74451,1,0
352,112,74594,1,8
416,48,74736,1,12
144,96,74879,1,0
192,32,75022,1,0
192,32,75094,1,0
192,32,75165,1,0
368,208,75308,1,12
176,216,75451,1,0
256,128,75594,1,0
256,128,75665,1,0
256,128,75736,1,0
304,32,75879,1,8
304,32,75974,1,8
416,160,76070,1,0
304,32,76165,1,8
304,32,76260,1,8
416,160,76355,1,0
64,176,76451,1,8
64,176,76546,1,0
64,176,76641,1,8
64,176,76736,1,0
64,176,76832,1,8
64,176,76927,1,0
64,176,77022,1,0
120,104,77213,1,0
120,104,77308,1,8
192,304,77498,1,0
192,304,77594,1,8
192,208,77689,1,8
192,208,77784,1,0
192,208,77879,1,8
304,96,78070,1,8
304,96,78165,1,0
304,96,78355,1,0
304,96,78451,1,8
192,128,78641,1,0
192,128,78736,1,0
192,128,78832,1,8
192,128,78927,1,0
192,128,79022,1,8
304,96,79213,1,8
304,96,79308,1,0
304,96,79498,1,0
304,96,79594,1,8
192,304,79784,1,0
192,304,79880,1,8
192,208,79975,1,8
192,208,80070,1,0
192,208,80165,1,8
256,40,80355,1,0
272,160,80451,1,0
400,152,80641,1,8
400,152,80832,1,0
400,152,81022,1,8
104,176,81308,1,0
104,176,81355,1,0
104,176,81403,1,0
104,176,81451,1,0
104,176,81498,1,0
104,176,81546,1,0
104,176,81594,1,0
88,88,81784,1,0
88,88,81879,1,8
304,120,82070,1,8
304,120,82165,1,0
240,200,82451,1,12
104,176,82736,1,0
88,88,82926,1,0
88,88,83021,1,8
304,120,83212,1,8
304,120,83307,1,0
240,200,83593,1,12
192,72,83879,1,0
192,72,83974,1,0
192,72,84070,1,0
192,72,84165,1,8
312,48,84451,1,0
312,48,84546,1,8
312,48,84641,1,0
312,48,84736,1,8
112,144,85022,1,8
112,144,85094,1,0
112,144,85165,1,0
112,144,85236,1,0
112,144,85308,1,8
112,144,85379,1,0
112,144,85450,1,0
112,144,85521,1,0
112,144,85593,1,8
64,72,85665,1,0
64,72,85736,1,8
64,72,85808,1,0
64,72,85879,1,8
64,72,85951,1,0
64,72,86022,1,8
64,72,86094,1,0
64,72,86165,1,0
216,136,86451,1,8
216,136,86594,1,0
216,136,86736,1,8
328,48,87022,1,0
328,48,87165,1,0
176,80,87308,1,8
176,80,87447,1,0
176,80,87587,1,8
176,80,87726,1,0
176,80,87866,1,8
336,200,88145,1,0
120,192,88284,1,0
120,192,88424,1,8
120,192,88560,1,8
192,200,88696,1,0
192,200,88833,1,8
192,200,88969,1,8
80,128,89105,1,0
80,128,89242,1,8
80,128,89378,1,8
256,48,89514,1,0
256,48,89647,1,8
256,48,89780,1,8
112,64,89914,1,0
112,64,90047,1,8
112,64,90180,1,8
112,64,90314,1,8
320,160,90447,1,8
144,208,90580,1,0
144,208,90710,1,8
64,152,90840,1,8
144,208,90971,1,0
144,208,91101,1,8
64,152,91232,1,8
144,208,91362,1,0
144,208,91492,1,8
224,208,91623,1,8
216,48,91750,1,0
216,48,91878,1,8
216,48,92005,1,8
200,104,92133,1,8
200,104,92261,1,0
200,104,92388,1,8
200,104,92516,1,0
32,32,92644,1,8
32,32,92769,1,8
32,32,92894,1,0
120,112,93019,1,8
120,112,93144,1,8
120,112,93269,1,0
136,224,93394,1,8
136,224,93519,1,8
240,176,93644,1,8
240,176,93705,1,0
320,112,93766,1,0
320,112,93827,1,0
320,112,93888,1,8
320,112,93950,1,0
320,112,94011,1,0
320,112,94072,1,0
320,112,94133,1,8
320,112,94195,1,0
320,112,94256,1,8
320,112,94317,1,0
320,112,94378,1,8
320,112,94439,1,0
320,112,94501,1,8
320,112,94562,1,0
320,112,94623,1,8
200,48,94746,1,0
200,48,94868,1,8
96,80,94990,1,0
96,80,95113,1,8
176,176,95235,1,0
224,272,95358,1,8
224,272,95419,1,8
224,272,95480,1,8
224,272,95541,1,8
224,272,95603,1,8
200,48,95725,1,0
200,48,95847,1,8
96,80,95969,1,0
96,80,96092,1,8
176,176,96214,1,0
224,272,96337,1,8
224,272,96398,1,8
224,272,96459,1,8
224,272,96520,1,8
224,272,96582,1,8
200,48,96705,1,0
200,48,96827,1,8
96,80,96949,1,0
96,80,97072,1,8
176,176,97194,1,0
224,272,97317,1,8
224,272,97378,1,8
224,272,97439,1,8
224,272,97500,1,8
224,272,97562,1,8
200,48,97684,1,0
200,48,97806,1,8
96,80,97928,1,0
96,80,98051,1,8
176,176,98173,1,0
224,272,98296,1,8
224,272,98357,1,8
224,272,98418,1,8
224,272,98479,1,8
224,272,98541,1,8
40,168,98664,1,0
40,168,98786,1,8
40,168,98909,1,0
40,168,99031,1,8
160,272,99154,1,0
240,120,99521,1,0
240,120,99643,1,0
136,88,100010,1,8
136,88,100072,1,0
136,88,100133,1,0
136,88,100194,1,0
136,88,100255,1,8
208,192,100378,1,8
56,64,100501,1,0
56,64,100562,1,0
64,104,100623,1,0
80,232,100746,1,0
80,232,100868,1,0
184,288,100990,1,0
184,288,101052,1,0
184,288,101113,1,0
240,120,101235,1,0
232,56,101358,1,0
344,32,101480,2,0,B|432:104|408:240|368:328|216:368,1,420
208,176,102460,1,12
96,112,102827,1,4
200,80,103195,1,4
128,40,103562,1,4
352,160,103807,1,8
352,160,103929,1,0
328,80,104052,1,8
160,160,104174,1,0
160,160,104235,1,0
160,160,104297,1,0
160,160,104358,1,0
160,160,104419,1,8
96,112,104786,1,4
200,80,105154,1,4
64,256,105276,1,4
128,40,105521,1,4
352,160,105766,1,8
352,160,105888,1,0
328,80,106011,1,8
160,160,106133,1,0
160,160,106194,1,0
160,160,106256,1,0
160,160,106317,1,0
160,160,106378,1,8
96,112,106746,1,4
200,80,107114,1,4
128,40,107481,1,4
352,160,107726,1,8
352,160,107848,1,0
328,80,107971,1,8
160,160,108093,1,0
160,160,108154,1,0
160,160,108216,1,0
160,160,108277,1,0
160,160,108338,1,8
96,112,108705,1,4
200,80,109073,1,4
128,40,109440,1,4
352,160,109685,1,8
352,160,109807,1,0
328,80,109930,1,8
160,160,110052,1,0
160,160,110113,1,0
160,160,110175,1,0
160,160,110236,1,0
160,160,110297,1,8
160,160,110541,1,4
