osu file format v9

[General]
AudioFilename: Disconnected Hardkore.mp3
AudioLeadIn: 3000
PreviewTime: 49496
Countdown: 0
SampleSet: Normal
StackLeniency: 0.7
Mode: 0
LetterboxInBreaks: 1

[Editor]
Bookmarks: 39308,67879,77030
DistanceSpacing: 0.9
BeatDivisor: 2
GridSize: 4

[Metadata]
Title:Disconnected Hardkore (CanBlaster Remix)
Artist:Inspector K
Creator:Shiirn
Version:Insane
Source:
Tags:Zelos lolcubes

[Difficulty]
HPDrainRate:5
CircleSize:4
OverallDifficulty:7
ApproachRate:8
SliderMultiplier:1.86999990463257
SliderTickRate:1

[Events]
//Background and Video events
0,0,"disconnectedhardcorebg.png"
//Break Periods
2,77222,80558
//Storyboard Layer 0 (Background)
//Storyboard Layer 1 (Fail)
//Storyboard Layer 2 (Pass)
//Storyboard Layer 3 (Foreground)
//Storyboard Sound Samples
//Background Colour Transformations
3,100,163,162,255
3,100,163,162,255
3,100,163,162,255

[TimingPoints]
34,431.654676258993,4,1,0,50,1,0
12767,-200,4,1,0,50,0,0
13631,-100,4,1,0,50,0,0
15573,428.571428571429,4,1,0,70,1,0
17287,400,4,1,0,70,1,0
18887,375,4,1,0,70,1,0
20387,352.941176470588,4,1,0,70,1,0
21798,333.333333333333,4,1,0,70,1,0
23131,315.789473684211,4,1,0,70,1,0
24394,300,4,1,0,70,1,0
25594,285.714285714286,4,1,0,70,1,0
49594,-100,4,1,0,70,0,1
58736,-100,4,1,0,70,0,0
75879,-100,4,1,0,50,0,0
87308,279.06976744186,4,1,0,70,1,0
88424,272.727272727273,4,1,0,70,1,0
89514,266.666666666667,4,1,0,70,1,0
90580,260.869565217391,4,1,0,70,1,0
91623,255.31914893617,4,1,0,70,1,0
92644,250,4,1,0,70,1,0
93644,244.897959183673,4,1,0,70,1,0
94133,-100,4,1,0,45,0,0
94623,-100,4,1,0,70,0,0
102460,-100,4,1,0,70,0,1
110297,-100,4,1,0,70,0,0
110541,-100,4,1,0,70,0,1
110603,-100,4,1,0,70,0,0

[Colours]
Combo1 : 181,138,74
Combo2 : 102,145,100
Combo3 : 56,56,188
Combo4 : 173,71,71

[HitObjects]
60,60,34,2,0,B|102:44|149:68,1,93.4999952316285
174,109,357,1,0
198,151,465,2,0,B|245:174|288:159,1,93.4999952316285,2|0
319,140,789,2,0,B|367:147|404:176,2,93.4999952316285
324,196,1328,6,0,B|336:288,1,93.4999952316285,2|2
336,288,1760,1,2
126,323,2192,2,0,B|60:288|61:207,2,140.249992847443,0|4|2
212,256,3055,1,0
288,224,3271,1,0
332,288,3487,6,0,B|392:296,1,46.7499976158143,0|2
462,295,3703,2,0,B|492:260,1,46.7499976158143
508,184,3918,1,0
376,172,4134,1,0
360,140,4242,1,0
344,108,4350,1,0
328,76,4458,1,2
312,44,4566,6,0,B|224:104,1,93.4999952316285
200,84,4890,1,0
160,80,4998,1,0
128,92,5105,1,2
92,112,5213,2,0,B|72:204|104:296,1,186.999990463257,6|0
349,237,5969,2,0,B|364:168|340:98,1,140.249992847443,2|0
220,44,6508,5,0
220,44,6616,1,0
112,100,6832,1,2
112,100,6940,2,0,B|64:180|96:280,1,186.999990463257,0|2
184,316,7587,1,0
256,248,7803,1,0
256,248,7911,1,0
256,248,8019,2,0,B|320:256,1,46.7499976158143
352,252,8235,6,0,B|412:236,3,46.7499976158143,2|0|0|0
440,228,8667,1,4
264,48,9098,2,0,B|252:112|168:152,2,140.249992847443,4|2|0
172,56,9962,2,0,B|84:100,1,93.4999952316285
40,184,10393,5,2
148,288,10717,1,0
148,288,10825,2,0,B|236:328,1,93.4999952316285,2|0
288,336,11149,2,0,B|320:292|304:240,1,93.4999952316285
328,204,11472,2,0,B|372:184|432:192,1,93.4999952316285,0|2
180,56,12120,5,0
120,132,12336,1,0
120,132,12444,1,0
120,132,12551,1,2
120,132,12767,6,2,B|84:220|84:220|96:268,1,140.249992847443,0|2
192,256,13631,6,0,B|224:192,2,46.7499976158143
256,352,14062,1,0
320,256,14278,2,0,B|288:192,2,46.7499976158143
256,352,14710,5,4
296,152,15573,6,0,B|376:200|340:320,1,186.999990463257,0|8
171,317,16215,2,0,B|136:200|216:152,1,186.999990463257
256,224,16858,2,8,B|256:316,1,93.4999952316285,8|0
392,260,17287,6,0,B|332:336,2,93.4999952316285,0|0|8
392,124,17887,2,0,B|332:48,2,93.4999952316285,0|0|8
340,192,18487,2,0,B|220:192,1,93.4999952316285,0|8
239,100,18887,6,0,B|156:156|61:119,1,186.999990463257,0|8
61,264,19449,2,0,B|156:228|239:283,1,186.999990463257
308,240,20012,1,8
308,144,20199,1,8
416,192,20387,6,0,B|353:231|305:231|241:191,1,186.999990463257,0|8
172,152,20916,2,0,B|128:144|72:148,2,93.4999952316285
128,244,21445,2,0,B|148:288,3,46.7499976158143,8|0|8|8
172,320,21798,5,0
252,360,21964,1,0
336,332,22131,1,8
256,272,22298,2,0,B|284:184|360:120,1,186.999990463257
460,132,22798,1,8
421,51,22964,1,0
338,21,23131,6,0,B|260:72,2,93.4999952316285,0|0|8
216,16,23604,2,0,B|138:67,2,93.4999952316285
94,11,24078,2,8,B|16:62,1,93.4999952316285
104,108,24394,5,0
128,312,24694,1,8
128,312,24844,2,0,B|208:260|308:272,1,186.999990463257
392,296,25294,1,8
460,232,25444,1,0
500,152,25594,6,0,B|328:72,1,186.999990463257,0|8
252,116,26022,2,0,B|272:208,2,93.4999952316285
168,80,26451,2,0,B|124:120,3,46.7499976158143,8|0|8|0
84,120,26736,6,0,B|72:212,1,93.4999952316285
100,292,27022,1,0
172,336,27165,1,0
256,320,27308,1,0
340,336,27451,1,0
412,292,27594,1,0
440,212,27736,1,0
439,211,27879,6,0,B|432:132|348:152|296:109,1,186.999990463257
256,180,28308,1,0
215,109,28451,2,0,B|164:152|80:132|72:211,1,186.999990463257
164,240,28879,2,0,B|180:332,1,93.4999952316285
180,332,29165,6,0,B|268:360|364:330,1,186.999990463257
440,212,29594,2,0,B|352:184|255:213,1,186.999990463257
336,276,30022,1,0
336,276,30165,6,0,B|428:296,1,93.4999952316285,2|0
288,188,30451,1,0
288,188,30594,2,0,B|380:208,1,93.4999952316285,2|0
240,100,30880,1,0
240,100,31022,2,0,B|332:120,1,93.4999952316285
192,12,31308,5,0
192,12,31451,2,0,B|168:56|120:76,1,93.4999952316285,2|8
108,156,31736,2,0,B|156:170|204:150,2,93.4999952316285,0|0|2
192,236,32164,1,8
192,236,32308,1,0
192,236,32451,6,0,B|224:320|224:320|120:368,1,186.999990463257,0|8
256,192,32879,1,2
320,148,33022,2,0,B|288:64|288:64|392:16,1,186.999990463257,0|8
424,112,33451,1,0
424,112,33594,6,0,B|496:176,1,93.4999952316285,0|2
400,192,33879,2,0,B|416:288,1,93.4999952316285,8|2
328,256,34165,1,0
312,352,34308,1,2
200,352,34451,1,8
184,256,34594,1,2
184,256,34736,6,0,B|136:184|176:72,1,186.999990463257,0|8
256,128,35165,1,2
337,76,35308,2,0,B|376:184|328:256,1,186.999990463257,0|8
256,320,35736,1,0
256,320,35808,1,0
256,320,35879,2,0,B|216:344|168:344,1,93.4999952316285,0|2
88,328,36165,6,0,B|56:240|64:144,1,186.999990463257,8|0
104,56,36594,1,0
104,56,36736,2,0,B|168:160,1,93.4999952316285,8|2
232,88,37022,6,0,B|320:116|376:204,1,186.999990463257,0|8
376,292,37451,1,0
280,296,37594,2,0,B|192:268|136:180,1,186.999990463257,2|8
137,181,37951,1,0
137,181,38022,1,0
137,181,38094,1,0
137,181,38165,6,0,B|40:200,1,93.4999952316285,0|2
12,276,38451,2,0,B|76:344|176:356,1,186.999990463257,8|0
256,284,38879,2,0,B|256:172,2,93.4999952316285,2|8|0
256,190,39308,1,0
344,128,39451,2,0,B|432:156,2,93.4999952316285,2|8|0
208,176,39879,5,0
208,176,39951,1,0
208,176,40022,1,0
208,176,40094,1,0
208,176,40165,1,0
208,176,40236,1,0
208,176,40308,1,0
208,176,40379,1,0
208,176,40451,6,0,B|132:228|128:340,1,186.999990463257,2|8
248,304,40879,1,0
248,304,41022,2,0,B|200:296|164:268,1,93.4999952316285
16,192,41308,2,0,B|64:200|100:228,1,93.4999952316285,8|0
28,288,41594,6,0,B|80:364|80:364|176:376,1,186.999990463257,0|8
484,96,42165,2,0,B|432:20|432:20|336:8,1,186.999990463257,0|8
256,80,42594,1,0
128,100,42736,6,0,B|154:138|154:138|202:144,1,93.4999952316285,2|0
207,246,43022,2,0,B|202:294|202:294|164:320,1,93.4999952316285,8|0
384,284,43308,2,0,B|358:246|358:246|310:240,1,93.4999952316285
304,137,43594,2,0,B|310:90|310:90|348:64,1,93.4999952316285,8|0
408,128,43879,6,0,B|476:192|472:300,1,186.999990463257,0|8
388,360,44308,1,0
324,280,44451,1,8
256,360,44594,1,0
188,280,44736,1,8
124,360,44879,1,8
39,297,45022,6,0,B|36:192|104:128,1,186.999990463257,2|8
184,192,45451,1,0
184,192,45594,2,0,B|216:128|256:136|296:128|328:192,1,186.999990463257,0|8
408,255,46022,1,0
408,255,46165,6,0,B|476:192|472:86,1,186.999990463257,0|8
368,72,46594,1,0
368,72,46736,2,0,B|328:160,1,93.4999952316285,8|0
256,128,47022,2,0,B|216:216,1,93.4999952316285,8|0
169,109,47308,6,0,B|208:24,1,93.4999952316285,2|0
57,165,47594,2,0,B|96:80,1,93.4999952316285
144,192,47879,2,0,B|144:288|208:368,1,186.999990463257,2|0
308,384,48308,1,0
320,288,48451,6,0,B|328:192,1,93.4999952316285,2|0
412,160,48736,1,2
492,208,48879,1,0
496,104,49022,2,0,B|456:80|400:72,1,93.4999952316285,2|0
312,61,49308,2,0,B|256:136,1,93.4999952316285,2|0
256,136,49594,6,0,B|168:108|72:112,1,186.999990463257,2|0
0,192,50022,2,0,B|192:192,1,186.999990463257,2|0
256,248,50451,2,0,B|168:276|72:272,1,186.999990463257,2|0
180,356,50879,2,0,B|264:356|264:356|356:252,1,186.999990463257,2|0
324,192,51308,1,2
324,192,51451,2,0,B|391:156|395:88|315:52,1,186.999990463257,2|8
256,120,51879,6,0,B|160:120|80:60,1,186.999990463257,2|0
31,127,52308,2,0,B|112:160|84:192|112:224|32:256,1,186.999990463257,2|0
81,322,52736,2,0,B|160:264|256:264,1,186.999990463257,2|0
256,340,53165,1,2
256,44,53451,2,0,B|300:64|352:48,2,93.4999952316285,2|0|2
176,80,53879,1,2
160,96,53951,1,0
144,112,54022,1,0
128,128,54094,1,0
112,144,54165,6,0,B|128:240|204:301,1,186.999990463257,2|0
144,344,54594,2,0,B|100:292|148:264|161:210|227:232,1,186.999990463257,2|0
256,320,55022,2,0,B|328:304|368:256|352:176,1,186.999990463257,2|0
296,136,55451,2,0,B|320:92|296:48,1,93.4999952316285,2|0
216,45,55736,2,0,B|192:92|215:135,1,93.4999952316285,0|2
225,207,56022,6,0,B|186:271|258:295|330:271|290:207,1,186.999990463257,2|8
225,207,56451,2,0,B|33:192,1,186.999990463257,2|0
64,116,56879,2,0,B|124:156|124:216|90:282,1,186.999990463257,2|0
52,356,57308,1,0
90,282,57451,2,0,B|184:296|244:380,2,186.999990463257,2|2|0
16,252,58165,1,2
24,144,58308,1,2
116,192,58451,1,0
132,192,58522,1,0
148,192,58594,1,2
164,192,58665,1,0
180,192,58736,6,8,B|372:192,1,186.999990463257
456,148,59165,1,8
456,148,59236,1,0
456,148,59308,2,8,B|480:192|456:236,1,93.4999952316285
456,324,59594,1,8
456,324,59736,6,0,B|407:234|456:145,1,186.999990463257,2|2
196,52,60308,2,0,B|168:88|124:112,1,93.4999952316285,2|0
104,136,60522,1,0
88,164,60594,2,0,B|132:180|160:220,2,93.4999952316285,0|8|0
8,224,61022,6,8,B|24:316|100:384,1,186.999990463257
180,376,61451,1,0
180,376,61522,1,0
180,376,61594,1,8
256,372,61736,2,8,B|256:252,1,93.4999952316285
348,292,62022,6,0,B|256:261|165:292,2,186.999990463257,2|2|2
448,288,62736,1,8
448,256,62808,1,0
448,224,62879,2,8,B|448:128,2,93.4999952316285,0|8|8
332,192,63308,6,8,B|140:192,1,186.999990463257
56,236,63737,1,8
56,236,63808,1,0
56,236,63880,2,8,B|32:192|56:148,1,93.4999952316285
56,60,64166,1,8
56,60,64308,6,0,B|105:150|56:239,1,186.999990463257,2|2
316,332,64879,2,0,B|344:296|388:272,1,93.4999952316285,2|0
408,248,65093,1,0
424,220,65165,2,0,B|380:204|352:164,2,93.4999952316285,0|8|8
504,160,65593,6,8,B|488:68|412:0,1,186.999990463257
332,8,66022,1,0
332,8,66093,1,0
332,8,66165,1,8
256,12,66307,2,8,B|256:132,1,93.4999952316285
164,92,66593,6,0,B|255:122|346:92,2,186.999990463257,2|2|2
64,96,67307,1,8
64,128,67379,1,0
64,160,67450,2,0,B|64:256,2,93.4999952316285,0|8|8
136,100,67879,6,2,B|164:192|136:284,1,186.999990463257,2|8
200,332,68308,1,0
200,332,68451,2,8,B|265:261|359:240,1,186.999990463257,0|8
368,160,68879,1,0
364,80,69022,2,0,B|316:85|285:132,1,93.4999952316285
208,67,69308,6,0,B|274:138|368:160,1,186.999990463257,8|8
456,128,69736,1,0
440,216,69879,1,8
368,160,70022,1,0
456,128,70165,6,2,B|380:72|288:48,1,186.999990463257,2|8
208,68,70594,1,0
116,72,70736,2,0,B|128:164,1,93.4999952316285
76,232,71022,2,0,B|88:324,1,93.4999952316285,8|0
176,352,71308,5,0
260,360,71451,1,0
344,352,71594,1,8
428,360,71736,1,0
512,352,71879,2,8,B|472:264|508:168,1,186.999990463257
444,108,72308,1,0
364,56,72451,6,0,B|384:104|352:164|384:240,1,186.999990463257,2|8
316,280,72879,1,0
300,196,73022,2,0,B|284:92,1,93.4999952316285
212,188,73308,2,0,B|228:292,1,93.4999952316285,8|0
148,304,73594,6,0,B|192:376|313:368,1,186.999990463257,2|0
384,324,74022,1,0
452,272,74165,2,0,B|416:252|364:236,1,93.4999952316285
365,147,74451,2,0,B|416:132|452:112,1,93.4999952316285,8|0
392,56,74736,6,0,B|176:56,1,186.999990463257,2|0
96,136,75165,1,0
96,136,75308,2,0,B|312:136,1,186.999990463257
392,216,75737,1,0
392,216,75879,6,0,B|392:328,2,62.333330154419
344,248,76165,2,0,B|344:184,2,62.333330154419
296,216,76451,2,0,B|296:280,2,62.333330154419
248,248,76736,2,0,B|248:184,2,62.333330154419
200,216,77022,1,6
256,368,81308,6,0,B|256:336,5,31.1666650772095
248,320,81594,2,0,B|252:240|332:228,1,124.666660308838
264,216,81879,2,0,B|260:136|180:124,1,124.666660308838
160,96,82165,2,0,B|352:96,1,186.999990463257,0|2
480,184,82736,6,0,B|400:188|388:268,1,124.666660308838
376,200,83021,2,0,B|296:196|284:116,1,124.666660308838
256,96,83307,2,0,B|256:288,1,186.999990463257,0|2
80,320,83879,6,0,B|24:296,2,62.333330154419
112,288,84165,1,2
80,64,84451,6,0,B|24:88,2,62.333330154419
112,96,84737,1,2
56,192,85022,5,0
56,192,85165,2,0,B|126:171|176:216|240:192,1,186.999990463257
312,192,85594,6,0,B|352:168,3,46.7499976158143
400,176,85879,2,0,B|440:200,3,46.7499976158143,0|0|0|0
488,216,86165,2,0,B|488:264|480:312,1,93.4999952316285
176,360,86594,2,0,B|168:314|168:266,1,93.4999952316285
256,168,86879,2,0,B|256:272,2,93.4999952316285
360,144,87308,5,0
152,144,87587,1,0
152,144,87866,2,0,B|192:240,1,93.4999952316285
360,144,88145,2,0,B|320:240,1,93.4999952316285
304,312,88424,6,0,B|336:352|384:352,2,93.4999952316285
256,232,88833,1,0
328,176,88969,2,0,B|368:144|368:96,2,93.4999952316285
256,232,89378,1,0
208,152,89514,6,0,B|176:112|128:112,2,93.4999952316285
256,232,89914,1,0
184,288,90047,2,0,B|144:320|144:368,2,93.4999952316285
256,232,90447,1,0
352,248,90580,6,0,B|448:248,1,93.4999952316285
410,176,90840,2,0,B|504:176,1,93.4999952316285
352,104,91101,1,0
352,104,91232,2,0,B|445:104,2,93.4999952316285
296,40,91623,5,0
264,120,91750,1,0
184,96,91878,1,0
152,176,92005,1,0
146,257,92133,6,0,B|64:288|24:240|72:160,1,186.999990463257,2|2
312,208,92644,6,0,B|416:208,1,93.4999952316285
370,280,92894,2,0,B|472:280,1,93.4999952316285
312,352,93144,1,0
312,352,93269,2,0,B|416:352,2,93.4999952316285
256,312,93644,6,0,B|256:240,7,46.7499976158143
256,212,94133,6,0,B|276:164,3,46.7499976158143,8|8|8|8
320,192,94378,2,0,B|320:244,3,46.7499976158143,8|8|8|8
328,264,94623,6,0,B|432:240|448:136,1,186.999990463257
184,120,95113,2,0,B|80:144|64:248,1,186.999990463257
104,320,95480,1,0
160,232,95603,2,0,B|224:304|224:304|328:360,1,186.999990463257
352,152,96092,2,0,B|288:80|288:80|184:24,1,186.999990463257
323,242,96582,6,0,B|422:213|364:143|462:133,1,186.999990463257
511,194,96950,1,0
462,254,97072,2,0,B|364:245|421:174|322:145,1,186.999990463257
256,192,97439,1,0
184,144,97562,6,0,B|80:128,3,93.4999952316285
184,240,98052,2,0,B|80:256,3,93.4999952316285
32,320,98541,6,0,B|120:360,1,93.4999952316285
168,304,98786,2,0,B|256:344,1,93.4999952316285
304,288,99031,2,0,B|392:328,1,93.4999952316285
432,232,99276,2,2,B|496:280|482:192|496:104|432:152,1,186.999990463257,2|0
336,192,99643,1,0
240,152,99766,2,2,B|176:104|190:192|176:280|240:232,1,186.999990463257,0|2
256,48,100378,1,0
256,48,100501,6,0,B|72:80,1,186.999990463257
16,128,100868,1,0
16,128,100990,2,0,B|200:160,1,186.999990463257
256,208,101357,1,0
256,288,101480,6,0,B|368:288,1,93.4999952316285
464,240,101725,2,0,B|344:240,1,93.4999952316285
256,208,101970,2,0,B|368:208,1,93.4999952316285
464,160,102215,2,0,B|344:160,1,93.4999952316285
328,88,102460,6,2,B|240:56|144:64,1,186.999990463257,6|0
64,80,102827,2,2,B|112:160|96:264,1,186.999990463257,2|0
32,304,103195,2,2,B|104:368|216:368,1,186.999990463257,2|0
256,304,103562,2,2,B|256:112,1,186.999990463257,2|0
344,64,103929,2,2,B|384:88|432:88,1,93.4999952316285,0|2
472,168,104174,6,0,B|464:216,3,46.7499976158143,2|0|2|0
456,248,104419,2,0,B|424:336|312:360,1,186.999990463257,6|0
256,288,104786,2,2,B|256:96,1,186.999990463257,2|0
195,24,105154,1,2
195,24,105276,2,2,B|88:48|56:136,2,186.999990463257
316,24,105888,2,2,B|370:36|386:80,1,93.4999952316285,0|2
448,160,106133,5,2
448,160,106195,1,0
448,160,106256,1,2
448,160,106317,1,0
448,160,106378,2,2,B|440:256|368:328,1,186.999990463257,6|0
328,256,106746,2,2,B|288:328|256:296|224:328|184:256,1,186.999990463257,2|0
141,325,107113,2,2,B|72:256|64:160,1,186.999990463257,2|0
32,80,107480,6,2,B|232:80,1,186.999990463257,2|2
296,80,107848,1,0
256,144,107970,1,2
256,216,108092,2,0,B|256:264,3,46.7499976158143,2|0|2|0
224,296,108337,6,2,B|256:336|312:352|397:345,1,186.999990463257,6|0
472,312,108705,2,2,B|472:120,1,186.999990463257,2|0
472,48,109072,1,2
472,48,109195,2,2,B|376:64|336:168,2,186.999990463257
448,144,109807,1,0
408,232,109929,1,2
488,288,110052,5,2
488,288,110113,1,0
488,288,110174,1,2
488,288,110235,1,2
488,288,110297,5,6
168,264,110541,1,6
