osu file format v9

[General]
AudioFilename: Disconnected Hardkore.mp3
AudioLeadIn: 3000
PreviewTime: 49496
Countdown: 0
SampleSet: Normal
StackLeniency: 0.7
Mode: 0
LetterboxInBreaks: 1

[Editor]
Bookmarks: 39308,67879,77030
DistanceSpacing: 1
BeatDivisor: 2
GridSize: 4

[Metadata]
Title:Disconnected Hardkore (CanBlaster Remix)
Artist:Inspector K
Creator:Shiirn
Version:Easy
Source:
Tags:Zelos lolcubes

[Difficulty]
HPDrainRate:1
CircleSize:3
OverallDifficulty:1
ApproachRate:2
SliderMultiplier:0.879999904632569
SliderTickRate:1

[Events]
//Background and Video events
0,0,"disconnectedhardcorebg.png"
//Break Periods
//Storyboard Layer 0 (Background)
//Storyboard Layer 1 (Fail)
//Storyboard Layer 2 (Pass)
//Storyboard Layer 3 (Foreground)
//Storyboard Sound Samples
//Background Colour Transformations
3,100,163,162,255
3,100,163,162,255

[TimingPoints]
34,431.654676258993,4,1,0,50,1,0
15573,428.571428571429,4,1,0,70,1,0
17287,400,4,1,0,70,1,0
18887,375,4,1,0,70,1,0
20387,352.941176470588,4,1,0,70,1,0
21798,333.333333333333,4,1,0,70,1,0
23131,315.789473684211,4,1,0,70,1,0
24394,300,4,1,0,70,1,0
25594,285.714285714286,4,1,0,70,1,0
49594,-100,4,1,0,70,0,1
58736,-100,4,1,0,70,0,0
87308,279.06976744186,4,1,0,70,1,0
88424,272.727272727273,4,1,0,70,1,0
89514,266.666666666667,4,1,0,70,1,0
90580,260.869565217391,4,1,0,70,1,0
91623,255.31914893617,4,1,0,70,1,0
92644,250,4,1,0,70,1,0
93644,244.897959183673,4,1,0,70,1,0

[Colours]
Combo1 : 181,138,74
Combo2 : 102,145,100
Combo3 : 56,56,188
Combo4 : 173,71,71

[HitObjects]
96,192,34,6,0,B|152:224|152:224|192:192|256:168|320:192|360:224|360:224|416:192,1,351.999961853028
464,120,2192,2,0,B|392:72,2,87.9999904632569,0|2|0
464,208,3487,2,0,B|456:272|408:328,2,131.999985694885,0|2|0
464,120,5213,6,0,B|400:104|344:160|320:48|320:48|256:96|160:64,1,351.999961853028,2|0
120,144,7372,1,4
40,296,8235,1,4
40,296,8667,6,0,B|120:336|256:336,1,219.999976158142,2|0
328,224,10393,2,0,B|296:160|304:96,2,131.999985694885
400,272,12120,6,0,B|368:352,1,87.9999904632569
256,192,12767,12,0,14710
80,296,15573,6,0,B|40:208|104:72|216:120|240:192|304:152,1,351.999961853028
256,328,18087,1,8
213,155,18887,6,0,B|272:192|296:120|408:72|472:208|432:296,1,351.999961853028
256,248,21092,1,8
88,148,21798,6,0,B|256:52|424:148,1,351.999961853028
256,192,23762,1,8
256,192,24394,6,0,B|256:368,2,175.999980926514,0|2|0
432,192,26165,1,8
256,192,26736,5,4
72,192,27308,2,0,B|92:108|180:60,1,175.999980926514,8|0
332,60,28451,2,0,B|420:108|440:192,1,175.999980926514,8|0
256,192,29594,1,8
216,352,30165,5,6
28,52,31308,6,0,B|80:176|72:312,2,263.999971389771
204,64,33594,1,0
256,232,34165,1,0
308,64,34736,1,0
484,52,35308,6,0,B|432:176|440:312,2,263.999971389771
308,64,37594,1,2
140,112,38165,2,0,B|207:139|198:215|198:215|191:279|210:341|273:368|325:356,1,351.999961853028
432,192,40451,6,0,B|388:176|344:192|344:192|296:204|216:180|168:192|168:192|124:208|80:192,2,351.999961853028,0|2|0
308,316,43308,1,2
308,316,43879,6,0,B|206:266|216:124|356:100|418:198,1,351.999961853028
344,52,45594,1,2
168,52,46165,1,2
108,216,46736,6,0,B|169:117|310:141|319:283|215:334,2,351.999961853028,2|2|0
40,164,49308,5,0
88,92,49594,2,0,B|208:32|344:44,2,263.999971389771,2|2|2
256,144,51879,2,0,B|392:131|512:191,2,263.999971389771,2|2|2
184,196,53879,1,2
124,260,54165,6,0,B|144:340|144:340|204:352|288:332|324:348,2,263.999971389771,2|2|2
300,252,56451,2,0,B|280:172|280:172|220:160|136:180|100:164,2,263.999971389771,2|2|2
468,196,58736,5,0
388,40,59308,1,8
256,156,59879,1,0
124,40,60451,1,8
44,196,61022,5,0
156,332,61594,2,0,B|332:332,2,175.999980926514,8|0|8
156,156,63308,6,0,B|332:132,1,175.999980926514,0|8
432,276,64451,2,0,B|256:300,1,175.999980926514,0|8
84,324,65594,2,0,B|52:244|72:144,2,175.999980926514,2|8|4
256,192,66879,12,6,67879
