osu file format v12

[General]
AudioFilename: Disconnected Hardkore.mp3
AudioLeadIn: 3000
PreviewTime: 49496
Countdown: 0
SampleSet: Soft
StackLeniency: 0.7
Mode: 2
LetterboxInBreaks: 1
WidescreenStoryboard: 0

[Editor]
Bookmarks: 77030
DistanceSpacing: 0.2
BeatDivisor: 8
GridSize: 4

[Metadata]
Title:Disconnected Hardkore (CanBlaster Remix)
TitleUnicode:
Artist:Inspector K
ArtistUnicode:
Creator:ExGon
Version:MixGon
Source:
Tags:Spectator CTBuser Verdisphena Kurisuchianu
BeatmapID:123071
BeatmapSetID:38444

[Difficulty]
HPDrainRate:6
CircleSize:5
OverallDifficulty:9
ApproachRate:9
SliderMultiplier:1.92
SliderTickRate:1

[Events]
//Background and Video events
0,0,"disconnectedhardcorebg.jpg",0,0
//Break Periods
2,77222,80708
//Storyboard Layer 0 (Background)
//Storyboard Layer 1 (Fail)
//Storyboard Layer 2 (Pass)
//Storyboard Layer 3 (Foreground)
//Storyboard Sound Samples
//Background Colour Transformations
3,100,163,162,255

[TimingPoints]
34,431.654676258993,4,1,0,65,1,0
2192,-100,4,2,0,65,0,0
2300,-100,4,1,0,65,0,0
3055,-100,4,2,0,65,0,0
3163,-100,4,1,0,65,0,0
3487,-100,4,2,0,65,0,0
3918,-100,4,1,0,65,0,0
4134,-100,4,2,0,65,0,0
4566,-100,4,1,0,65,0,0
4782,-100,4,2,0,65,0,0
5213,-100,4,1,0,65,0,0
5645,-100,4,2,0,65,0,0
5753,-100,4,1,0,65,0,0
6508,-100,4,2,0,65,0,0
6616,-100,4,1,0,65,0,0
7372,-100,4,2,0,65,0,0
7480,-100,4,1,0,65,0,0
8235,-100,4,2,0,65,0,0
8667,-100,4,1,0,65,0,0
9098,-100,4,2,0,65,0,0
9206,-100,4,1,0,65,0,0
9962,-100,4,2,0,65,0,0
10069,-100,4,1,0,65,0,0
10825,-100,4,2,0,65,0,0
10933,-100,4,1,0,65,0,0
11688,-100,4,2,0,65,0,0
12120,-100,4,1,0,65,0,0
12659,-100,4,2,0,51,0,0
13739,-100,4,1,0,60,0,0
14494,-100,4,2,0,51,0,0
14602,-100,4,1,0,60,0,0
15573,428.571428571429,4,1,0,65,1,0
16001,-100,4,2,0,65,0,0
16108,-100,4,1,0,65,0,0
16858,-100,4,2,0,65,0,0
16965,-100,4,1,0,65,0,0
17287,400,4,1,0,65,1,0
17687,-100,4,2,0,65,0,0
17787,-100,4,1,0,65,0,0
18487,-100,4,2,0,65,0,0
18587,-100,4,1,0,65,0,0
18887,375,4,1,0,65,1,0
19262,-100,4,2,0,65,0,0
19355,-100,4,1,0,65,0,0
20012,-100,4,2,0,65,0,0
20105,-100,4,1,0,65,0,0
20387,352.941176470588,4,1,0,65,1,0
20739,-100,4,2,0,65,0,0
20828,-100,4,1,0,65,0,0
21445,-100,4,2,0,65,0,0
21534,-100,4,1,0,65,0,0
21798,333.333333333333,4,1,0,65,1,0
22131,-100,4,2,0,65,0,0
22214,-100,4,1,0,65,0,0
22798,-100,4,2,0,65,0,0
22881,-100,4,1,0,65,0,0
23131,315.789473684211,4,1,0,65,1,0
23446,-100,4,2,0,65,0,0
23525,-100,4,1,0,65,0,0
24078,-100,4,2,0,65,0,0
24157,-100,4,1,0,65,0,0
24394,300,4,1,0,65,1,0
24694,-100,4,2,0,65,0,0
24769,-100,4,1,0,65,0,0
25294,-100,4,2,0,65,0,0
25369,-100,4,1,0,65,0,0
25594,285.714285714286,4,1,0,65,1,0
26808,-76.9230769230769,4,2,0,75,0,0
31308,-76.9230769230769,4,1,0,55,0,0
33308,-76.9230769230769,4,1,0,43,0,0
33736,-76.9230769230769,4,1,0,55,0,0
35594,-76.9230769230769,4,1,0,43,0,0
36022,-76.9230769230769,4,1,0,55,0,0
37879,-76.9230769230769,4,1,0,43,0,0
38236,-76.9230769230769,4,1,0,55,0,0
39308,-76.9230769230769,4,1,0,43,0,0
40451,-76.9230769230769,4,1,0,55,0,0
42165,-76.9230769230769,4,1,0,43,0,0
42736,-76.9230769230769,4,1,0,55,0,0
44451,-76.9230769230769,4,1,0,43,0,0
45022,-76.9230769230769,4,1,0,55,0,0
46736,-76.9230769230769,4,1,0,43,0,0
47308,-76.9230769230769,4,1,0,55,0,0
49594,-66.6666666666667,4,2,0,65,0,1
58736,-76.9230769230769,4,2,0,70,0,0
67879,-76.9230769230769,4,1,0,55,0,0
69594,-76.9230769230769,4,1,0,43,0,0
70165,-76.9230769230769,4,1,0,55,0,0
71879,-76.9230769230769,4,1,0,43,0,0
72451,-76.9230769230769,4,1,0,55,0,0
74165,-76.9230769230769,4,1,0,43,0,0
74736,-76.9230769230769,4,1,0,55,0,0
75879,-66.6666666666667,4,1,0,45,0,0
76451,-66.6666666666667,4,1,0,40,0,0
77022,-66.6666666666667,4,1,0,55,0,0
81308,-66.6666666666667,4,1,0,42,0,0
81594,-76.9230769230769,4,1,0,55,0,0
82451,-76.9230769230769,4,2,0,100,0,0
82486,-76.9230769230769,4,1,0,55,0,0
82736,-66.6666666666667,4,1,0,55,0,0
83594,-66.6666666666667,4,2,0,100,0,0
83629,-66.6666666666667,4,1,0,55,0,0
83879,-62.5,4,1,0,55,0,0
84165,-62.5,4,2,0,100,0,0
84201,-58.8235294117647,4,1,0,55,0,0
84736,-58.8235294117647,4,2,0,100,0,0
84772,-58.8235294117647,4,1,0,55,0,0
86165,-100,4,1,0,75,0,0
86308,-100,4,1,0,60,0,0
87308,279.06976744186,4,1,0,60,1,0
88424,272.727272727273,4,1,0,60,1,0
89514,266.666666666667,4,1,0,60,1,0
90580,260.869565217391,4,1,0,60,1,0
91623,255.31914893617,4,1,0,60,1,0
92644,250,4,1,0,60,1,0
93644,244.897959183673,4,1,0,60,1,1
93674,-100,4,1,0,60,0,0
94133,-100,4,1,0,45,0,0
94623,-76.9230769230769,4,1,0,75,0,0
99031,-55.5555555555556,4,1,0,75,0,0
99766,-76.9230769230769,4,1,0,75,0,0
101480,-76.9230769230769,4,1,0,80,0,0
102460,-66.6666666666667,4,2,0,75,0,1
110297,-66.6666666666667,4,2,0,100,0,0
110327,-66.6666666666667,4,2,0,100,0,1
110603,-66.6666666666667,4,2,0,5,0,1

[Colours]
Combo1 : 147,184,193
Combo2 : 199,173,141
Combo3 : 142,182,135
Combo4 : 211,171,210

[HitObjects]
80,192,34,6,0,B|48:128|112:96,1,96,4|0,0:0|0:0,0:0:0:0:
256,192,357,1,0,0:0:0:0:
432,192,465,2,0,B|464:128|400:96,1,96
208,224,789,2,0,B|304:224,2,96
176,160,1328,2,0,B|192:112,1,48
336,160,1544,2,0,B|320:112,1,48
256,144,1760,6,0,B|256:272,1,96,4|0,0:0|0:0,0:0:0:0:
64,192,2192,1,2,0:0:0:0:
448,192,2516,1,0,0:0:0:0:
64,192,2839,1,0,0:0:0:0:
448,192,3055,1,2,0:0:0:0:
256,192,3271,1,0,0:0:0:0:
160,96,3487,6,0,B|96:96,1,48,0|2,0:0|0:0,0:0:0:0:
216,128,3703,2,0,B|152:128,1,48
272,96,3918,1,0,0:0:0:0:
352,96,4134,6,0,B|416:96,1,48,0|0,0:0|0:0,0:0:0:0:
296,128,4350,2,0,B|360:128,1,48
240,96,4565,1,0,0:0:0:0:
204,176,4782,6,0,B|156:192,1,48,0|2,0:0|0:0,0:0:0:0:
308,176,4998,2,0,B|356:192,1,48,0|2,0:0|0:0,0:0:0:0:
256,224,5213,6,0,B|256:320,1,96,4|0,0:0|0:0,0:0:0:0:
112,192,5645,2,0,B|176:192,1,48,2|0,0:0|0:0,0:0:0:0:
400,192,5969,2,0,B|336:192,1,48,0|0,0:0|0:0,0:0:0:0:
120,192,6292,1,0,0:0:0:0:
392,192,6508,1,2,0:0:0:0:
256,192,6616,1,0,0:0:0:0:
208,288,6940,6,0,B|112:256,1,96,4|0,0:0|0:0,0:0:0:0:
256,192,7264,1,0,0:0:0:0:
395,126,7372,2,0,B|304:96,1,96,4|0,0:0|0:0,0:0:0:0:
192,112,7695,2,0,B|160:160|160:160|208:192,1,96
320,272,8019,2,0,B|352:224|352:224|304:192,1,96
360,136,8343,1,2,0:0:0:0:
256,96,8451,1,0,0:0:0:0:
152,136,8559,1,2,0:0:0:0:
256,192,8667,6,0,B|256:320,1,96,4|0,0:0|0:0,0:0:0:0:
464,192,9098,1,2,0:0:0:0:
48,192,9422,1,0,0:0:0:0:
464,192,9746,1,0,0:0:0:0:
256,192,9962,1,2,0:0:0:0:
48,192,10177,1,0,0:0:0:0:
256,192,10393,6,0,B|256:80,1,96,4|0,0:0|0:0,0:0:0:0:
384,272,10825,2,0,B|320:240|320:240|304:224|256:224,1,96,4|0,0:0|0:0,0:0:0:0:
128,272,11149,2,0,B|192:240|192:240|208:224|256:224,1,96,0|0,0:0|0:0,0:0:0:0:
256,192,11472,1,0,0:0:0:0:
432,192,11688,5,0,0:0:0:0:
312,192,11796,1,2,0:0:0:0:
200,192,11904,1,0,0:0:0:0:
80,192,12012,1,2,0:0:0:0:
32,192,12120,5,4,0:0:0:0:
256,192,12336,1,0,0:0:0:0:
480,192,12551,1,0,0:0:0:0:
176,144,12767,6,2,B|112:144,1,48
336,240,12983,2,2,B|384:240,1,48
192,224,13199,2,2,B|160:224|160:224|112:256,1,48
319,160,13415,2,0,B|352:160|352:160|365:151,1,48,2|0,0:0|0:0,0:0:0:0:
256,192,13631,1,2,0:0:0:0:
40,192,13846,5,0,0:0:0:0:
148,192,13954,1,0,0:0:0:0:
256,192,14062,1,0,0:0:0:0:
364,192,14170,1,0,0:0:0:0:
472,192,14278,1,0,0:0:0:0:
144,192,14494,1,4,0:0:0:0:
368,192,14710,1,4,0:0:0:0:
224,64,15573,6,0,B|128:64|128:64|96:64|32:96|32:128,1,191.999990463257,0|2,0:0|0:0,0:0:0:0:
288,320,16221,6,0,B|384:320|384:320|416:320|480:288|480:256,1,191.999990463257
256,192,16858,5,2,0:0:0:0:
256,192,17073,1,0,0:0:0:0:
128,256,17287,6,0,B|32:192|96:160|96:160|160:96,1,191.999990463257,0|2,0:0|0:0,0:0:0:0:
384,128,17887,6,0,B|480:192|416:224|416:224|352:288,1,191.999990463257
256,192,18487,5,2,0:0:0:0:
256,192,18687,1,0,0:0:0:0:
192,128,18887,6,0,B|160:64|160:64|32:64,1,191.999990463257,0|2,0:0|0:0,0:0:0:0:
320,256,19449,6,0,B|352:320|352:320|480:320,1,191.999990463257
256,192,20012,5,2,0:0:0:0:
256,192,20199,1,0,0:0:0:0:
448,192,20387,6,0,B|512:128|416:64|416:64|352:64,1,191.999990463257,0|2,0:0|0:0,0:0:0:0:
64,192,20916,6,0,B|0:256|96:320|96:320|160:320,1,191.999990463257
256,192,21445,5,2,0:0:0:0:
256,192,21622,1,0,0:0:0:0:
320,256,21798,6,0,B|384:224|384:224|352:128|448:128,1,191.999990463257,0|2,0:0|0:0,0:0:0:0:
192,128,22298,6,0,B|128:160|128:160|160:256|64:256,1,191.999990463257
256,192,22798,5,2,0:0:0:0:
416,192,22964,1,0,0:0:0:0:
512,128,23131,6,0,B|448:64|448:64|320:64,1,191.999990463257,0|2,0:0|0:0,0:0:0:0:
165,64,23604,6,0,B|64:64|64:64|0:128,1,191.999990463257
256,192,24078,5,2,0:0:0:0:
352,192,24236,1,0,0:0:0:0:
480,96,24394,6,0,B|416:32|384:128|384:128|400:216,1,191.999990463257,0|2,0:0|0:0,0:0:0:0:
32,288,24844,6,0,B|96:352|128:256|128:256|112:168,1,191.999990463257
256,192,25294,5,2,0:0:0:0:
256,192,25444,1,0,0:0:0:0:
416,192,25594,5,0,0:0:0:0:
352,192,25665,5,0,0:0:0:0:
288,192,25736,5,0,0:0:0:0:
224,192,25808,5,0,0:0:0:0:
328,128,25879,5,0,0:0:0:0:
256,128,25951,5,0,0:0:0:0:
192,128,26022,5,0,0:0:0:0:
128,128,26094,5,0,0:0:0:0:
32,192,26165,5,0,0:0:0:0:
88,192,26236,5,0,0:0:0:0:
144,192,26308,5,0,0:0:0:0:
208,192,26379,5,0,0:0:0:0:
304,256,26451,5,0,0:0:0:0:
240,256,26522,5,0,0:0:0:0:
312,320,26594,5,0,0:0:0:0:
392,320,26665,5,0,0:0:0:0:
256,320,26736,5,4,0:0:0:0:
192,288,26879,6,0,B|128:320|128:320|64:320,1,124.799991569519,0|2,0:0|0:0,0:0:0:0:
160,224,27165,2,0,B|128:160|32:160,1,124.799991569519,0|0,0:0|0:0,0:0:0:0:
192,64,27451,2,0,B|160:128|64:64|64:64,1,124.799991569519,0|2,0:0|0:0,0:0:0:0:
256,128,27736,2,0,B|128:160,1,124.799991569519,0|2,0:0|0:0,0:0:0:0:
256,128,28022,6,0,B|384:160,1,124.799991569519
320,64,28308,2,0,B|352:128|448:64|448:64,1,124.799991569519,0|2,0:0|0:0,0:0:0:0:
352,224,28594,2,0,B|384:160|480:160,1,124.799991569519,0|2,0:0|0:0,0:0:0:0:
320,288,28879,2,0,B|384:320|384:320|448:320,1,124.799991569519,0|0,0:0|0:0,0:0:0:0:
192,288,29165,6,0,B|80:208,1,124.799997768402,0|2,0:0|0:0,0:0:0:0:
320,288,29451,2,0,B|432:208,1,124.799997768402
128,192,29736,2,0,B|16:112,1,124.799997768402,0|2,0:0|0:0,0:0:0:0:
384,192,30022,2,0,B|496:112,1,124.799997768402,0|4,0:0|0:0,0:0:0:0:
352,96,30308,6,0,B|224:96,1,124.799991569519
227,96,30594,5,0,0:0:0:0:
16,136,30736,5,4,0:0:0:0:
160,96,30879,6,0,B|288:96,1,124.799991569519
285,96,31165,5,0,0:0:0:0:
192,160,31308,6,0,B|96:192|64:224,1,124.799991569519,8|2,0:0|0:0,0:0:0:0:
320,160,31594,2,0,B|416:192|448:224,1,124.799991569519,8|2,0:0|0:0,0:0:0:0:
184,256,31879,1,8,0:0:0:0:
328,256,32022,1,2,0:0:0:0:
200,192,32165,1,8,0:0:0:0:
312,192,32308,1,10,0:0:0:0:
352,128,32451,6,0,B|416:144|416:240,1,124.799991569519,8|2,0:0|0:0,0:0:0:0:
160,256,32736,2,0,B|96:240|96:144,1,124.799991569519,8|2,0:0|0:0,0:0:0:0:
256,192,33022,1,8,0:0:0:0:
256,192,33165,1,2,0:0:0:0:
384,192,33308,2,0,B|440:232,4,62.3999957847597,8|8|8|8|8,0:0|0:0|0:0|0:0|0:0,0:0:0:0:
256,192,33736,5,2,0:0:0:0:
160,192,33879,2,0,B|96:192|96:192|64:160|64:96,1,124.799991569519,8|2,0:0|0:0,0:0:0:0:
160,192,34165,2,0,B|96:192|96:192|64:224|64:288,1,124.799991569519,8|2,0:0|0:0,0:0:0:0:
352,192,34451,2,0,B|416:192|416:192|448:160|448:96,1,124.799991569519,8|10,0:0|0:0,0:0:0:0:
352,192,34737,6,0,B|416:192|416:192|448:224|448:288,1,124.799991569519,8|2,0:0|0:0,0:0:0:0:
152,192,35022,1,8,0:0:0:0:
360,192,35165,1,2,0:0:0:0:
192,128,35308,1,8,0:0:0:0:
320,128,35451,1,2,0:0:0:0:
232,192,35594,2,8,B|280:152,4,62.3999957847597
256,104,36022,5,2,0:0:0:0:
80,96,36165,2,0,B|208:64,1,124.799991569519,8|2,0:0|0:0,0:0:0:0:
432,96,36451,2,0,B|304:64,1,124.799991569519,8|2,0:0|0:0,0:0:0:0:
88,160,36736,2,0,B|216:128,1,124.799991569519,8|10,0:0|0:0,0:0:0:0:
424,160,37022,6,0,B|296:128,1,124.799991569519,8|2,0:0|0:0,0:0:0:0:
96,224,37308,2,0,B|224:192,1,124.799991569519,8|2,0:0|0:0,0:0:0:0:
416,224,37594,2,0,B|288:192,1,124.799991569519,8|2,0:0|0:0,0:0:0:0:
384,192,37879,1,8,0:0:0:0:
320,192,37951,1,8,0:0:0:0:
256,192,38022,1,8,0:0:0:0:
192,192,38094,1,8,0:0:0:0:
128,192,38165,5,8,0:0:0:0:
128,192,38308,1,2,0:0:0:0:
384,192,38451,1,8,0:0:0:0:
341,51,38594,2,0,B|272:96|304:160,1,124.799991569519,2|8,0:0|0:0,0:0:0:0:
208,160,38879,2,0,B|240:96|144:32,1,124.799991569519,2|8,0:0|0:0,0:0:0:0:
112,128,39165,1,8,0:0:0:0:
400,128,39308,5,8,0:0:0:0:
256,224,39451,1,8,0:0:0:0:
368,160,39594,5,8,0:0:0:0:
144,160,39736,1,8,0:0:0:0:
192,216,39879,6,8,B|144:160,7,62.3999957847597
256,192,40451,5,6,0:0:0:0:
160,192,40594,1,0,0:0:0:0:
96,256,40736,2,0,B|64:192|64:192|96:128,1,124.799991569519,8|0,0:0|0:0,0:0:0:0:
272,192,41022,1,0,0:0:0:0:
160,192,41165,1,0,0:0:0:0:
80,256,41307,2,0,B|48:192|48:192|80:128,1,124.799991569519,8|0,0:0|0:0,0:0:0:0:
288,192,41594,5,0,0:0:0:0:
160,192,41737,1,0,0:0:0:0:
64,256,41879,2,0,B|32:192|32:192|64:128,1,124.799991569519,8|0,0:0|0:0,0:0:0:0:
448,256,42165,2,8,B|480:192|480:192|448:128,1,124.799991569519,10|8,0:0|0:0,0:0:0:0:
368,192,42451,2,8,B|304:216,1,62.3999957847597,10|8,0:0|0:0,0:0:0:0:
352,128,42594,2,8,B|288:152,1,62.3999957847597
240,192,42736,5,6,0:0:0:0:
352,192,42879,1,0,0:0:0:0:
432,256,43021,2,0,B|464:192|464:192|432:128,1,124.799991569519,8|0,0:0|0:0,0:0:0:0:
224,192,43307,1,0,0:0:0:0:
352,192,43450,1,0,0:0:0:0:
448,256,43592,2,0,B|480:192|480:192|448:128,1,124.799991569519,8|0,0:0|0:0,0:0:0:0:
208,192,43879,5,0,0:0:0:0:
352,192,44022,1,0,0:0:0:0:
464,256,44164,2,0,B|496:192|496:192|464:128,1,124.799991569519,8|0,0:0|0:0,0:0:0:0:
48,256,44451,2,8,B|16:192|16:192|48:128,1,124.799991569519,10|8,0:0|0:0,0:0:0:0:
144,192,44736,2,8,B|208:168,1,62.3999957847597,10|8,0:0|0:0,0:0:0:0:
160,128,44879,2,8,B|224:104,1,62.3999957847597
352,96,45022,6,0,B|448:160|352:224,1,124.799991569519,6|0,0:0|0:0,0:0:0:0:
256,192,45308,1,8,0:0:0:0:
128,192,45451,1,0,0:0:0:0:
368,96,45594,2,0,B|464:160|368:224,1,124.799991569519,0|0,0:0|0:0,0:0:0:0:
256,192,45879,1,8,0:0:0:0:
112,192,46023,1,0,0:0:0:0:
384,96,46165,6,0,B|480:160|384:224,1,124.799991569519,0|0,0:0|0:0,0:0:0:0:
256,192,46450,1,8,0:0:0:0:
96,192,46594,1,0,0:0:0:0:
96,197,46736,2,8,B|32:160|128:96,1,124.799991569519,10|8,0:0|0:0,0:0:0:0:
240,144,47022,2,8,B|200:96,3,62.3999957847597,10|8|8|8,0:0|0:0|0:0|0:0,0:0:0:0:
144,96,47308,6,0,B|48:160|144:224,1,124.799991569519,6|0,0:0|0:0,0:0:0:0:
256,192,47594,1,8,0:0:0:0:
400,192,47737,1,0,0:0:0:0:
128,96,47879,6,0,B|32:160|128:224,1,124.799991569519,6|0,0:0|0:0,0:0:0:0:
256,192,48165,1,8,0:0:0:0:
416,192,48308,1,0,0:0:0:0:
448,128,48451,5,6,0:0:0:0:
64,128,48736,5,6,0:0:0:0:
464,128,49022,5,6,0:0:0:0:
48,128,49307,5,6,0:0:0:0:
272,64,49594,6,0,B|224:128|128:80|128:80|0:144,1,287.999977111817,6|0,0:0|0:0,0:0:0:0:
240,320,50022,6,0,B|288:256|384:304|384:304|512:240,1,287.999977111817,6|0,0:0|0:0,0:0:0:0:
136,64,50451,6,0,B|24:160|72:208|72:208|168:272,1,287.999991416931,6|0,0:0|0:0,0:0:0:0:
376,320,50879,6,0,B|488:224|440:176|440:176|344:112,1,287.999991416931,6|0,0:0|0:0,0:0:0:0:
256,192,51308,1,6,0:0:0:0:
144,32,51451,6,0,B|152:144|240:128|240:128|280:48|368:96,1,287.999991416931,6|2,0:0|0:0,0:0:0:0:
480,96,51879,6,0,B|488:144|432:208|432:208|432:256|320:320,1,287.999991416931,6|0,0:0|0:0,0:0:0:0:
32,288,52308,6,0,B|24:240|80:176|80:176|80:128|192:64,1,287.999991416931,6|0,0:0|0:0,0:0:0:0:
320,64,52736,6,0,B|480:64|480:64|512:64|512:192,1,287.999977111817,6|0,0:0|0:0,0:0:0:0:
192,320,53165,6,0,B|32:320|32:320|0:320|0:192,1,287.999977111817,6|6,0:0|0:0,0:0:0:0:
256,192,53594,1,6,0:0:0:0:
352,192,53736,1,6,0:0:0:0:
448,144,53879,6,2,B|496:208,3,71.9999942779543
464,64,54165,6,0,B|384:16|384:16|192:112,1,287.999991416931,6|0,0:0|0:0,0:0:0:0:
48,320,54594,6,0,B|128:368|128:368|320:272,1,287.999991416931,6|0,0:0|0:0,0:0:0:0:
176,240,55022,6,0,B|128:288|32:304|-16:176|48:48,1,287.999977111817,6|0,0:0|0:0,0:0:0:0:
336,144,55451,6,0,B|384:96|480:80|528:208|464:336,1,287.999977111817,6|0,0:0|0:0,0:0:0:0:
256,192,55879,1,6,0:0:0:0:
256,192,56022,6,0,B|160:192|160:192|208:192|208:192|48:192,1,287.999977111817,6|2,0:0|0:0,0:0:0:0:
192,80,56451,6,0,B|480:128,1,287.999977111817,6|0,0:0|0:0,0:0:0:0:
320,304,56879,6,0,B|32:256,1,287.999977111817,6|0,0:0|0:0,0:0:0:0:
192,192,57308,1,6,0:0:0:0:
352,128,57451,6,2,B|464:144|464:224|432:304|320:304,2,287.999977111817,6|6|6,0:0|0:0|0:0,0:0:0:0:
208,144,58165,1,6,0:0:0:0:
416,80,58308,1,6,0:0:0:0:
272,128,58451,6,2,B|208:160,1,71.9999942779543
128,96,58594,6,2,B|64:160,1,71.9999942779543
32,96,58736,5,2,0:0:0:0:
480,96,59022,1,2,0:0:0:0:
256,96,59165,1,2,0:0:0:0:
256,96,59236,1,2,0:0:0:0:
256,96,59308,1,2,0:0:0:0:
32,96,59451,1,2,0:0:0:0:
480,96,59594,1,2,0:0:0:0:
256,96,59736,5,12,0:0:0:0:
480,192,60022,5,12,0:0:0:0:
256,288,60308,5,12,0:0:0:0:
32,192,60451,1,2,0:0:0:0:
32,192,60522,1,2,0:0:0:0:
32,192,60594,1,2,0:0:0:0:
256,192,60736,1,2,0:0:0:0:
256,192,60879,1,2,0:0:0:0:
480,96,61022,1,2,0:0:0:0:
32,96,61165,1,2,0:0:0:0:
32,96,61236,1,2,0:0:0:0:
32,96,61308,1,2,0:0:0:0:
256,96,61451,1,2,0:0:0:0:
256,96,61522,1,2,0:0:0:0:
256,96,61594,1,2,0:0:0:0:
480,96,61737,1,2,0:0:0:0:
32,96,61880,1,2,0:0:0:0:
256,96,62022,5,12,0:0:0:0:
32,192,62308,5,12,0:0:0:0:
256,288,62594,5,12,0:0:0:0:
480,192,62737,1,2,0:0:0:0:
480,192,62808,1,2,0:0:0:0:
480,192,62880,1,2,0:0:0:0:
256,192,63022,1,2,0:0:0:0:
256,192,63165,1,2,0:0:0:0:
48,192,63308,1,2,0:0:0:0:
464,192,63594,1,2,0:0:0:0:
256,192,63736,1,2,0:0:0:0:
256,192,63808,1,2,0:0:0:0:
256,192,63879,1,2,0:0:0:0:
96,192,64022,1,2,0:0:0:0:
256,192,64165,1,2,0:0:0:0:
416,192,64308,5,12,0:0:0:0:
64,128,64594,5,12,0:0:0:0:
448,128,64879,5,12,0:0:0:0:
256,192,65022,1,2,0:0:0:0:
256,192,65094,1,2,0:0:0:0:
256,192,65165,1,2,0:0:0:0:
128,192,65308,1,2,0:0:0:0:
384,192,65451,1,2,0:0:0:0:
464,192,65594,1,2,0:0:0:0:
48,192,65736,1,2,0:0:0:0:
48,192,65808,1,2,0:0:0:0:
48,192,65880,1,2,0:0:0:0:
256,192,66022,1,2,0:0:0:0:
256,192,66094,1,2,0:0:0:0:
256,192,66165,1,2,0:0:0:0:
416,192,66308,1,2,0:0:0:0:
256,192,66451,1,2,0:0:0:0:
96,192,66594,5,12,0:0:0:0:
448,128,66880,5,12,0:0:0:0:
64,128,67165,5,12,0:0:0:0:
256,192,67308,1,2,0:0:0:0:
256,192,67380,1,2,0:0:0:0:
256,192,67451,1,2,0:0:0:0:
384,192,67594,1,2,0:0:0:0:
128,192,67737,1,2,0:0:0:0:
128,288,67879,6,0,B|128:224|48:192,1,124.799991569519,6|0,0:0|0:0,0:0:0:0:
166,185,68165,2,0,B|207:135|166:60,1,124.799991569519,8|0,0:0|0:0,0:0:0:0:
275,129,68451,2,0,B|338:123|363:40,1,124.799991569519,0|0,0:0|0:0,0:0:0:0:
391,165,68736,2,0,B|440:206|515:165,1,124.799991569519,8|0,0:0|0:0,0:0:0:0:
384,96,69022,6,0,B|384:160|464:192,1,124.799991569519,0|0,0:0|0:0,0:0:0:0:
346,199,69308,2,0,B|304:248|345:323,1,124.799991569519,8|0,0:0|0:0,0:0:0:0:
237,255,69594,2,0,B|173:260|148:343,1,124.799991569519,10|8,0:0|0:0,0:0:0:0:
121,219,69879,2,0,B|71:177|-3:218,1,124.799991569519,10|8,0:0|0:0,0:0:0:0:
144,240,70165,6,0,B|112:256|112:256|16:256,1,124.799991569519,6|0,0:0|0:0,0:0:0:0:
170,168,70451,2,0,B|135:159|135:159|61:97,1,124.799991569519,8|0,0:0|0:0,0:0:0:0:
236,129,70736,2,0,B|215:100|215:100|198:7,1,124.799991569519,0|0,0:0|0:0,0:0:0:0:
312,143,71022,2,0,B|314:107|314:107|362:25,1,124.799991569519,8|0,0:0|0:0,0:0:0:0:
368,144,71308,6,0,B|400:128|400:128|496:128,1,124.799991569519,0|0,0:0|0:0,0:0:0:0:
341,215,71594,2,0,B|376:224|376:224|450:286,1,124.799991569519,8|0,0:0|0:0,0:0:0:0:
275,254,71879,2,8,B|296:283|296:283|313:377,1,124.799991569519,10|8,0:0|0:0,0:0:0:0:
200,240,72165,2,8,B|197:276|197:276|149:359,1,124.799991569519,10|8,0:0|0:0,0:0:0:0:
144,288,72451,6,0,B|16:336,1,124.799991569519,6|0,0:0|0:0,0:0:0:0:
165,182,72736,2,0,B|52:105,1,124.799991569519,8|0,0:0|0:0,0:0:0:0:
264,139,73022,2,0,B|262:4,1,124.799991569519,0|0,0:0|0:0,0:0:0:0:
355,196,73308,2,0,B|467:116,1,124.799991569519,8|0,0:0|0:0,0:0:0:0:
368,96,73594,6,0,B|496:48,1,124.799991569519,6|0,0:0|0:0,0:0:0:0:
346,201,73879,2,0,B|459:278,1,124.799991569519,8|0,0:0|0:0,0:0:0:0:
247,244,74165,2,8,B|249:380,1,124.799991569519,10|8,0:0|0:0,0:0:0:0:
156,187,74451,2,8,B|44:267,1,124.799991569519,10|8,0:0|0:0,0:0:0:0:
160,320,74736,6,0,B|128:288|128:288|32:256,1,124.799991569519,6|0,0:0|0:0,0:0:0:0:
224,256,75022,2,0,B|192:224|192:224|96:192,1,124.799991569519,8|0,0:0|0:0,0:0:0:0:
288,192,75308,6,0,B|256:160|256:160|160:128,1,124.799991569519,6|0,0:0|0:0,0:0:0:0:
352,128,75594,2,0,B|320:96|320:96|224:64,1,124.799991569519,8|0,0:0|0:0,0:0:0:0:
136,104,75879,5,0,0:0:0:0:
136,104,75974,1,0,0:0:0:0:
136,104,76070,1,0,0:0:0:0:
344,72,76165,5,8,0:0:0:0:
344,72,76260,1,8,0:0:0:0:
344,72,76356,1,8,0:0:0:0:
376,280,76451,5,2,0:0:0:0:
376,280,76546,1,2,0:0:0:0:
376,280,76642,1,2,0:0:0:0:
168,312,76736,5,0,0:0:0:0:
168,312,76831,1,0,0:0:0:0:
168,312,76927,1,0,0:0:0:0:
256,192,77022,5,6,0:0:0:0:
448,192,81308,6,0,B|400:224,5,47.9999985694886
448,128,81594,6,0,B|416:32|416:32|288:32,1,166.399988759359,8|0,0:0|0:0,0:0:0:0:
161,32,81879,2,0,B|96:32|96:32|64:128,1,166.399988759359,8|0,0:0|0:0,0:0:0:0:
128,192,82165,5,8,0:0:0:0:
128,192,82260,1,0,0:0:0:0:
128,192,82355,1,0,0:0:0:0:
320,192,82451,6,0,B|512:192,1,166.399988759359,2|0,0:0|0:0,0:0:0:0:
448,128,82736,6,0,B|416:32|416:32|288:32,1,191.999984741212,8|0,0:0|0:0,0:0:0:0:
186,32,83022,2,0,B|96:32|96:32|64:128,1,191.999984741212,8|0,0:0|0:0,0:0:0:0:
128,192,83308,5,8,0:0:0:0:
128,192,83403,1,0,0:0:0:0:
128,192,83498,1,0,0:0:0:0:
320,192,83593,6,0,B|512:192,1,191.999984741212,2|0,0:0|0:0,0:0:0:0:
416,96,83879,5,8,0:0:0:0:
416,96,83974,1,0,0:0:0:0:
416,96,84070,1,0,0:0:0:0:
224,96,84165,6,0,B|16:144,1,204.799989827474,2|0,0:0|0:0,0:0:0:0:
48,224,84451,5,8,0:0:0:0:
48,224,84546,1,0,0:0:0:0:
48,224,84641,1,0,0:0:0:0:
256,208,84736,6,0,B|464:280,1,217.599990921021,2|0,0:0|0:0,0:0:0:0:
368,128,85022,5,8,0:0:0:0:
368,128,85165,5,8,0:0:0:0:
80,128,85451,5,8,0:0:0:0:
160,208,85594,1,8,0:0:0:0:
240,240,85665,1,0,0:0:0:0:
320,256,85736,1,0,0:0:0:0:
384,256,85808,1,0,0:0:0:0:
448,224,85879,1,0,0:0:0:0:
384,192,85951,1,0,0:0:0:0:
304,192,86022,1,0,0:0:0:0:
384,160,86094,1,0,0:0:0:0:
464,160,86165,5,4,0:0:0:0:
256,128,86451,1,0,0:0:0:0:
480,80,86736,1,10,0:0:0:0:
128,80,87022,1,0,0:0:0:0:
384,96,87308,5,0,0:0:0:0:
496,224,87447,1,2,0:0:0:0:
352,256,87587,1,0,0:0:0:0:
48,192,87866,1,10,0:0:0:0:
400,160,88145,1,0,0:0:0:0:
128,128,88424,6,0,B|224:64,1,95.9999952316285
288,96,88697,2,0,B|192:160,1,95.9999952316285
320,160,88970,2,0,B|416:128,1,95.9999952316285,10|0,0:0|0:0,0:0:0:0:
512,128,89242,2,0,B|416:192,1,95.9999952316285
320,256,89514,5,0,0:0:0:0:
448,224,89647,1,2,0:0:0:0:
256,224,89780,1,0,0:0:0:0:
384,192,89914,1,0,0:0:0:0:
192,192,90047,1,10,0:0:0:0:
320,160,90180,1,0,0:0:0:0:
128,160,90314,1,8,0:0:0:0:
256,128,90447,1,8,0:0:0:0:
64,96,90580,6,0,B|32:192,1,95.9999952316285
352,32,90840,2,0,B|256:0,1,95.9999952316285
448,288,91101,2,0,B|480:192,1,95.9999952316285,10|0,0:0|0:0,0:0:0:0:
160,352,91362,2,0,B|256:384,1,95.9999952316285,0|0,0:0|0:0,0:0:0:0:
112,192,91623,6,0,B|80:144|80:144|64:80,1,95.9999952316285,0|2,0:0|0:0,0:0:0:0:
400,192,91878,2,0,B|432:240|432:240|448:304,1,95.9999952316285
256,192,92133,1,14,0:0:0:0:
496,224,92644,6,0,B|496:128,1,95.9999952316285
352,128,92894,2,2,B|352:256,1,95.9999952316285,2|2,0:0|0:0,0:0:0:0:
192,224,93144,2,0,B|192:128,1,95.9999952316285
48,128,93394,2,2,B|48:224,1,95.9999952316285
192,160,93644,5,4,0:0:0:0:
200,152,93705,5,0,0:0:0:0:
208,152,93766,5,0,0:0:0:0:
216,152,93827,5,0,0:0:0:0:
224,160,93888,5,0,0:0:0:0:
232,168,93950,5,0,0:0:0:0:
240,168,94011,5,0,0:0:0:0:
248,168,94072,5,0,0:0:0:0:
256,168,94133,5,12,0:0:0:0:
264,168,94195,5,8,0:0:0:0:
272,168,94256,5,8,0:0:0:0:
280,168,94317,5,8,0:0:0:0:
288,160,94379,5,8,0:0:0:0:
296,152,94440,5,8,0:0:0:0:
304,152,94501,5,8,0:0:0:0:
312,152,94562,5,8,0:0:0:0:
320,160,94623,5,4,0:0:0:0:
480,240,94746,2,0,B|448:160|448:160|352:160,1,124.799991569519,0|8,0:0|0:0,0:0:0:0:
288,32,94990,2,0,B|224:0|224:0|160:32,1,124.799991569519
32,144,95235,2,0,B|64:224|64:224|160:224,1,124.799991569519,0|8,0:0|0:0,0:0:0:0:
224,352,95480,2,0,B|288:384|288:384|352:352,1,124.799991569519
192,96,95725,6,0,B|48:112,2,124.799991569519,0|8|0,0:0|0:0|0:0,0:0:0:0:
256,192,96092,1,0,0:0:0:0:
320,96,96215,2,0,B|464:112,2,124.799991569519,0|8|0,0:0|0:0|0:0,0:0:0:0:
192,224,96582,6,0,B|128:176|64:160,1,124.799991569519
224,112,96827,2,0,B|160:80|192:0,1,124.799991569519,8|0,0:0|0:0,0:0:0:0:
320,224,97072,2,0,B|384:176|448:160,1,124.799991569519,0|0,0:0|0:0,0:0:0:0:
288,112,97317,2,0,B|352:80|320:0,1,124.799991569519,8|0,0:0|0:0,0:0:0:0:
368,272,97562,6,0,B|464:352,1,124.799997768402
144,272,97807,2,0,B|48:352,1,124.799997768402,8|0,0:0|0:0,0:0:0:0:
336,176,98052,2,0,B|400:152|400:152|464:224,1,124.799997768402
176,176,98297,2,0,B|112:152|112:152|48:224,1,124.799997768402,8|0,0:0|0:0,0:0:0:0:
192,224,98541,6,0,B|320:224,1,124.799991569519
316,224,98786,2,0,B|192:224,1,124.799991569519,8|0,0:0|0:0,0:0:0:0:
169,104,99031,6,2,B|369:104,1,172.799983177186
343,104,99521,6,2,B|143:104,1,172.799983177186
144,176,100011,6,0,B|144:80|16:80,1,124.799991569519
272,288,100256,2,0,B|176:288|176:416,1,124.799991569519,8|0,0:0|0:0,0:0:0:0:
368,208,100501,6,0,B|368:304|496:304,1,124.799991569519
240,96,100746,2,0,B|336:96|336:-32,1,124.799991569519,8|0,0:0|0:0,0:0:0:0:
256,192,100990,5,0,0:0:0:0:
256,192,101052,1,0,0:0:0:0:
256,192,101113,1,0,0:0:0:0:
256,192,101174,1,0,0:0:0:0:
256,192,101235,1,8,0:0:0:0:
256,192,101358,5,8,0:0:0:0:
144,144,101480,6,0,B|104:192,15,62.3999957847597
48,176,102460,6,0,B|48:48|288:32,1,287.999977111817,6|0,0:0|0:0,0:0:0:0:
464,208,102827,6,0,B|464:336|224:352,1,287.999977111817,6|0,0:0|0:0,0:0:0:0:
128,320,103195,6,0,B|80:160|80:160|96:32,1,287.999991416931,6|0,0:0|0:0,0:0:0:0:
384,64,103562,6,0,B|432:224|432:224|416:352,1,287.999991416931,6|6,0:0|0:0,0:0:0:0:
288,304,103929,5,6,0:0:0:0:
160,288,104052,1,6,0:0:0:0:
64,256,104174,1,6,0:0:0:0:
80,208,104235,1,6,0:0:0:0:
96,160,104297,1,6,0:0:0:0:
224,96,104419,6,0,B|336:48|432:128|432:128|416:208,1,287.999991416931,6|0,0:0|0:0,0:0:0:0:
288,288,104786,6,0,B|176:336|80:256|80:256|96:176,1,287.999991416931,6|0,0:0|0:0,0:0:0:0:
176,32,105154,6,0,B|64:128|80:208|80:208|192:224,1,287.999991416931,6|0,0:0|0:0,0:0:0:0:
336,352,105521,6,0,B|448:256|432:176|432:176|320:160,1,287.999991416931,6|6,0:0|0:0,0:0:0:0:
208,144,105888,5,6,0:0:0:0:
80,160,106011,1,6,0:0:0:0:
144,96,106133,1,6,0:0:0:0:
144,96,106195,1,6,0:0:0:0:
144,96,106256,1,6,0:0:0:0:
240,64,106378,6,0,B|384:48|400:64|400:64|352:192,1,287.999977111817,6|0,0:0|0:0,0:0:0:0:
326,83,106746,6,0,B|446:163|448:186|448:186|329:253,1,287.999977111817,6|0,0:0|0:0,0:0:0:0:
379,154,107113,6,0,B|420:293|407:311|407:311|272:286,1,287.999977111817,6|0,0:0|0:0,0:0:0:0:
374,242,107480,6,0,B|316:374|294:380|294:380|208:275,1,287.999977111817,6|6,0:0|0:0,0:0:0:0:
256,192,107848,5,6,0:0:0:0:
320,128,107970,1,6,0:0:0:0:
192,128,108092,1,6,0:0:0:0:
192,128,108154,1,6,0:0:0:0:
192,128,108215,1,6,0:0:0:0:
272,320,108337,6,0,B|128:336|112:320|112:320|160:192,1,287.999977111817,6|0,0:0|0:0,0:0:0:0:
186,301,108705,6,0,B|66:221|64:198|64:198|183:131,1,287.999977111817,6|0,0:0|0:0,0:0:0:0:
133,230,109072,6,0,B|92:91|105:73|105:73|240:98,1,287.999977111817,6|0,0:0|0:0,0:0:0:0:
138,142,109439,6,0,B|196:10|218:4|218:4|304:109,1,287.999977111817,6|6,0:0|0:0,0:0:0:0:
256,192,109807,5,6,0:0:0:0:
192,256,109929,1,6,0:0:0:0:
320,256,110051,1,6,0:0:0:0:
320,256,110113,1,6,0:0:0:0:
320,256,110174,1,6,0:0:0:0:
352,192,110297,5,4,0:0:0:0:
160,192,110541,5,4,0:0:0:0:
256,192,110603,12,0,114215,0:0:0:0:
