osu file format v12

[General]
AudioFilename: Disconnected Hardkore.mp3
AudioLeadIn: 3000
PreviewTime: 49496
Countdown: 0
SampleSet: Normal
StackLeniency: 0.7
Mode: 2
LetterboxInBreaks: 1
WidescreenStoryboard: 0

[Editor]
Bookmarks: 77030
DistanceSpacing: 0.2
BeatDivisor: 8
GridSize: 4

[Metadata]
Title:Disconnected Hardkore (CanBlaster Remix)
TitleUnicode:
Artist:Inspector K
ArtistUnicode:
Creator:ExGon
Version:Circle
Source:
Tags:Spectator CTBuser Verdisphena Kurisuchianu
BeatmapID:123070
BeatmapSetID:38444

[Difficulty]
HPDrainRate:5
CircleSize:4
OverallDifficulty:8
ApproachRate:8
SliderMultiplier:1.92
SliderTickRate:1

[Events]
//Background and Video events
0,0,"disconnectedhardcorebg.jpg",0,0
//Break Periods
2,26936,30558
2,77222,80558
//Storyboard Layer 0 (Background)
//Storyboard Layer 1 (Fail)
//Storyboard Layer 2 (Pass)
//Storyboard Layer 3 (Foreground)
//Storyboard Sound Samples
//Background Colour Transformations
3,100,163,162,255

[TimingPoints]
34,431.654676258993,4,1,0,65,1,0
2192,-100,4,2,0,65,0,0
2300,-100,4,1,0,65,0,0
3055,-100,4,2,0,65,0,0
3163,-100,4,1,0,65,0,0
3487,-100,4,2,0,65,0,0
3918,-100,4,1,0,65,0,0
4134,-100,4,2,0,65,0,0
4566,-100,4,1,0,65,0,0
4782,-100,4,2,0,65,0,0
5213,-100,4,1,0,65,0,0
5645,-100,4,2,0,65,0,0
5753,-100,4,1,0,65,0,0
6508,-100,4,2,0,65,0,0
6616,-100,4,1,0,65,0,0
7372,-100,4,2,0,65,0,0
7480,-100,4,1,0,65,0,0
8235,-100,4,2,0,65,0,0
8667,-100,4,1,0,65,0,0
9098,-100,4,2,0,65,0,0
9206,-100,4,1,0,65,0,0
9962,-100,4,2,0,65,0,0
10069,-100,4,1,0,65,0,0
10825,-100,4,2,0,65,0,0
10933,-100,4,1,0,65,0,0
11688,-100,4,2,0,65,0,0
12120,-100,4,1,0,65,0,0
12659,-100,4,2,0,51,0,0
13739,-100,4,1,0,60,0,0
14494,-100,4,2,0,51,0,0
14602,-100,4,1,0,60,0,0
15573,428.571428571429,4,1,0,65,1,0
16001,-100,4,2,0,65,0,0
16108,-100,4,1,0,65,0,0
16858,-100,4,2,0,65,0,0
16965,-100,4,1,0,65,0,0
17287,400,4,1,0,65,1,0
17687,-100,4,2,0,65,0,0
17787,-100,4,1,0,65,0,0
18487,-100,4,2,0,65,0,0
18587,-100,4,1,0,65,0,0
18887,375,4,1,0,65,1,0
19262,-100,4,2,0,65,0,0
19355,-100,4,1,0,65,0,0
20012,-100,4,2,0,65,0,0
20105,-100,4,1,0,65,0,0
20387,352.941176470588,4,1,0,65,1,0
20739,-100,4,2,0,65,0,0
20828,-100,4,1,0,65,0,0
21445,-100,4,2,0,65,0,0
21534,-100,4,1,0,65,0,0
21798,333.333333333333,4,1,0,65,1,0
22131,-100,4,2,0,65,0,0
22214,-100,4,1,0,65,0,0
22798,-100,4,2,0,65,0,0
22881,-100,4,1,0,65,0,0
23131,315.789473684211,4,1,0,65,1,0
23446,-100,4,2,0,65,0,0
23525,-100,4,1,0,65,0,0
24078,-100,4,2,0,65,0,0
24157,-100,4,1,0,65,0,0
24394,300,4,1,0,65,1,0
24694,-100,4,2,0,65,0,0
24769,-100,4,1,0,65,0,0
25294,-100,4,2,0,65,0,0
25369,-100,4,1,0,65,0,0
25594,285.714285714286,4,1,0,65,1,0
26808,-76.9230769230769,4,2,0,75,0,0
31308,-76.9230769230769,4,1,0,55,0,0
33308,-76.9230769230769,4,1,0,43,0,0
33736,-76.9230769230769,4,1,0,55,0,0
35594,-76.9230769230769,4,1,0,43,0,0
36022,-76.9230769230769,4,1,0,55,0,0
37879,-76.9230769230769,4,1,0,43,0,0
38236,-76.9230769230769,4,1,0,55,0,0
39308,-76.9230769230769,4,1,0,43,0,0
40451,-76.9230769230769,4,1,0,55,0,0
42165,-76.9230769230769,4,1,0,43,0,0
42736,-76.9230769230769,4,1,0,55,0,0
44451,-76.9230769230769,4,1,0,43,0,0
45022,-76.9230769230769,4,1,0,55,0,0
46736,-76.9230769230769,4,1,0,43,0,0
47308,-76.9230769230769,4,1,0,55,0,0
49594,-66.6666666666667,4,2,0,65,0,1
58736,-76.9230769230769,4,2,0,70,0,0
67879,-76.9230769230769,4,1,0,55,0,0
69594,-76.9230769230769,4,1,0,43,0,0
70165,-76.9230769230769,4,1,0,55,0,0
71879,-76.9230769230769,4,1,0,43,0,0
72451,-76.9230769230769,4,1,0,55,0,0
74165,-76.9230769230769,4,1,0,43,0,0
74736,-76.9230769230769,4,1,0,55,0,0
75879,-66.6666666666667,4,1,0,45,0,0
76451,-66.6666666666667,4,1,0,40,0,0
77022,-66.6666666666667,4,1,0,55,0,0
81308,-66.6666666666667,4,1,0,42,0,0
81594,-76.9230769230769,4,1,0,55,0,0
82451,-76.9230769230769,4,2,0,100,0,0
82486,-76.9230769230769,4,1,0,55,0,0
82736,-66.6666666666667,4,1,0,55,0,0
83594,-66.6666666666667,4,2,0,100,0,0
83629,-66.6666666666667,4,1,0,55,0,0
83879,-62.5,4,1,0,55,0,0
84165,-62.5,4,2,0,100,0,0
84201,-58.8235294117647,4,1,0,55,0,0
84736,-58.8235294117647,4,2,0,100,0,0
84772,-58.8235294117647,4,1,0,55,0,0
86165,-100,4,1,0,75,0,0
86308,-100,4,1,0,60,0,0
87308,279.06976744186,4,1,0,60,1,0
88424,272.727272727273,4,1,0,60,1,0
89514,266.666666666667,4,1,0,60,1,0
90580,260.869565217391,4,1,0,60,1,0
91623,255.31914893617,4,1,0,60,1,0
92644,250,4,1,0,60,1,0
93644,244.897959183673,4,1,0,60,1,1
93674,-100,4,1,0,60,0,0
94133,-100,4,1,0,45,0,0
94623,-76.9230769230769,4,1,0,75,0,0
99031,-55.5555555555556,4,1,0,75,0,0
99766,-76.9230769230769,4,1,0,75,0,0
101480,-76.9230769230769,4,1,0,80,0,0
102460,-66.6666666666667,4,2,0,75,0,1
110297,-66.6666666666667,4,2,0,100,0,0
110327,-66.6666666666667,4,2,0,100,0,1
110603,-66.6666666666667,4,2,0,5,0,1

[Colours]
Combo1 : 147,184,193
Combo2 : 199,173,141
Combo3 : 142,182,135
Combo4 : 211,171,210

[HitObjects]
32,192,34,5,4,0:0:0:0:
480,192,465,1,0,0:0:0:0:
80,192,789,1,0,0:0:0:0:
416,192,1328,1,0,0:0:0:0:
256,192,1544,1,0,0:0:0:0:
128,192,1760,5,4,0:0:0:0:
448,192,2192,1,2,0:0:0:0:
128,192,2516,1,0,0:0:0:0:
384,192,2839,1,0,0:0:0:0:
192,192,3055,1,2,0:0:0:0:
480,192,3271,1,0,0:0:0:0:
192,192,3487,5,0,0:0:0:0:
176,160,3595,1,2,0:0:0:0:
160,128,3703,1,0,0:0:0:0:
144,96,3810,1,0,0:0:0:0:
128,64,3918,1,0,0:0:0:0:
320,192,4134,5,0,0:0:0:0:
336,160,4242,1,0,0:0:0:0:
352,128,4350,1,0,0:0:0:0:
368,96,4457,1,0,0:0:0:0:
384,64,4565,1,0,0:0:0:0:
160,256,4782,5,0,0:0:0:0:
192,240,4890,1,2,0:0:0:0:
224,224,4998,1,0,0:0:0:0:
256,208,5105,1,2,0:0:0:0:
288,192,5213,5,4,0:0:0:0:
60,192,5645,1,2,0:0:0:0:
448,192,5969,1,0,0:0:0:0:
64,192,6292,1,0,0:0:0:0:
256,144,6508,1,2,0:0:0:0:
336,144,6616,1,0,0:0:0:0:
496,192,6940,5,4,0:0:0:0:
288,192,7156,1,0,0:0:0:0:
256,192,7264,1,0,0:0:0:0:
224,192,7372,1,4,0:0:0:0:
16,192,7587,1,0,0:0:0:0:
400,320,8235,1,0,0:0:0:0:
336,288,8343,1,2,0:0:0:0:
272,256,8451,1,0,0:0:0:0:
336,224,8559,1,2,0:0:0:0:
400,192,8667,5,4,0:0:0:0:
80,192,9098,1,2,0:0:0:0:
480,192,9422,1,0,0:0:0:0:
256,192,9746,1,0,0:0:0:0:
48,192,9962,1,2,0:0:0:0:
256,192,10177,1,0,0:0:0:0:
416,192,10393,5,4,0:0:0:0:
92,192,10825,1,4,0:0:0:0:
480,192,11149,1,0,0:0:0:0:
96,192,11472,1,0,0:0:0:0:
256,192,11688,5,0,0:0:0:0:
256,192,11796,1,2,0:0:0:0:
256,192,11904,1,0,0:0:0:0:
256,192,12012,1,2,0:0:0:0:
256,192,12120,5,4,0:0:0:0:
216,272,12444,1,0,0:0:0:0:
296,272,12551,1,0,0:0:0:0:
384,192,12767,5,2,0:0:0:0:
352,160,12875,1,2,0:0:0:0:
320,128,12983,1,2,0:0:0:0:
288,128,13091,1,2,0:0:0:0:
256,128,13199,1,2,0:0:0:0:
224,128,13307,1,2,0:0:0:0:
192,128,13415,1,2,0:0:0:0:
160,160,13523,1,0,0:0:0:0:
128,192,13631,1,2,0:0:0:0:
112,192,13846,5,0,0:0:0:0:
400,192,14062,1,0,0:0:0:0:
96,224,14278,1,0,0:0:0:0:
416,224,14494,1,4,0:0:0:0:
256,192,14710,5,4,0:0:0:0:
64,192,15573,5,0,0:0:0:0:
448,192,16001,1,2,0:0:0:0:
256,192,16215,1,0,0:0:0:0:
256,64,16430,1,0,0:0:0:0:
160,192,16644,1,0,0:0:0:0:
352,192,16858,1,2,0:0:0:0:
160,192,17073,1,0,0:0:0:0:
288,288,17287,5,0,0:0:0:0:
448,192,17487,1,0,0:0:0:0:
320,32,17687,1,2,0:0:0:0:
128,96,17887,1,0,0:0:0:0:
288,192,18087,1,0,0:0:0:0:
64,192,18287,1,0,0:0:0:0:
256,96,18487,1,2,0:0:0:0:
96,64,18687,1,0,0:0:0:0:
288,160,18887,5,0,0:0:0:0:
128,192,19262,1,2,0:0:0:0:
288,192,19449,1,0,0:0:0:0:
448,192,19637,1,0,0:0:0:0:
256,128,19824,1,0,0:0:0:0:
480,128,20012,1,2,0:0:0:0:
288,64,20199,1,0,0:0:0:0:
448,64,20387,5,0,0:0:0:0:
176,192,20563,1,0,0:0:0:0:
80,192,20739,1,2,0:0:0:0:
240,128,20916,1,0,0:0:0:0:
48,128,21092,1,0,0:0:0:0:
208,64,21269,1,0,0:0:0:0:
80,64,21445,1,2,0:0:0:0:
160,128,21622,1,0,0:0:0:0:
352,128,21798,5,0,0:0:0:0:
256,192,22131,1,2,0:0:0:0:
144,192,22298,1,0,0:0:0:0:
320,192,22464,1,0,0:0:0:0:
208,192,22631,1,0,0:0:0:0:
352,128,22798,1,2,0:0:0:0:
256,128,22964,1,0,0:0:0:0:
96,128,23131,5,0,0:0:0:0:
256,256,23288,1,0,0:0:0:0:
32,208,23446,1,2,0:0:0:0:
208,128,23604,1,0,0:0:0:0:
320,192,23762,1,0,0:0:0:0:
480,176,23920,1,0,0:0:0:0:
384,64,24078,1,2,0:0:0:0:
240,64,24236,1,0,0:0:0:0:
112,176,24394,5,0,0:0:0:0:
384,224,24694,1,2,0:0:0:0:
128,224,24844,1,0,0:0:0:0:
384,224,24994,1,0,0:0:0:0:
128,224,25144,1,0,0:0:0:0:
384,224,25294,1,2,0:0:0:0:
128,224,25444,1,0,0:0:0:0:
256,192,25594,5,0,0:0:0:0:
256,192,25665,1,0,0:0:0:0:
256,192,25736,1,0,0:0:0:0:
256,192,25808,1,0,0:0:0:0:
256,192,25879,1,0,0:0:0:0:
256,192,25951,1,0,0:0:0:0:
256,192,26022,1,0,0:0:0:0:
256,192,26094,1,0,0:0:0:0:
256,192,26165,1,0,0:0:0:0:
256,192,26236,1,0,0:0:0:0:
256,192,26308,1,0,0:0:0:0:
256,192,26379,1,0,0:0:0:0:
256,192,26451,1,0,0:0:0:0:
256,192,26522,1,0,0:0:0:0:
256,192,26594,1,0,0:0:0:0:
256,192,26665,1,0,0:0:0:0:
256,192,26736,5,4,0:0:0:0:
64,128,31308,5,8,0:0:0:0:
192,128,31451,1,2,0:0:0:0:
48,192,31594,1,8,0:0:0:0:
208,192,31736,1,2,0:0:0:0:
64,256,31879,1,8,0:0:0:0:
192,256,32022,1,2,0:0:0:0:
320,256,32165,1,8,0:0:0:0:
448,256,32308,1,10,0:0:0:0:
368,128,32451,5,8,0:0:0:0:
192,128,32594,1,2,0:0:0:0:
360,192,32736,1,8,0:0:0:0:
128,192,32879,1,2,0:0:0:0:
352,192,33022,1,8,0:0:0:0:
464,160,33165,1,2,0:0:0:0:
352,80,33308,1,8,0:0:0:0:
304,80,33379,1,8,0:0:0:0:
256,80,33451,1,8,0:0:0:0:
208,80,33522,1,8,0:0:0:0:
160,80,33594,5,8,0:0:0:0:
48,144,33736,1,2,0:0:0:0:
48,144,33879,1,8,0:0:0:0:
192,240,34022,1,2,0:0:0:0:
192,240,34165,1,8,0:0:0:0:
368,240,34308,1,2,0:0:0:0:
368,240,34451,1,8,0:0:0:0:
448,112,34594,1,10,0:0:0:0:
448,112,34736,5,8,0:0:0:0:
224,112,34879,1,2,0:0:0:0:
224,112,35022,1,8,0:0:0:0:
80,128,35165,1,2,0:0:0:0:
80,128,35308,1,8,0:0:0:0:
256,192,35451,1,2,0:0:0:0:
352,160,35594,1,8,0:0:0:0:
352,160,35665,1,8,0:0:0:0:
352,160,35736,1,8,0:0:0:0:
352,160,35808,1,8,0:0:0:0:
352,160,35879,5,8,0:0:0:0:
192,144,36022,1,2,0:0:0:0:
192,144,36165,1,8,0:0:0:0:
368,96,36308,1,2,0:0:0:0:
368,96,36451,1,8,0:0:0:0:
96,128,36594,1,2,0:0:0:0:
96,128,36737,1,8,0:0:0:0:
288,176,36879,1,10,0:0:0:0:
288,176,37022,5,8,0:0:0:0:
432,128,37165,1,2,0:0:0:0:
432,128,37308,1,8,0:0:0:0:
192,144,37451,1,2,0:0:0:0:
192,144,37594,1,8,0:0:0:0:
352,256,37736,1,2,0:0:0:0:
352,256,37879,1,8,0:0:0:0:
352,256,37951,1,8,0:0:0:0:
352,256,38022,1,8,0:0:0:0:
352,256,38094,1,8,0:0:0:0:
352,256,38165,5,8,0:0:0:0:
256,192,38308,1,2,0:0:0:0:
112,192,38451,1,8,0:0:0:0:
224,80,38594,1,2,0:0:0:0:
368,112,38736,1,8,0:0:0:0:
96,96,38879,1,2,0:0:0:0:
32,224,39022,1,8,0:0:0:0:
192,224,39165,1,8,0:0:0:0:
432,192,39308,5,8,0:0:0:0:
432,192,39451,1,8,0:0:0:0:
208,192,39594,1,8,0:0:0:0:
208,192,39736,1,8,0:0:0:0:
64,176,39879,5,8,0:0:0:0:
64,176,39951,5,8,0:0:0:0:
64,176,40022,5,8,0:0:0:0:
64,176,40094,5,8,0:0:0:0:
224,128,40165,5,8,0:0:0:0:
224,128,40236,5,8,0:0:0:0:
224,128,40308,5,8,0:0:0:0:
224,128,40379,5,8,0:0:0:0:
224,128,40451,5,6,0:0:0:0:
16,304,40736,1,8,0:0:0:0:
256,288,40879,1,0,0:0:0:0:
496,304,41022,1,0,0:0:0:0:
448,192,41165,1,0,0:0:0:0:
288,176,41308,1,8,0:0:0:0:
48,128,41451,1,0,0:0:0:0:
96,224,41594,5,0,0:0:0:0:
176,192,41736,1,0,0:0:0:0:
320,112,41879,1,8,0:0:0:0:
224,96,42022,1,0,0:0:0:0:
112,144,42165,1,10,0:0:0:0:
112,144,42308,1,8,0:0:0:0:
272,208,42451,1,10,0:0:0:0:
272,208,42522,1,8,0:0:0:0:
272,208,42594,1,8,0:0:0:0:
272,208,42665,1,8,0:0:0:0:
272,208,42736,5,6,0:0:0:0:
128,272,43022,5,8,0:0:0:0:
128,272,43165,1,0,0:0:0:0:
384,256,43308,1,0,0:0:0:0:
384,256,43451,1,0,0:0:0:0:
144,112,43594,1,8,0:0:0:0:
32,176,43736,1,0,0:0:0:0:
160,208,43879,5,0,0:0:0:0:
304,112,44022,1,0,0:0:0:0:
464,176,44165,1,8,0:0:0:0:
288,176,44308,1,0,0:0:0:0:
416,112,44451,1,10,0:0:0:0:
336,64,44594,1,8,0:0:0:0:
208,96,44736,1,10,0:0:0:0:
208,96,44808,1,8,0:0:0:0:
208,96,44879,1,8,0:0:0:0:
208,96,44951,1,8,0:0:0:0:
208,96,45022,5,6,0:0:0:0:
48,208,45308,5,8,0:0:0:0:
192,208,45451,1,0,0:0:0:0:
48,208,45594,1,0,0:0:0:0:
192,208,45736,1,0,0:0:0:0:
448,208,45879,1,8,0:0:0:0:
416,112,46022,1,0,0:0:0:0:
336,64,46165,1,0,0:0:0:0:
176,32,46308,1,0,0:0:0:0:
64,96,46451,1,8,0:0:0:0:
80,240,46594,1,0,0:0:0:0:
320,224,46736,1,10,0:0:0:0:
320,224,46879,1,8,0:0:0:0:
208,144,47022,1,10,0:0:0:0:
208,144,47094,1,8,0:0:0:0:
208,144,47165,1,8,0:0:0:0:
208,144,47236,1,8,0:0:0:0:
208,144,47308,5,6,0:0:0:0:
48,192,47594,5,8,0:0:0:0:
48,192,47736,1,0,0:0:0:0:
48,192,47879,5,6,0:0:0:0:
464,192,48165,1,8,0:0:0:0:
464,192,48308,1,0,0:0:0:0:
464,192,48451,5,6,0:0:0:0:
464,192,48736,5,6,0:0:0:0:
48,192,49022,5,6,0:0:0:0:
464,192,49308,5,6,0:0:0:0:
384,128,49594,5,6,0:0:0:0:
80,128,49879,1,0,0:0:0:0:
80,128,50022,1,6,0:0:0:0:
384,256,50308,1,0,0:0:0:0:
384,256,50451,1,6,0:0:0:0:
96,240,50736,5,0,0:0:0:0:
96,240,50879,1,6,0:0:0:0:
352,144,51165,1,0,0:0:0:0:
352,144,51308,1,6,0:0:0:0:
352,144,51451,1,6,0:0:0:0:
32,144,51879,5,6,0:0:0:0:
448,224,52165,1,0,0:0:0:0:
448,224,52308,1,6,0:0:0:0:
64,224,52594,1,0,0:0:0:0:
64,224,52736,1,6,0:0:0:0:
288,112,53022,5,0,0:0:0:0:
288,112,53165,1,6,0:0:0:0:
32,144,53451,1,6,0:0:0:0:
32,144,53594,1,6,0:0:0:0:
256,192,53736,1,6,0:0:0:0:
384,192,53879,1,2,0:0:0:0:
384,192,53951,1,2,0:0:0:0:
384,192,54022,1,2,0:0:0:0:
384,192,54094,1,2,0:0:0:0:
384,192,54165,5,6,0:0:0:0:
384,192,54451,1,0,0:0:0:0:
112,192,54594,1,6,0:0:0:0:
112,192,54879,1,0,0:0:0:0:
352,48,55022,1,6,0:0:0:0:
352,48,55308,5,0,0:0:0:0:
192,80,55451,1,6,0:0:0:0:
192,80,55736,1,0,0:0:0:0:
448,144,55879,1,6,0:0:0:0:
448,144,56022,1,6,0:0:0:0:
80,176,56451,5,6,0:0:0:0:
80,176,56736,1,0,0:0:0:0:
224,240,56879,1,6,0:0:0:0:
224,240,57165,1,0,0:0:0:0:
464,96,57308,1,6,0:0:0:0:
464,96,57451,1,6,0:0:0:0:
160,112,57736,5,6,0:0:0:0:
160,112,58022,1,6,0:0:0:0:
368,176,58165,1,6,0:0:0:0:
368,176,58308,1,6,0:0:0:0:
256,192,58451,1,2,0:0:0:0:
256,192,58522,1,2,0:0:0:0:
256,192,58594,1,2,0:0:0:0:
256,192,58665,1,2,0:0:0:0:
256,192,58736,5,2,0:0:0:0:
0,64,59022,1,2,0:0:0:0:
128,64,59165,1,2,0:0:0:0:
256,64,59308,1,2,0:0:0:0:
384,64,59451,1,2,0:0:0:0:
512,64,59594,1,2,0:0:0:0:
256,192,59736,1,12,0:0:0:0:
256,192,60022,5,12,0:0:0:0:
256,192,60308,1,12,0:0:0:0:
128,192,60451,1,2,0:0:0:0:
128,192,60594,1,2,0:0:0:0:
384,192,60736,1,2,0:0:0:0:
384,192,60879,1,2,0:0:0:0:
256,192,61022,5,2,0:0:0:0:
384,128,61165,1,2,0:0:0:0:
512,64,61308,1,2,0:0:0:0:
384,64,61451,1,2,0:0:0:0:
256,64,61594,1,2,0:0:0:0:
128,64,61737,1,2,0:0:0:0:
0,64,61880,1,2,0:0:0:0:
256,192,62022,1,14,0:0:0:0:
256,192,62308,5,12,0:0:0:0:
256,192,62594,1,12,0:0:0:0:
384,192,62737,1,2,0:0:0:0:
384,192,62880,1,2,0:0:0:0:
128,192,63022,1,2,0:0:0:0:
128,192,63165,1,2,0:0:0:0:
256,192,63308,5,2,0:0:0:0:
128,192,63594,1,2,0:0:0:0:
256,192,63736,1,2,0:0:0:0:
384,192,63879,1,2,0:0:0:0:
128,192,64022,1,2,0:0:0:0:
256,192,64165,1,2,0:0:0:0:
384,192,64308,1,12,0:0:0:0:
128,192,64594,5,12,0:0:0:0:
384,192,64879,1,12,0:0:0:0:
256,192,65022,1,2,0:0:0:0:
192,192,65165,1,2,0:0:0:0:
320,192,65308,1,2,0:0:0:0:
192,192,65451,1,2,0:0:0:0:
256,192,65594,5,2,0:0:0:0:
384,192,65736,1,2,0:0:0:0:
384,192,65880,1,2,0:0:0:0:
256,192,66022,1,2,0:0:0:0:
128,192,66165,1,2,0:0:0:0:
384,192,66308,1,2,0:0:0:0:
256,192,66451,1,2,0:0:0:0:
128,192,66594,1,12,0:0:0:0:
384,192,66880,5,12,0:0:0:0:
128,192,67165,1,12,0:0:0:0:
256,192,67308,1,2,0:0:0:0:
320,192,67451,1,2,0:0:0:0:
192,192,67594,1,2,0:0:0:0:
320,192,67737,1,2,0:0:0:0:
448,192,67879,5,6,0:0:0:0:
448,192,68022,1,0,0:0:0:0:
416,128,68165,1,8,0:0:0:0:
416,128,68308,1,0,0:0:0:0:
384,64,68451,1,0,0:0:0:0:
384,64,68594,1,0,0:0:0:0:
352,128,68736,1,8,0:0:0:0:
352,128,68879,1,0,0:0:0:0:
256,64,69022,5,0,0:0:0:0:
128,64,69165,1,0,0:0:0:0:
32,160,69308,1,8,0:0:0:0:
64,320,69451,1,0,0:0:0:0:
224,352,69594,1,10,0:0:0:0:
384,288,69736,1,8,0:0:0:0:
448,128,69879,1,10,0:0:0:0:
288,96,70022,1,8,0:0:0:0:
160,128,70165,5,6,0:0:0:0:
160,128,70308,1,0,0:0:0:0:
128,192,70451,1,8,0:0:0:0:
128,192,70594,1,0,0:0:0:0:
192,224,70736,1,0,0:0:0:0:
192,224,70879,1,0,0:0:0:0:
224,160,71022,1,8,0:0:0:0:
224,160,71165,1,0,0:0:0:0:
256,96,71308,5,0,0:0:0:0:
352,64,71451,1,0,0:0:0:0:
480,128,71594,1,8,0:0:0:0:
448,256,71736,1,0,0:0:0:0:
352,320,71879,1,10,0:0:0:0:
192,320,72022,1,8,0:0:0:0:
96,256,72165,1,10,0:0:0:0:
224,96,72308,1,8,0:0:0:0:
384,96,72451,5,6,0:0:0:0:
384,96,72594,1,0,0:0:0:0:
384,96,72736,1,8,0:0:0:0:
384,96,72879,1,0,0:0:0:0:
320,160,73022,1,0,0:0:0:0:
320,160,73165,1,0,0:0:0:0:
320,160,73308,1,8,0:0:0:0:
320,160,73451,1,0,0:0:0:0:
256,128,73594,5,6,0:0:0:0:
128,128,73736,1,0,0:0:0:0:
256,128,73879,1,8,0:0:0:0:
128,128,74022,1,0,0:0:0:0:
0,128,74165,1,10,0:0:0:0:
0,128,74308,1,8,0:0:0:0:
96,224,74451,1,10,0:0:0:0:
264,224,74594,1,8,0:0:0:0:
432,160,74736,5,6,0:0:0:0:
64,160,75308,5,6,0:0:0:0:
224,192,75879,5,0,0:0:0:0:
288,192,75974,5,0,0:0:0:0:
224,192,76070,5,0,0:0:0:0:
288,192,76165,5,8,0:0:0:0:
224,192,76260,5,8,0:0:0:0:
288,192,76355,5,8,0:0:0:0:
224,192,76451,5,2,0:0:0:0:
288,192,76546,5,2,0:0:0:0:
224,192,76641,5,2,0:0:0:0:
288,192,76736,5,0,0:0:0:0:
224,192,76832,5,0,0:0:0:0:
288,192,76927,5,0,0:0:0:0:
224,192,77022,5,6,0:0:0:0:
256,192,81308,5,0,0:0:0:0:
256,192,81355,5,0,0:0:0:0:
256,192,81403,5,0,0:0:0:0:
256,192,81451,5,0,0:0:0:0:
256,192,81498,5,0,0:0:0:0:
256,192,81546,5,0,0:0:0:0:
256,192,81594,5,8,0:0:0:0:
96,192,81879,1,8,0:0:0:0:
416,192,82165,1,8,0:0:0:0:
256,192,82451,1,2,0:0:0:0:
64,192,82736,5,8,0:0:0:0:
448,192,83022,1,8,0:0:0:0:
64,192,83308,1,8,0:0:0:0:
256,192,83594,1,2,0:0:0:0:
64,192,83879,5,8,0:0:0:0:
64,192,83974,1,0,0:0:0:0:
64,192,84070,1,0,0:0:0:0:
64,192,84165,1,2,0:0:0:0:
448,192,84451,5,8,0:0:0:0:
448,192,84546,1,0,0:0:0:0:
448,192,84642,1,0,0:0:0:0:
448,192,84737,1,2,0:0:0:0:
368,192,85022,5,8,0:0:0:0:
144,192,85165,5,8,0:0:0:0:
256,192,85451,5,8,0:0:0:0:
224,128,85594,5,8,0:0:0:0:
288,128,85665,1,0,0:0:0:0:
224,128,85736,1,0,0:0:0:0:
288,128,85808,1,0,0:0:0:0:
224,128,85879,1,0,0:0:0:0:
288,128,85951,1,0,0:0:0:0:
224,128,86022,1,0,0:0:0:0:
288,128,86094,1,0,0:0:0:0:
256,128,86165,5,4,0:0:0:0:
80,192,86451,1,0,0:0:0:0:
304,304,86736,1,10,0:0:0:0:
96,320,87022,1,0,0:0:0:0:
424,128,87308,5,2,0:0:0:0:
144,80,87587,1,0,0:0:0:0:
336,240,87866,1,10,0:0:0:0:
96,192,88145,1,0,0:0:0:0:
352,160,88424,5,2,0:0:0:0:
144,128,88696,1,0,0:0:0:0:
368,208,88969,1,10,0:0:0:0:
32,128,89242,1,0,0:0:0:0:
192,48,89514,5,2,0:0:0:0:
448,96,89780,1,0,0:0:0:0:
272,144,90047,1,10,0:0:0:0:
464,224,90314,1,8,0:0:0:0:
176,208,90580,5,2,0:0:0:0:
416,128,90840,1,0,0:0:0:0:
64,96,91101,1,10,0:0:0:0:
320,64,91362,1,0,0:0:0:0:
48,160,91623,5,0,0:0:0:0:
48,160,91750,1,2,0:0:0:0:
48,160,91878,1,0,0:0:0:0:
416,160,92133,1,14,0:0:0:0:
112,192,92644,5,0,0:0:0:0:
256,112,92769,1,0,0:0:0:0:
176,64,92894,1,2,0:0:0:0:
288,208,93019,1,2,0:0:0:0:
160,192,93144,5,0,0:0:0:0:
320,96,93269,1,0,0:0:0:0:
152,112,93394,1,2,0:0:0:0:
384,160,93519,1,2,0:0:0:0:
256,192,93644,5,4,0:0:0:0:
256,192,93705,5,0,0:0:0:0:
256,192,93766,5,0,0:0:0:0:
256,192,93827,5,0,0:0:0:0:
256,192,93888,5,0,0:0:0:0:
256,192,93950,5,0,0:0:0:0:
256,192,94011,5,0,0:0:0:0:
256,192,94072,5,0,0:0:0:0:
256,192,94133,5,8,0:0:0:0:
256,192,94195,5,8,0:0:0:0:
256,192,94256,5,8,0:0:0:0:
256,192,94317,5,8,0:0:0:0:
256,192,94378,5,8,0:0:0:0:
256,192,94439,5,8,0:0:0:0:
256,192,94501,5,8,0:0:0:0:
256,192,94562,5,8,0:0:0:0:
256,192,94623,5,4,0:0:0:0:
160,192,94746,1,0,0:0:0:0:
64,192,94868,1,8,0:0:0:0:
64,192,94990,1,0,0:0:0:0:
256,192,95113,1,0,0:0:0:0:
352,192,95236,1,0,0:0:0:0:
448,192,95358,1,8,0:0:0:0:
448,192,95480,1,0,0:0:0:0:
256,192,95603,5,0,0:0:0:0:
152,136,95725,1,0,0:0:0:0:
256,136,95848,1,8,0:0:0:0:
360,136,95970,1,0,0:0:0:0:
256,136,96092,1,0,0:0:0:0:
40,136,96215,1,0,0:0:0:0:
200,64,96337,1,8,0:0:0:0:
88,48,96460,1,0,0:0:0:0:
224,176,96582,5,0,0:0:0:0:
136,240,96705,1,0,0:0:0:0:
296,192,96827,1,8,0:0:0:0:
168,96,96950,1,0,0:0:0:0:
320,56,97072,1,0,0:0:0:0:
224,176,97195,1,0,0:0:0:0:
384,200,97317,1,8,0:0:0:0:
448,128,97439,1,0,0:0:0:0:
320,128,97562,5,0,0:0:0:0:
320,128,97684,1,0,0:0:0:0:
160,128,97807,1,8,0:0:0:0:
160,128,97929,1,0,0:0:0:0:
384,200,98052,1,0,0:0:0:0:
384,200,98174,1,0,0:0:0:0:
96,192,98297,1,8,0:0:0:0:
96,192,98419,1,0,0:0:0:0:
288,192,98541,5,0,0:0:0:0:
224,224,98664,1,0,0:0:0:0:
288,192,98786,1,8,0:0:0:0:
224,224,98909,1,0,0:0:0:0:
0,192,99031,5,2,0:0:0:0:
0,192,99154,5,2,0:0:0:0:
512,192,99521,5,2,0:0:0:0:
512,192,99644,5,2,0:0:0:0:
256,192,100011,5,0,0:0:0:0:
224,192,100133,1,0,0:0:0:0:
288,192,100256,1,8,0:0:0:0:
192,192,100378,1,0,0:0:0:0:
336,192,100501,5,0,0:0:0:0:
464,192,100623,1,0,0:0:0:0:
512,192,100746,1,8,0:0:0:0:
400,192,100868,1,0,0:0:0:0:
400,192,100990,1,0,0:0:0:0:
256,192,101113,1,0,0:0:0:0:
128,192,101235,1,8,0:0:0:0:
32,192,101358,1,8,0:0:0:0:
144,256,101480,5,0,0:0:0:0:
144,256,101541,5,0,0:0:0:0:
144,256,101603,5,0,0:0:0:0:
144,256,101664,5,0,0:0:0:0:
144,256,101725,5,0,0:0:0:0:
144,256,101786,5,0,0:0:0:0:
144,256,101848,5,0,0:0:0:0:
144,256,101909,5,0,0:0:0:0:
144,256,101970,5,0,0:0:0:0:
144,256,102031,5,0,0:0:0:0:
144,256,102092,5,0,0:0:0:0:
144,256,102154,5,0,0:0:0:0:
144,256,102215,5,0,0:0:0:0:
144,256,102276,5,0,0:0:0:0:
144,256,102337,5,0,0:0:0:0:
144,256,102399,5,0,0:0:0:0:
144,256,102460,5,6,0:0:0:0:
496,192,102827,5,6,0:0:0:0:
64,144,103195,5,6,0:0:0:0:
416,80,103562,5,6,0:0:0:0:
160,64,103807,5,6,0:0:0:0:
48,80,103929,5,6,0:0:0:0:
176,112,104052,5,6,0:0:0:0:
384,128,104174,5,6,0:0:0:0:
384,128,104235,5,6,0:0:0:0:
384,128,104297,5,6,0:0:0:0:
368,256,104419,5,6,0:0:0:0:
16,192,104786,5,6,0:0:0:0:
448,144,105154,5,6,0:0:0:0:
96,80,105521,5,6,0:0:0:0:
352,64,105766,5,6,0:0:0:0:
464,80,105888,5,6,0:0:0:0:
336,112,106011,5,6,0:0:0:0:
128,128,106133,5,6,0:0:0:0:
128,128,106194,5,6,0:0:0:0:
128,128,106256,5,6,0:0:0:0:
256,192,106378,5,6,0:0:0:0:
112,272,106623,5,0,0:0:0:0:
48,272,106746,5,6,0:0:0:0:
400,272,106990,5,0,0:0:0:0:
464,272,107113,5,6,0:0:0:0:
112,272,107358,5,0,0:0:0:0:
48,272,107481,5,6,0:0:0:0:
400,272,107725,5,6,0:0:0:0:
464,272,107848,5,6,0:0:0:0:
384,192,107970,5,6,0:0:0:0:
240,192,108092,5,6,0:0:0:0:
240,192,108154,5,6,0:0:0:0:
240,192,108215,5,6,0:0:0:0:
256,192,108337,5,6,0:0:0:0:
464,272,108582,5,0,0:0:0:0:
400,272,108705,5,6,0:0:0:0:
48,272,108949,5,0,0:0:0:0:
112,272,109072,5,6,0:0:0:0:
400,272,109317,5,0,0:0:0:0:
464,272,109440,5,6,0:0:0:0:
112,272,109684,5,6,0:0:0:0:
48,272,109807,5,6,0:0:0:0:
128,192,109929,5,6,0:0:0:0:
272,192,110051,5,6,0:0:0:0:
272,192,110113,5,6,0:0:0:0:
272,192,110174,5,6,0:0:0:0:
192,192,110297,5,4,0:0:0:0:
320,192,110541,5,4,0:0:0:0:
256,192,110603,12,0,114215,0:0:0:0:
