osu file format v5

[General]
AudioFilename: Super_Mario_Bros_2_Insomnic_OC_ReMix.mp3
AudioLeadIn: 0
PreviewTime: 113989
Countdown: 1
SampleSet: Soft
StackLeniency: 0.7
Mode: 0
EditorBookmarks: 1570,9949,17827,25705,41586,49714,57717,65720,81476,93606,107861,117990,126118,133746

[Metadata]
Title:Super Mario Bros 2 OC ReMix
Artist:Insomnic
Creator:kingcobra52
Version:Normal
Source:
Tags:

[Difficulty]
HPDrainRate:4
CircleSize:5
OverallDifficulty:5
SliderMultiplier:1.5
SliderTickRate:1

[Events]
//Background and Video events
0,0,"super-mario-bros-2-nes-potion.jpg"
//Break Periods
2,33908,40641
2,73173,80656
2,105207,106809
//Storyboard Layer 0 (Background)
//Storyboard Layer 1 (Failing)
//Storyboard Layer 2 (Passing)
//Storyboard Layer 3 (Foreground)
//Storyboard Sound Samples
//Background Colour Transformations
3,100,163,162,255

[TimingPoints]
1940,500.26169093207,4,2,0,100
41968,500.261690932071,4,1,0,91

[HitObjects]
136,56,1939,1,0
240,64,2440,1,0
328,112,2940,1,0
400,192,3440,1,0
432,288,3941,6,0,B|264:336,1,150
184,336,4941,2,0,B|88:176,1,150
144,112,5942,5,0
248,80,6442,1,0
344,112,6942,1,0
432,168,7442,1,0
472,264,7943,2,2,B|446:352|357:364|245:388|117:340|69:300,1,450
72,200,9944,5,0
152,128,10444,2,0,B|288:56,1,150
392,56,11444,1,0
456,144,11945,1,0
400,232,12445,2,0,B|304:352,1,150
200,328,13446,1,0
104,280,13946,5,0
40,200,14446,1,0
48,96,14946,1,0
136,32,15447,1,0
256,192,15947,12,2,17448
120,104,17948,5,0
224,104,18448,2,0,B|392:104,1,150
440,184,19449,2,0,B|506:191|456:264,2,75
344,232,20449,1,0
248,280,20949,2,2,B|160:224|152:152,1,150
88,80,21950,5,0
200,80,22450,2,0,B|352:80,1,150
440,128,23451,1,0
440,232,23951,1,0
344,280,24451,2,2,B|323:346|208:320,1,150
112,304,25452,1,2
112,200,25952,5,4
40,120,26452,1,0
112,48,26953,1,0
200,96,27453,1,0
248,120,27703,1,0
296,96,27953,1,0
384,40,28453,1,0
448,120,28954,1,0
448,224,29454,2,2,B|448:304,1,75
448,352,29954,5,0
352,304,30454,2,0,B|260:319|240:200,1,150
136,224,31455,5,2
136,168,31705,1,2
136,112,31955,2,2,B|208:32,1,75
240,56,32455,2,2,B|280:128,1,75
304,168,32956,2,2,B|392:112,1,75
416,112,33456,2,2,B|472:200,1,75
80,56,41968,5,0
184,56,42468,2,0,B|336:56,1,150
432,56,43468,1,0
440,104,43718,1,0
424,152,43969,1,0
424,264,44469,1,0
312,264,44969,2,2,B|304:316|263:357|168:352,1,150
104,312,45970,5,0
72,200,46470,2,0,B|72:48,1,150
168,48,47470,1,0
264,48,47971,2,2,B|344:104|344:200,3,150
424,224,49972,5,0
368,304,50472,2,0,B|216:304,1,150
152,224,51472,1,0
112,184,51723,1,0
144,136,51973,2,2,B|224:64,2,75
72,56,52973,1,2
32,152,53474,1,0
80,240,53974,5,0
168,296,54474,2,0,B|296:208,1,150
392,216,55475,1,0
432,184,55725,1,0
456,136,55975,1,0
376,72,56475,2,2,B|376:32,3,37.5
248,64,57476,1,2
144,64,57976,5,0
144,168,58476,2,0,B|144:328,1,150
64,248,59477,1,0
32,200,59727,1,0
48,152,59977,2,2,B|157:247|303:42|464:312,1,450
472,320,61728,1,2
400,336,62103,5,0
328,320,62478,1,0
280,296,62728,1,0
160,200,63479,1,0
160,152,63729,1,0
256,192,63979,12,2,65480
304,64,65980,6,0,B|400:64,2,75
248,64,66730,1,0
192,64,66981,1,0
88,96,67481,1,0
80,208,67981,2,0,B|136:288,2,75
32,232,68732,1,0
56,280,68982,1,0
152,328,69482,1,0
256,328,69982,6,0,B|368:224,1,150
440,152,70983,2,0,B|312:40,1,150
224,48,71983,2,0,B|224:184,1,112.5
224,208,72609,1,2
224,232,72734,1,2
224,280,72984,1,2
80,280,81988,6,4,B|164:336|272:280,1,187.5
336,248,82989,1,2
400,200,83364,2,2,B|464:144,1,75
336,88,84240,6,0,B|200:24|160:184|152:296|40:264|32:136|48:40|136:24,1,525
184,24,86241,2,4,B|304:24,2,112.5
64,192,87992,6,4,B|148:248|256:192,1,187.5
280,272,88992,1,2
352,296,89367,2,2,B|448:320,1,75
496,208,90243,6,0,B|496:120|464:19|400:8|328:37|344:200|212:205|152:16,1,525
104,32,92244,2,4,B|64:64|104:136,2,112.5
112,248,93995,6,4,B|164:300|240:256,1,112.5
264,256,94620,1,4
328,216,94995,1,2
392,176,95370,2,2,B|448:248,1,75
320,176,96246,6,0,B|315:250|249:269|184:252|126:188|197:114|203:39|132:-8|64:1|12:49|16:160,1,525
40,184,98247,2,4,B|80:312,2,112.5
216,272,99998,6,4,B|268:324|344:280,1,112.5
368,280,100623,1,4
424,232,100998,1,2
448,160,101374,2,2,B|455:108|416:56,1,75
312,48,102249,2,0,B|184:48|120:96|72:200|120:272|192:272,1,375
280,272,104000,1,0
328,272,104250,2,4,B|400:184,2,112.5
72,192,108002,6,0,B|168:312,1,150
208,288,108752,2,2,B|296:224,1,75
320,248,109253,1,2
352,280,109503,1,2
416,208,110003,5,0
416,104,110503,1,0
328,56,111004,1,0
280,56,111254,2,0,B|224:72,1,37.5
128,104,112004,2,0,B|72:176,6,75
184,184,114005,1,0
256,248,114505,1,0
352,248,115006,2,0,B|464:136,1,150
488,104,115756,1,0
440,104,116006,2,0,B|384:104,3,37.5
256,192,116757,12,2,117507
48,304,118007,5,0
48,200,118508,2,0,B|200:200,1,150
200,96,119508,1,0
224,56,119758,1,0
272,40,120008,1,0
344,104,120509,1,0
416,176,121009,2,2,B|411:262|320:296,1,150
240,320,122009,5,0
136,320,122510,2,0,B|88:256,1,75
56,224,123010,1,0
112,136,123510,1,0
208,104,124010,2,2,B|288:72|368:112,3,150
440,160,126011,5,0
416,256,126512,2,0,B|376:329|288:320,1,150
208,272,127512,1,0
176,232,127762,1,0
144,192,128013,2,2,B|80:224|40:216|8:120|32:40|120:24,1,300
160,32,129263,2,2,B|160:80,3,37.5
224,32,130014,5,0
320,32,130514,2,0,B|408:32,1,75
440,32,131014,1,0
440,80,131264,1,0
440,128,131514,2,0,B|304:224,1,150
240,272,132515,2,2,B|176:272,3,37.5
240,152,133515,1,2
336,168,134016,5,0
416,232,134516,1,0
328,288,135016,1,0
280,288,135266,1,0
232,272,135516,1,0
200,232,135767,1,0
184,184,136017,1,0
184,80,136517,1,0
80,80,137017,1,0
40,168,137517,2,2,B|64:240,1,75
96,272,138018,5,0
192,296,138518,1,0
240,296,138768,2,0,B|320:296,1,75
400,240,139519,1,0
432,200,139769,1,0
400,160,140019,1,2
320,96,140519,1,2
240,40,141019,1,2
152,88,141520,1,2
64,40,142020,6,0,B|19:112|112:192,1,150
168,232,143020,2,0,B|253:262|307:204,1,150
392,160,144021,2,0,B|373:88|280:48,1,150
192,56,145021,1,2
144,56,145272,1,2
168,96,145522,1,2
96,160,146022,6,0,B|111:201|160:216,2,75
184,208,147022,2,0,B|221:197|236:156,2,75
256,280,148023,1,0
288,320,148273,2,0,B|336:368,1,37.5
352,312,148648,2,2,B|320:280,1,37.5
296,248,149024,1,6
