osu file format v9

[General]
AudioFilename: My feeling.mp3
AudioLeadIn: 600
PreviewTime: 39383
Countdown: 0
SampleSet: Soft
StackLeniency: 0.4
Mode: 0
LetterboxInBreaks: 1

[Editor]
Bookmarks: 6716,17383,28049,40049,50716,61383,65383,76049
DistanceSpacing: 1
BeatDivisor: 4
GridSize: 4

[Metadata]
Title:Watashi no Ki.Mo.Chi (TV Size)
Artist:Inoue Marina
Creator:ykcarrot
Version:Insane
Source:Boku wa Tomodachi ga Sukunai
Tags:Haganai Mikazuki Yozora

[Difficulty]
HPDrainRate:8
CircleSize:4
OverallDifficulty:8
ApproachRate:8
SliderMultiplier:2
SliderTickRate:2

[Events]
//Background and Video events
0,0,"BG.jpg"
Video,400,"ED.avi"
//Break Periods
//Storyboard Layer 0 (Background)
//Storyboard Layer 1 (Fail)
//Storyboard Layer 2 (Pass)
//Storyboard Layer 3 (Foreground)
//Storyboard Sound Samples
//Background Colour Transformations
3,100,163,162,255

[TimingPoints]
50,333.333333333333,4,2,1,80,1,0
1383,-111.111111111111,4,2,0,60,0,0
6716,-111.111111111111,4,2,0,70,0,0
11966,-100,4,2,1,70,0,0
12133,-100,4,2,1,90,0,0
15799,-100,4,2,1,70,0,0
15966,-100,4,2,2,90,0,0
16133,-100,4,2,1,90,0,0
18633,-100,4,2,2,90,0,0
18799,-100,4,2,1,90,0,0
21299,-100,4,2,2,90,0,0
21466,-100,4,2,1,90,0,0
26633,-100,4,2,1,50,0,0
27383,-100,4,2,1,90,0,0
32633,-100,4,2,2,90,0,0
32799,-100,4,2,1,90,0,0
35633,-100,4,2,1,70,0,0
35799,-100,4,2,1,90,0,0
37299,-100,4,2,2,90,0,0
37633,-100,4,2,1,70,0,0
37966,-100,4,2,1,80,0,0
38299,-100,4,2,1,90,0,0
38716,-100,4,2,1,70,0,0
39383,-100,4,2,1,30,0,0
39466,-100,4,2,1,35,0,0
39549,-100,4,2,1,40,0,0
39633,-100,4,2,1,45,0,0
39716,-100,4,2,1,50,0,0
39799,-100,4,2,1,55,0,0
39883,-100,4,2,1,65,0,0
39966,-100,4,2,1,70,0,0
40049,-100,4,2,1,90,0,1
44799,-100,4,2,1,70,0,1
44966,-100,4,2,1,90,0,1
45133,-100,4,2,1,70,0,1
45299,-100,4,2,1,90,0,1
49466,-100,4,2,1,70,0,1
49966,-100,4,2,1,90,0,1
50133,-100,4,2,1,70,0,1
50466,-100,4,2,1,90,0,1
50633,-100,4,2,2,90,0,1
50799,-100,4,2,1,90,0,1
54799,-100,4,2,1,70,0,1
55133,-100,4,2,1,90,0,1
55466,-100,4,2,1,70,0,1
55633,-100,4,2,1,90,0,1
55799,-100,4,2,1,70,0,1
55966,-100,4,2,1,90,0,1
57299,-100,4,2,1,70,0,1
57966,-100,4,2,1,90,0,1
59966,-100,4,2,1,70,0,1
60133,-100,4,2,1,90,0,1
60466,-100,4,2,1,70,0,1
61049,-100,4,2,1,70,0,0
62633,-100,4,2,2,70,0,0
62799,-100,4,2,1,70,0,0
63633,-100,4,2,2,70,0,0
63799,-100,4,2,1,70,0,0
65383,-100,4,2,1,90,0,0
65466,-100,4,2,2,90,0,0
65633,-100,4,2,1,90,0,0
67466,-100,4,2,1,70,0,0
68133,-100,4,2,1,90,0,0
69299,-100,4,2,2,90,0,0
69466,-100,4,2,1,90,0,0
72799,-100,4,2,1,70,0,0
73633,-100,4,2,1,90,0,0
73966,-100,4,2,1,80,0,0
76049,-100,4,2,1,90,0,0
76466,-100,4,2,1,70,0,0
76799,-100,4,2,1,90,0,0
79133,-100,4,2,1,70,0,0
79966,-100,4,2,2,90,0,0
80133,-100,4,2,1,90,0,0
81799,-100,4,2,1,70,0,0
82466,-100,4,2,1,90,0,0
83466,-100,4,2,1,70,0,0
84049,-100,4,2,1,90,0,0
84466,-100,4,2,1,70,0,0
84716,-100,4,2,1,90,0,0
85299,-100,4,2,2,90,0,0
85633,-100,4,2,1,70,0,0
86633,-100,4,2,2,60,0,0
87216,-100,4,2,2,5,0,0
87299,-100,4,2,2,60,0,0
88383,-100,4,2,2,5,0,0

[Colours]
Combo1 : 255,255,172
Combo2 : 140,140,140
Combo3 : 184,108,230
Combo4 : 29,226,177

[HitObjects]
48,148,1383,5,2
128,176,1549,1,0
192,232,1716,1,0
256,288,1883,1,0
320,232,2049,1,2
384,176,2216,2,0,B|420:148|420:148|464:148,1,89.9999957084658,0|2
48,52,2716,5,2
128,84,2883,1,0
192,140,3049,1,0
256,196,3216,1,0
320,140,3383,1,2
384,84,3549,1,0
464,52,3716,1,0
464,76,3799,1,0
464,100,3883,1,0
464,124,3966,1,0
464,148,4049,5,2
384,176,4216,1,0
320,232,4383,1,0
256,288,4549,1,0
192,232,4716,1,2
128,176,4883,2,0,B|92:148|92:148|48:148,1,89.9999957084658,0|2
464,52,5383,5,2
384,84,5549,1,0
320,140,5716,1,0
256,196,5883,1,0
192,140,6049,1,2
128,84,6216,1,0
48,52,6383,1,0
48,76,6466,1,0
48,100,6549,1,0
48,124,6633,1,0
48,148,6716,5,2
48,236,6883,2,0,B|8:276,2,44.9999978542329,0|0|2
116,296,7216,2,0,B|72:340,2,44.9999978542329,0|0|2
184,356,7549,2,0,B|276:356,1,89.9999957084658,2|0
364,356,7883,2,0,B|408:356|408:356|460:280|460:280|504:280,2,179.999991416932,2|2|2
272,356,8716,5,2
184,280,8883,1,0
272,204,9049,1,2
184,128,9216,1,0
272,52,9383,5,2
360,52,9549,2,0,B|400:12,2,44.9999978542329,0|0|2
432,108,9883,2,0,B|472:68,2,44.9999978542329,0|0|2
504,164,10216,2,0,B|428:240,1,89.9999957084658,2|0
376,292,10549,2,0,B|312:356|312:356|220:356,1,179.999991416932,2|2
176,276,11049,1,0
84,276,11216,1,2
132,356,11383,5,2
404,108,11716,1,2
404,108,12050,6,0,B|440:140|440:140|440:244|440:244|404:276,2,200,2|12|0
308,68,12883,1,0
204,68,13050,1,8
108,108,13216,2,0,B|72:140|72:140|72:192,1,100
180,300,13550,2,0,B|216:268|216:268|216:216,2,100,0|8|0
72,192,14050,6,0,B|72:140|72:140|108:108,1,100
216,216,14383,2,0,B|216:268|216:268|180:300,1,100,8|0
144,204,14716,5,0
216,132,14883,2,0,B|216:72,2,50,0|0|8
288,204,15216,2,0,B|288:260,2,50
360,132,15550,2,0,B|360:84|360:84|392:44,1,100,0|8
492,24,15883,2,0,B|492:124|492:124|432:204,1,200,4|0
360,276,16383,1,8
432,348,16550,1,0
504,276,16716,5,8
176,36,17050,1,8
176,36,17383,5,4
88,84,17550,1,0
176,132,17716,1,8
88,180,17883,1,0
88,180,18216,2,0,B|88:220|88:220|76:240|76:240|76:280,1,100,0|8
76,376,18550,2,0,B|156:376|156:376|192:364|192:364|276:364,1,200
372,364,19049,1,8
452,304,19216,1,0
372,244,19383,1,0
372,144,19549,1,0
452,84,19716,1,8
452,84,20049,5,0
372,144,20216,1,0
292,204,20383,1,8
212,264,20549,1,0
212,264,20883,2,0,B|168:288|168:288|120:288,1,100,0|8
16,288,21216,2,0,B|16:80,1,200
16,88,21633,1,0
16,88,21716,1,8
256,360,22049,5,8
496,88,22383,1,8
496,88,22716,5,4
424,160,22883,1,0
496,232,23049,1,8
424,304,23216,1,0
424,304,23549,2,0,B|500:380,2,100,0|8|0
352,232,24049,2,0,B|252:232,2,100,0|0|8
424,160,24549,2,0,B|500:84,2,100
352,232,25049,1,8
352,232,25383,5,0
276,164,25549,1,0
176,164,25716,1,8
100,96,25883,1,0
0,96,26049,2,0,B|0:200,1,100
0,296,26383,1,8
84,244,26549,1,0
184,244,26716,5,2
212,256,26799,1,2
240,268,26883,1,2
268,280,26966,1,2
296,292,27049,1,2
324,304,27133,1,2
352,316,27216,1,2
380,328,27299,1,2
408,340,27383,6,0,B|440:300|440:300|440:248,1,100,8|0
472,64,27716,2,0,B|440:104|440:104|440:156,1,100,8|0
440,252,28049,5,4
360,192,28216,2,0,B|360:140|360:140|332:100,1,100,0|8
256,32,28549,1,0
179,100,28716,2,0,B|152:140|152:140|152:192,1,100
256,192,29049,1,8
304,284,29216,2,0,B|256:300|256:300|208:284,1,100
72,252,29549,5,0
100,136,29716,1,8
196,64,29883,1,0
316,64,30049,1,0
412,136,30216,1,0
440,252,30383,2,0,B|432:304|432:304|396:332,1,100,8|0
300,368,30716,5,0
196,368,30883,2,0,B|188:328|188:328|172:320|172:320|164:280,1,100,0|8
268,280,31216,1,0
164,280,31383,2,0,B|156:240|156:240|140:232|140:232|132:192,1,100
236,192,31716,1,8
132,192,31883,2,0,B|124:152|124:152|108:144|108:144|100:104,1,100
204,104,32216,5,0
300,32,32383,1,8
396,104,32549,2,0,B|404:120|404:120|396:136|396:136|404:152|404:152|396:168|396:168|404:184|404:184|396:200|396:200|404:216|404:216|396:232|396:232|404:248|404:248|396:264|396:264|404:280|404:280|396:296,1,200,0|0
402,282,33049,1,8
108,284,33383,5,0
168,204,33549,2,0,B|228:124,1,100,0|8
328,136,33883,1,0
268,216,34049,2,0,B|208:296,1,100
168,204,34383,1,8
268,216,34549,2,0,B|368:228,1,100
468,236,34883,5,0
416,128,35049,1,8
316,60,35216,1,0
196,60,35383,1,0
96,128,35549,1,0
44,236,35716,2,0,B|60:296|60:296|120:340|120:340|184:340,1,200,12|4
284,340,36216,5,0
352,264,36383,1,8
420,188,36549,1,0
420,84,36716,2,0,B|472:84|472:84|512:112,2,100,0|0|8
320,84,37216,6,0,B|104:84,1,200,8|0
22,105,37716,1,2
106,158,37883,1,8
64,248,38049,1,2
181,203,38216,1,8
97,342,38383,1,2
255,248,38549,1,8
192,376,38716,5,0
212,364,38799,1,0
232,352,38883,1,0
252,340,38966,1,0
272,328,39049,1,0
292,316,39133,1,0
312,304,39216,1,0
332,292,39299,1,0
352,280,39383,5,2
372,268,39466,1,2
392,256,39549,1,2
412,244,39633,1,2
432,232,39716,1,2
452,220,39800,1,2
472,208,39883,1,2
492,196,39966,1,2
512,184,40050,6,0,B|452:104|452:104|352:104,1,200,4|8
204,124,40550,2,0,B|264:204|264:204|364:204,1,200,0|0
352,104,41050,1,8
268,48,41216,1,0
204,124,41383,1,0
288,180,41550,1,0
352,104,41716,1,8
268,48,41883,2,0,B|188:48|188:48|152:64|152:64|108:132,1,200
108,132,42383,1,8
380,296,42716,6,0,B|304:296|304:296|272:332|272:332|192:332,1,200,0|8
64,260,43216,2,0,B|140:260|140:260|172:224|172:224|252:224,1,200
348,224,43716,1,8
444,192,43883,1,0
368,128,44050,1,0
292,64,44216,1,0
388,32,44383,1,8
464,96,44550,2,0,B|464:144|464:144|444:192,1,100,0|0
348,224,44883,6,0,B|324:256|324:256|324:272|324:272|292:312,1,100,4|8
164,224,45216,2,0,B|188:256|188:256|188:272|188:272|220:312,1,100,4|0
512,264,45716,5,8
256,16,46050,1,0
0,264,46383,1,8
348,324,46716,5,0
256,280,46883,1,0
164,324,47050,1,8
256,368,47216,2,0,B|256:156,1,200
256,68,47716,1,8
352,100,47883,6,0,B|256:128|256:128|160:100,1,200
68,64,48383,1,8
68,164,48550,1,0
160,204,48716,1,0
256,236,48883,1,0
352,204,49050,1,8
444,164,49216,1,0
444,64,49383,5,4
324,124,49550,1,2
324,124,49633,1,2
324,124,49716,1,2
324,124,49800,1,2
324,124,49883,1,2
188,124,50050,1,4
68,64,50216,1,2
68,64,50300,1,2
68,64,50383,1,2
256,36,50550,6,0,B|256:236,1,200,4|0
368,236,51050,1,8
256,236,51216,1,0
336,316,51383,1,0
256,236,51550,1,0
256,348,51716,1,8
256,236,51883,1,0
176,316,52050,1,0
256,236,52216,1,0
144,236,52383,1,8
256,236,52550,2,0,B|256:32,1,200
256,36,53050,1,8
292,352,53383,6,0,B|364:352|364:352|408:300|408:300|480:300,1,200,0|8
320,268,53883,2,0,B|248:268|248:268|204:320|204:320|132:320,1,200
44,320,54383,1,8
80,228,54550,1,0
180,228,54716,1,0
216,136,54883,1,2
216,136,54966,1,2
216,136,55050,1,2
116,136,55216,2,0,B|92:180|92:180|80:228,1,100,0|0
116,320,55550,6,0,B|144:320|144:320|192:308|192:308|216:308,1,100,4|8
396,320,55883,2,0,B|368:320|368:320|320:308|320:308|296:308,1,100,4|0
256,16,56383,5,8
416,268,56716,1,0
96,268,57050,1,8
344,64,57383,5,2
256,112,57550,1,2
168,64,57716,1,2
256,16,57883,2,0,B|256:224,1,200,2|0
256,316,58383,1,8
352,284,58550,6,0,B|256:256|256:256|160:284,1,200
68,324,59050,2,0,B|40:284|40:284|40:232,1,100,8|0
40,132,59383,1,0
112,64,59550,1,0
184,132,59716,1,8
256,64,59883,1,0
328,132,60050,6,0,B|352:148|352:148|352:188|352:188|376:208,2,100,2|0|8
184,132,60550,1,2
184,132,60633,1,2
184,132,60716,2,0,B|160:148|160:148|160:188|160:188|136:208,2,100,2|0|2
256,380,61383,5,6
256,252,61550,1,2
256,124,61716,1,2
184,16,61883,2,0,B|152:16|152:16|116:36|116:36|88:36,1,100,2|8
328,16,62216,2,0,B|360:16|360:16|396:36|396:36|424:36,1,100,2|0
420,136,62550,6,0,B|420:344,1,200,2|2
316,336,63050,1,8
256,252,63216,1,2
196,336,63383,1,8
92,336,63550,2,0,B|88:324|88:324|92:312|92:312|88:300|88:300|92:288|92:288|88:276|88:276|92:264|92:264|88:252|88:252|92:240|92:240|88:228|88:228|92:216|92:216|88:204|88:204|92:192|92:192|88:180|88:180|92:168|92:168|88:156|88:156|92:144,1,200,2|0
0,192,64050,5,8
0,192,64133,1,8
0,192,64216,1,8
512,192,64550,5,8
512,192,64633,1,8
512,192,64716,1,8
256,368,65050,5,8
256,368,65133,1,8
256,368,65216,1,8
256,368,65300,1,8
256,368,65383,2,0,B|256:160,1,200,8|4
256,68,65883,1,0
256,68,65966,1,0
256,68,66050,2,0,B|308:68|308:68|352:88,2,100,0|0|8
156,68,66550,2,0,B|72:152,1,100
40,284,66883,2,0,B|120:204,1,100,0|8
256,164,67216,2,0,B|176:244,1,100
184,336,67550,5,2
212,308,67633,1,2
240,280,67716,1,2
268,252,67800,1,2
296,224,67883,1,2
320,192,67966,1,2
348,164,68050,2,0,B|384:128|384:128|480:128|480:128|520:88,2,200,2|8|0
428,224,68883,2,0,B|356:296,1,100,0|8
284,368,69216,2,0,B|248:332|248:332|144:332|144:332|108:296,1,200
40,228,69716,1,8
128,180,69883,1,0
56,108,70050,5,8
456,108,70383,1,8
456,108,70716,5,4
456,208,70883,2,0,B|504:256,2,50,0|0|8
384,276,71216,2,0,B|432:324,2,50
284,276,71550,2,0,B|180:276,1,100,0|8
52,204,71883,2,0,B|156:204,1,100
284,132,72216,2,0,B|180:132,1,100,0|8
52,60,72550,2,0,B|156:60,1,100
252,60,72883,5,2
292,60,72966,1,2
332,60,73050,1,2
400,132,73216,1,2
440,132,73300,1,2
480,132,73383,1,2
512,228,73550,1,2
480,324,73716,2,0,B|440:356|440:356|392:356,1,100,8|0
292,356,74050,5,8
164,276,74216,1,8
68,160,74383,1,8
4,24,74550,1,8
4,24,74883,5,0
88,80,75050,1,0
172,136,75216,1,0
256,192,75383,1,0
340,248,75550,1,0
424,304,75716,1,0
508,360,75883,1,0
508,360,76050,6,0,B|508:216|508:216|480:168,1,200,4|8
428,84,76550,1,2
396,60,76633,1,2
356,60,76716,1,2
256,60,76883,1,0
176,120,77050,1,8
212,212,77216,6,0,B|108:212,1,100,4|0
244,284,77550,2,0,B|136:284,1,100,0|8
276,356,77883,2,0,B|172:356,1,100,0|0
76,356,78216,1,0
8,284,78383,1,8
76,212,78549,1,0
144,284,78716,6,0,B|348:284,1,200,4|8
436,320,79216,1,2
452,284,79299,1,2
436,248,79383,1,2
384,164,79549,1,2
368,128,79633,1,2
384,92,79716,1,2
476,128,79883,6,0,B|272:128,1,200,2|0
216,48,80383,1,8
156,128,80549,1,0
216,208,80716,2,0,B|240:252|240:252|240:304,1,100,8|0
88,300,81049,2,0,B|64:256|64:256|64:204,1,100,8|0
64,104,81383,6,0,B|112:64|112:64|256:64,1,200,4|8
352,64,81883,1,2
388,80,81966,1,2
424,96,82049,1,2
424,196,82216,1,2
388,180,82299,1,2
352,164,82383,1,2
252,164,82549,6,0,B|200:164|200:164|156:188,1,100,4|0
300,240,82883,2,0,B|256:264|256:264|236:308,1,100,0|8
380,272,83216,2,0,B|380:324|380:324|404:368,1,100
468,272,83549,1,2
492,240,83633,1,2
492,200,83716,1,2
424,124,83883,5,2
388,108,83966,1,2
352,92,84049,2,0,B|304:72|304:72|208:72|208:72|160:92,1,200,4|8
64,124,84549,1,2
40,156,84633,1,2
40,196,84716,1,8
64,292,84883,1,0
156,332,85049,1,8
256,332,85216,6,0,B|256:128,1,200,2|0
256,32,85716,1,2
280,48,85799,1,2
304,64,85883,1,2
328,80,85966,1,2
352,96,86049,1,2
376,112,86133,1,2
400,128,86216,1,2
424,144,86299,1,2
448,160,86383,1,2
448,260,86549,6,0,B|256:364|64:260,1,400,6|0
120,176,87383,2,0,B|184:224|296:256|336:144|336:80|296:16|216:16|176:80|176:144|216:256|328:224|392:176,1,600
