osu file format v9

[General]
AudioFilename: My feeling.mp3
AudioLeadIn: 600
PreviewTime: 39383
Countdown: 0
SampleSet: Soft
StackLeniency: 0.4
Mode: 0
LetterboxInBreaks: 1

[Editor]
Bookmarks: 6716,17383,28049,40049,50716,61383,65383,76049
DistanceSpacing: 1
BeatDivisor: 4
GridSize: 4

[Metadata]
Title:Watashi no Ki.Mo.Chi (TV Size)
Artist:Inoue Marina
Creator:ykcarrot
Version:Hard
Source:Boku wa Tomodachi ga Sukunai
Tags:Haganai Mikazuki Yozora

[Difficulty]
HPDrainRate:6
CircleSize:4
OverallDifficulty:6
ApproachRate:7
SliderMultiplier:1.6
SliderTickRate:2

[Events]
//Background and Video events
0,0,"BG.jpg"
Video,400,"ED.avi"
//Break Periods
//Storyboard Layer 0 (Background)
//Storyboard Layer 1 (Fail)
//Storyboard Layer 2 (Pass)
//Storyboard Layer 3 (Foreground)
//Storyboard Sound Samples
//Background Colour Transformations
3,100,163,162,255

[TimingPoints]
50,333.333333333333,4,2,1,80,1,0
1383,-111.111111111111,4,2,0,60,0,0
6716,-111.111111111111,4,2,0,70,0,0
11966,-100,4,2,1,70,0,0
12133,-100,4,2,1,90,0,0
15799,-100,4,2,1,70,0,0
15966,-100,4,2,2,90,0,0
16133,-100,4,2,1,90,0,0
18633,-100,4,2,2,90,0,0
18799,-100,4,2,1,90,0,0
21299,-100,4,2,2,90,0,0
21466,-100,4,2,1,90,0,0
26633,-100,4,2,1,50,0,0
27383,-100,4,2,1,90,0,0
32633,-100,4,2,2,90,0,0
32799,-100,4,2,1,90,0,0
35633,-100,4,2,1,70,0,0
35799,-100,4,2,1,90,0,0
37299,-100,4,2,2,90,0,0
37633,-100,4,2,1,70,0,0
37966,-100,4,2,1,80,0,0
38299,-100,4,2,1,90,0,0
38716,-100,4,2,1,70,0,0
39383,-100,4,2,1,30,0,0
39466,-100,4,2,1,35,0,0
39549,-100,4,2,1,40,0,0
39633,-100,4,2,1,45,0,0
39716,-100,4,2,1,50,0,0
39799,-100,4,2,1,55,0,0
39883,-100,4,2,1,65,0,0
39966,-100,4,2,1,70,0,0
40049,-100,4,2,1,90,0,1
44799,-100,4,2,1,70,0,1
44966,-100,4,2,1,90,0,1
45133,-100,4,2,1,70,0,1
45299,-100,4,2,1,90,0,1
49466,-100,4,2,1,70,0,1
49966,-100,4,2,1,90,0,1
50133,-100,4,2,1,70,0,1
50466,-100,4,2,1,90,0,1
54799,-100,4,2,1,70,0,1
55133,-100,4,2,1,90,0,1
55466,-100,4,2,1,70,0,1
55633,-100,4,2,1,90,0,1
55799,-100,4,2,1,70,0,1
55966,-100,4,2,1,90,0,1
57299,-100,4,2,1,70,0,1
57966,-100,4,2,1,90,0,1
59966,-100,4,2,1,70,0,1
60133,-100,4,2,1,90,0,1
60466,-100,4,2,1,70,0,1
61049,-100,4,2,1,70,0,0
62633,-100,4,2,2,70,0,0
62799,-100,4,2,1,70,0,0
63633,-100,4,2,2,70,0,0
63799,-100,4,2,1,70,0,0
65383,-100,4,2,1,90,0,0
65466,-100,4,2,2,90,0,0
65633,-100,4,2,1,90,0,0
69299,-100,4,2,2,90,0,0
69466,-100,4,2,1,90,0,0
73299,-100,4,2,1,70,0,0
73633,-100,4,2,1,90,0,0
73966,-100,4,2,1,80,0,0
76049,-100,4,2,1,90,0,0
79966,-100,4,2,2,90,0,0
80133,-100,4,2,1,90,0,0
85299,-100,4,2,2,90,0,0
85633,-100,4,2,1,70,0,0
86633,-100,4,2,2,60,0,0
87216,-100,4,2,2,5,0,0
87299,-100,4,2,2,60,0,0
88383,-100,4,2,2,5,0,0

[Colours]
Combo1 : 255,255,172
Combo2 : 140,140,140
Combo3 : 184,108,230
Combo4 : 29,226,177

[HitObjects]
380,128,1383,1,2
316,156,1549,1,0
256,192,1716,1,0
196,156,1883,1,0
132,128,2049,2,0,B|108:156|108:156|108:192,2,71.9999965667726,2|0|2
256,48,2716,5,2
256,120,2883,1,0
256,192,3049,1,0
256,264,3216,1,0
256,336,3383,2,0,B|184:336|184:336|132:284,1,143.999993133545,2|0
132,128,4049,5,2
196,156,4216,1,0
256,192,4383,1,0
316,156,4549,1,0
380,128,4716,2,0,B|404:156|404:156|404:192,2,71.9999965667726,2|0|2
256,48,5383,5,2
256,120,5549,1,0
256,192,5716,1,0
256,264,5883,1,0
256,336,6049,2,0,B|328:336|328:336|380:284,1,143.999993133545,2|0
488,192,6716,6,0,B|408:192,1,71.9999965667726,2|0
408,120,7049,2,0,B|332:120,1,71.9999965667726,2|0
328,48,7383,2,0,B|252:48,1,71.9999965667726,2|2
116,80,7883,5,2
24,192,8216,1,2
116,304,8549,1,2
188,304,8716,6,0,B|212:276|212:276|212:240,1,71.9999965667726,2|0
172,140,9049,2,0,B|148:168|148:168|148:204,1,71.9999965667726,2|0
212,240,9383,6,0,B|288:240,1,71.9999965667726,2|0
284,168,9716,2,0,B|360:168,1,71.9999965667726,2|0
356,96,10049,2,0,B|440:96,1,71.9999965667726,2|2
428,240,10549,6,0,B|388:300|388:300|312:300,1,143.999993133545,2|2
256,260,11049,1,0
196,300,11216,1,2
256,340,11383,5,2
256,44,11716,1,2
256,44,12050,6,0,B|304:44|304:44|356:84|356:84|408:84,2,160,2|12|0
176,44,12883,2,0,B|176:128,1,80,0|8
176,204,13216,2,0,B|128:204|128:204|76:164|76:164|24:164,2,160
256,204,14050,6,0,B|296:204|296:204|332:228,1,80
372,340,14383,2,0,B|332:340|332:340|296:316,1,80,8|0
216,316,14716,6,0,B|144:360|144:360|68:360,2,160,0|8|0
256,248,15550,2,0,B|256:148,1,80,0|8
296,100,15883,2,0,B|368:56|368:56|444:56,1,160,4|0
500,112,16383,2,0,B|500:152|500:152|468:184,1,80,8|0
416,236,16716,5,8
96,236,17050,1,8
96,236,17383,5,4
28,192,17550,1,0
28,112,17716,1,8
96,68,17883,1,0
96,68,18216,2,0,B|188:68,1,80,0|8
256,68,18550,2,0,B|284:96|284:96|284:180|284:180|316:212,1,160
388,208,19049,2,0,B|476:208,1,80,8|0
468,288,19383,2,0,B|468:376,2,80,0|0|8
468,288,20049,5,0
468,208,20216,1,0
428,140,20383,1,8
348,140,20549,1,0
348,140,20883,2,0,B|264:140,1,80,0|8
188,140,21216,2,0,B|148:140|148:140|88:192|88:192|48:192,1,160
48,192,21633,1,0
48,192,21716,1,8
48,352,22049,5,8
48,32,22383,1,8
48,32,22716,5,4
112,80,22883,1,0
192,80,23049,1,8
256,128,23216,1,0
256,128,23549,2,0,B|336:128,2,80,0|8|0
192,176,24049,2,0,B|112:176|112:176|48:224,1,160,0|8
48,304,24549,2,0,B|128:304|128:304|192:256,1,160
256,208,25049,1,8
256,208,25383,5,0
324,168,25549,1,0
324,88,25716,1,8
256,48,25883,1,0
188,88,26049,2,0,B|156:112|156:112|112:112,1,80,0|0
36,112,26383,2,0,B|36:152|36:152|60:184,1,80,8|0
104,252,26716,6,0,B|156:252,3,40,2|2|2|2
172,280,27049,2,0,B|216:280,3,40,2|2|2|2
240,308,27383,5,8
468,80,27716,1,8
468,80,28049,5,4
408,136,28216,2,0,B|380:164|380:164|380:208,1,80,0|8
360,284,28549,1,0
292,328,28716,2,0,B|276:340|276:340|236:340|236:340|220:328,1,80
152,284,29049,1,8
132,204,29216,2,0,B|132:164|132:164|104:136,1,80
44,80,29549,6,0,B|76:56|76:56|116:56,2,80,0|8|0
104,136,30049,2,0,B|72:160|72:160|32:160,2,80,0|0|8
332,56,30716,5,0
412,56,30883,2,0,B|412:84|412:84|424:104|424:104|424:132,1,80,0|8
344,132,31216,1,0
424,132,31383,2,0,B|424:160|424:160|436:180|436:180|436:208,1,80
356,208,31716,1,8
436,208,31883,2,0,B|436:236|436:236|448:256|448:256|448:284,1,80
368,284,32216,5,0
312,364,32383,1,8
256,284,32549,2,0,B|252:272|252:272|256:260|256:260|252:248|252:248|256:236|256:236|252:224|252:224|256:212|256:212|252:200|252:200|256:188|256:188|252:176|252:176|256:164|256:164|252:152|252:152|256:140|256:140|252:128|252:128,1,160
253,132,33049,1,8
32,32,33383,5,0
32,112,33549,2,0,B|92:172,1,80,0|8
144,228,33883,1,0
216,192,34049,2,0,B|308:192,1,80
368,228,34383,1,8
424,168,34549,2,0,B|488:104,1,80
480,32,34883,6,0,B|448:32|448:32|432:40|432:40|400:40,2,80,0|8|0
480,112,35383,2,0,B|480:200,1,80
480,272,35716,2,0,B|440:296|440:296|376:296|376:296|336:324,1,160,12|4
272,372,36216,5,0
208,324,36383,1,8
144,276,36549,1,0
80,228,36716,2,0,B|56:196|56:196|56:116|56:116|80:84,1,160,0|8
144,36,37216,6,0,B|304:36,1,160,8|0
384,36,37716,2,0,B|452:88,1,80,2|8
484,200,38049,2,0,B|416:148,1,80,2|8
300,148,38383,2,0,B|368:200,1,80,2|8
400,312,38716,6,0,B|368:288,3,40,0|0|0|0
336,264,39049,2,0,B|304:240,3,40,0|0|0|0
272,216,39383,6,0,B|240:192,3,40,8|8|8|8
208,168,39716,2,0,B|176:144,3,40,8|8|8|8
144,120,40050,6,0,B|64:120|64:120|4:172,1,160,4|8
68,220,40550,2,0,B|148:220|148:220|208:168,1,160
268,112,41050,2,0,B|300:88|300:88|340:88,1,80,8|0
420,88,41383,2,0,B|460:88|460:88|492:112,2,80,0|0|8
380,156,41883,2,0,B|380:332,1,160
380,316,42383,1,8
140,316,42716,6,0,B|112:288|112:288|112:208|112:208|80:176,1,160,0|8
8,212,43216,2,0,B|36:240|36:240|36:320|36:320|68:352,1,160
140,316,43716,2,0,B|176:296|176:296|216:296,1,80,8|0
296,296,44050,2,0,B|336:296|336:296|372:316,2,80,0|0|8
256,228,44550,2,0,B|256:136,1,80
292,76,44883,2,0,B|256:60|256:60|220:76,2,80,4|8|4
464,248,45716,5,8
256,372,46050,1,0
48,248,46383,1,8
184,52,46716,5,0
256,92,46883,1,0
328,52,47050,1,8
256,12,47216,2,0,B|256:176,1,160
256,252,47716,1,8
184,292,47883,6,0,B|228:320|228:320|284:320|284:320|328:292,1,160,0|0
396,248,48383,2,0,B|444:316,2,80,8|0|0
464,208,48883,2,0,B|512:276,2,80,0|8|0
416,144,49383,5,4
368,80,49550,2,0,B|248:80|248:80|220:108,1,160,2|2
164,164,50050,1,4
164,244,50216,2,0,B|204:244|204:244|232:216,1,80,2|2
284,156,50550,6,0,B|312:184|312:184|312:264|312:264|340:292,1,160,4|0
420,292,51050,2,0,B|500:292,1,80,8|0
420,292,51383,2,0,B|420:376,1,80
420,292,51716,2,0,B|340:292,1,80,8|0
420,292,52050,2,0,B|420:200,2,80,0|0|8
420,372,52550,2,0,B|380:372|380:372|316:324|316:324|272:324,1,160
276,324,53050,1,8
36,320,53383,6,0,B|12:284|12:284|12:212|12:212|36:176,1,160,0|8
88,236,53883,2,0,B|112:200|112:200|112:128|112:128|88:92,1,160,0|0
140,32,54383,2,0,B|172:32|172:32|184:40|184:40|216:40,1,80,8|0
296,40,54716,2,0,B|332:40|332:40|344:32|344:32|376:32,2,80,0|2|2
256,108,55216,2,0,B|256:196,1,80
292,260,55550,2,0,B|272:272|272:272|240:272|240:272|220:260,2,80,4|8|4
476,104,56383,5,8
256,12,56716,1,0
36,104,57050,1,8
184,292,57383,5,8
256,252,57550,1,8
328,292,57716,1,8
256,332,57883,2,0,B|256:168,1,160,8|0
256,92,58383,1,8
188,52,58550,6,0,B|216:24|216:24|296:24|296:24|324:52,1,160,0|0
324,132,59050,2,0,B|296:160|296:160|216:160|216:160|188:132,1,160,8|0
116,92,59550,1,0
60,152,59716,1,8
116,208,59883,1,0
196,208,60050,6,0,B|188:248|188:248|160:276,2,80,2|0|8
256,156,60550,1,2
316,208,60716,2,0,B|324:248|324:248|352:276,2,80,2|0|2
256,356,61383,5,6
256,256,61550,1,2
256,156,61716,1,2
216,64,61883,2,0,B|184:64|184:64|168:72|168:72|136:72,1,80,2|8
296,64,62216,2,0,B|328:64|328:64|344:72|344:72|376:72,1,80,2|0
396,148,62550,6,0,B|396:312,1,160,2|2
316,308,63050,1,8
256,256,63216,1,2
196,308,63383,1,8
116,308,63550,2,0,B|112:296|112:296|116:284|116:284|112:272|112:272|116:260|116:260|112:248|112:248|116:236|116:236|112:224|112:224|116:212|116:212|112:200|112:200|116:188|116:188|112:176|112:176|116:164|116:164|112:152|112:152,1,160,2|0
112,76,64050,5,8
112,76,64133,1,8
112,76,64216,1,8
400,76,64550,5,8
400,76,64633,1,8
400,76,64716,1,8
256,324,65050,5,8
256,324,65133,1,8
256,324,65216,1,8
256,324,65300,1,8
256,324,65383,2,0,B|256:164,2,160,8|4|0
176,324,66216,2,0,B|136:324|136:324|104:300,1,80,0|8
40,252,66550,2,0,B|4:220|4:220|4:156|4:156|40:124,2,160
88,188,67383,6,0,B|128:188|128:188|160:164,1,80,0|0
272,208,67716,2,0,B|232:208|232:208|200:232,1,80,8|0
160,300,68050,6,0,B|120:300|120:300|52:340|52:340|8:340,2,160,0|8|0
240,300,68883,2,0,B|272:300|272:300|288:308|288:308|320:308,1,80,0|8
400,308,69216,2,0,B|424:276|424:276|424:156,1,160
424,76,69716,2,0,B|392:52|392:52|352:52,1,80,8|0
272,52,70050,5,8
44,280,70383,1,8
44,280,70716,6,0,B|88:324|88:324|188:324,2,160,4|8|0
44,200,71550,2,0,B|72:172|72:172|112:172,1,80,0|8
192,172,71883,2,0,B|192:76|192:76|148:32,2,160
192,252,72716,6,0,B|192:292|192:292|220:320,1,80
340,320,73050,2,0,B|340:280|340:280|312:252,1,80,8|0
256,192,73383,5,2
216,124,73550,1,2
296,124,73716,1,8
108,276,74050,5,8
52,220,74216,1,8
52,140,74383,1,8
52,60,74550,1,8
52,60,74883,5,0
120,104,75050,1,0
188,148,75216,1,0
256,192,75383,1,0
324,236,75550,1,0
392,280,75716,1,0
460,324,75883,1,0
460,324,76050,6,0,B|500:288|500:288|500:176,2,160,4|8|0
392,368,76883,1,0
324,324,77050,1,8
256,280,77216,2,0,B|220:304|220:304|144:304|144:304|108:328,2,160,4|0|0
324,236,78050,1,0
392,192,78216,2,0,B|476:192,2,80,0|8|0
324,148,78716,6,0,B|360:124|360:124|436:124|436:124|472:100,2,160,4|8|0
256,192,79549,1,0
188,148,79716,1,8
120,104,79883,2,0,B|64:164|64:164|64:256,1,160,2|0
8,300,80383,2,0,B|40:324|40:324|80:324,1,80,8|0
160,324,80716,5,8
356,60,81049,1,8
356,60,81383,6,0,B|388:36|388:36|468:36|468:36|500:60,2,160,4|8|0
356,140,82216,1,0
276,140,82383,1,8
276,220,82549,2,0,B|244:244|244:244|164:244|164:244|132:220,2,160,4|0|0
276,140,83383,1,0
208,96,83549,2,0,B|208:16,2,80,0|8|0
140,140,84049,6,0,B|140:308,2,160,4|8|8
72,96,84883,1,0
140,52,85049,1,8
208,96,85216,2,0,B|236:124|236:124|236:204|236:204|268:236,1,160,2|0
344,232,85716,1,2
344,152,85883,1,2
412,112,86049,1,2
480,152,86216,1,2
480,232,86383,1,2
412,272,86549,6,0,B|256:344|100:272,1,320,6|0
156,212,87383,2,0,B|280:268|320:184|320:116|284:76|228:76|192:116|192:184|232:268|356:212,1,480
