osu file format v6

[General]
AudioFilename: Inoue Marina (Yoko Littner) - Pieces Of Sweet Stars (Video Edit Version).mp3
AudioLeadIn: 0
PreviewTime: 14751
Countdown: 0
SampleSet: Normal
StackLeniency: 0.7
Mode: 0
LetterboxInBreaks: 1
SkinPreference:Default

[Editor]
Bookmarks: 14784,30239,37285,51603,58194,65694,97512,111830,126148,140239,172057,179330,193194,207966,222966,230012,253875,272512
DistanceSpacing: 0.949999988079071
BeatDivisor: 4
GridSize: 8

[Metadata]
Title:Pieces of Sweet Stars
Artist:Inoue Marina
Creator:whymeman
Version:Tasty Stars
Source:Gurren Lagann
Tags:Tengen Toppa Gurren Lagann Kirameki Yoko Box Pieces of sweet stars star Azure Kyte blissfulyoshi NachoPiggy ztrot rust45 x3ns0r alvisto Mystearica GAINAX Inoue Marina

[Difficulty]
HPDrainRate:3
CircleSize:4
OverallDifficulty:6
SliderMultiplier:1.2
SliderTickRate:2

[Events]
//Background and Video events
0,0,"[Tasty Stars].jpg"
Video,0,"Pieces Of Sweet Stars.avi"
//Break Periods
2,30439,36234
2,58394,64644
2,97712,110780
2,132939,139189
2,172257,178280
2,193393,207144
2,214757,221916
//Storyboard Layer 0 (Background)
Sprite,Background,Centre,"Tinting Processor (Light Filter) v.1.0\Active Tint\Tinting.PNG",320,240 M,0,0,,320,240 F,0,0,284330,0.936 M,0,0,284785,320,240 M,0,284330,284785,320,240 F,0,284330,284785,0.936 F,0,284785,,0
//Storyboard Layer 1 (Fail)
//Storyboard Layer 2 (Pass)
//Storyboard Layer 3 (Foreground)
//Storyboard Sound Samples
//Background Colour Transformations
3,100,255,189,157

[TimingPoints]
14785,454.545454545455,4,2,0,80,1,0
22739,-100,4,1,0,80,0,0
51603,-200,4,2,0,80,0,0
62967,-100,4,1,0,80,0,0
66603,-100,4,1,0,80,0,1
97513,-100,4,1,0,80,0,0
126150,-200,4,2,0,80,0,0
137513,-100,4,1,0,80,0,0
141150,-100,4,1,0,80,0,1
172059,-100,4,1,0,80,0,0
207966,-200,4,2,0,80,0,0
219330,-100,4,2,0,80,0,0
230012,-100,4,1,0,80,0,0
230239,-100,4,1,0,80,0,1
252739,-100,4,1,0,0,0,1
253080,-100,4,1,0,80,0,1
253762,-100,4,2,0,80,0,1
253875,-200,4,2,0,80,0,0
267966,-100,4,1,0,0,0,0

[Colours]
Combo1 : 195,195,195
Combo2 : 255,128,128
Combo3 : 254,207,18
Combo4 : 0,101,149
Combo5 : 255,209,187

[HitObjects]
456,192,14785,1,2
400,192,15012,1,0
344,192,15239,1,2
232,192,15694,2,4,B|104:192,1,120,4|0
112,192,16375,1,4
112,80,16830,5,0
144,40,17057,1,2
176,80,17285,1,0
208,40,17512,1,2
240,80,17739,1,0
272,40,17966,1,0
304,80,18194,1,2
416,80,18648,5,0
400,128,18875,1,2
384,176,19103,1,0
368,224,19330,2,4,C|248:224|248:224,1,120,4|0
248,224,20012,1,4
136,224,20466,5,0
136,280,20694,1,2
136,336,20921,1,0
192,336,21148,1,2
192,336,21375,1,0
248,336,21603,1,0
248,336,21830,1,2
248,280,22057,6,2,C|320:280|320:280,1,60,0|0
360,280,22512,1,2
472,280,22966,1,4
472,168,23421,1,4
360,168,23875,1,4
328,208,24103,5,0
296,168,24330,1,0
264,208,24557,1,0
232,168,24785,1,0
200,208,25012,1,0
168,168,25239,1,0
136,208,25466,1,0
8,312,26148,6,0,B|8:232|8:232,1,60,0|0
8,252,26603,1,0
8,88,27285,1,0
168,88,27966,1,0
280,88,28421,5,4
392,88,28875,2,0,C|392:160|392:160,1,60
392,200,29330,1,4
336,200,29557,2,0,C|336:232|336:232,2,30,0|0|8
224,200,30239,1,4
112,280,37284,5,0
168,288,37512,2,4,C|168:352,2,60,12|0|0
224,280,38194,1,8
280,272,38421,2,0,C|280:200|280:200,2,60
336,280,39103,2,0,C|336:352|336:352,2,60,0|8|0
392,288,39784,1,0
448,280,40012,1,8
448,64,40921,5,0
392,64,41148,1,8
336,64,41375,1,0
280,64,41603,1,0
224,64,41830,2,0,B|88:64|88:64,1,120,8|0
96,120,42512,1,8
88,176,42739,1,0
80,232,42966,6,0,B|144:232|144:232,1,60
140,232,43421,2,0,B|204:232|204:232,3,60,8|0|0|0
200,232,44330,1,8
256,232,44557,5,0
256,176,44784,1,4
256,176,45012,1,0
256,120,45239,1,0
256,120,45466,1,8
368,120,45921,1,0
368,176,46148,1,8
368,232,46375,1,0
368,288,46603,2,0,B|372:288|188:288,1,180,8|8
80,288,47739,1,0
72,232,47966,1,8
56,120,48421,5,0
168,120,48875,1,0
176,176,49103,1,8
288,176,49557,1,0
280,120,49784,1,8
392,120,50239,1,0
400,176,50466,1,0
456,176,50694,1,0
448,120,50921,1,4
480,336,51830,5,0
480,336,52057,2,2,B|368:336|368:336|368:336,1,90,6|2
336,328,53194,1,0
312,320,53421,1,2
288,312,53648,1,0
264,304,53875,2,2,B|152:304|152:304|152:304,1,90
120,304,55012,1,0
128,280,55239,5,2
136,256,55466,1,0
144,232,55694,2,2,B|264:232|264:232,2,90
128,208,57284,1,0
112,184,57512,1,2
88,136,57966,1,0
88,136,58194,1,2
32,144,65694,5,0
40,200,65921,1,0
48,256,66148,1,0
160,256,66603,2,0,B|344:256|344:256,1,180,4|4
448,256,67739,5,0
456,200,67966,1,8
472,88,68421,1,8
480,32,68648,1,0
368,32,69103,1,0
360,88,69330,1,12
344,200,69784,5,8
352,144,70012,1,0
352,144,70239,2,0,B|224:144|224:144,1,120,4|0
120,144,71148,1,4
176,144,71375,5,0
192,88,71603,1,8
80,88,72057,1,8
64,144,72284,1,4
48,200,72512,1,0
32,256,72739,1,0
16,312,72966,5,4
128,312,73421,1,4
160,200,73875,2,0,C|248:200|248:200,2,90,4|0|4
128,312,75012,5,0
144,256,75239,1,8
256,256,75694,1,8
312,256,75921,1,0
424,256,76375,1,0
368,256,76603,1,8
368,144,77057,5,8
424,144,77284,1,0
368,144,77512,2,0,B|240:144|240:144,1,120
192,152,78194,1,0
136,160,78421,1,0
80,168,78648,1,0
24,176,78875,1,8
24,64,79330,1,12
136,64,79784,1,8
248,64,80239,6,0,B|376:64|376:64,1,120,4|0
480,64,81148,1,12
480,144,81489,1,0
480,224,81830,1,4
352,224,82284,5,0
296,224,82512,1,8
352,224,82739,1,0
296,224,82966,1,8
184,224,83421,1,8
184,224,83648,1,0
184,112,84103,5,0
240,112,84330,1,0
128,112,84784,1,12
16,112,85239,1,0
72,112,85466,1,4
72,224,85921,5,0
72,168,86148,1,8
184,168,86603,1,12
128,168,86830,1,0
128,280,87284,1,0
128,224,87512,5,12
240,224,87966,1,12
240,336,88421,2,0,C|408:336|408:336,1,180,4|4
419,224,89557,5,0
419,168,89784,1,8
419,112,90012,1,0
419,56,90239,1,8
307,56,90694,1,0
307,112,90921,1,8
307,280,91603,5,0
251,280,91830,1,0
195,280,92057,1,4
27,280,92739,1,0
27,104,93421,1,0
139,104,93875,5,4
179,136,94103,1,0
219,168,94330,1,0
307,96,94785,1,4
347,136,95012,1,0
387,168,95239,1,0
387,168,95466,1,0
256,192,95694,12,4,97057
256,192,97512,5,4
400,96,111830,5,0
344,96,112057,1,12
400,96,112285,1,0
344,96,112512,1,8
232,96,112966,1,0
120,96,113421,1,8
120,208,113875,1,8
176,208,114103,1,0
232,208,114330,1,0
288,208,114557,1,8
400,208,115012,1,0
456,208,115239,1,8
456,320,115694,5,0
400,320,115921,1,0
344,320,116148,1,0
288,320,116375,1,8
176,320,116830,1,0
152,272,117057,1,8
128,224,117285,1,0
104,176,117512,6,0,B|232:176|232:176,2,120,0|8|4
104,176,118648,1,0
32,32,119330,5,12
56,80,119557,1,0
80,128,119785,1,0
56,80,120012,1,8
168,80,120466,1,0
144,32,120694,1,8
192,128,121148,2,0,B|320:128|320:128,1,120,8|0
368,128,121830,1,8
368,240,122285,1,0
368,184,122512,1,8
480,184,122966,5,0
424,184,123194,1,0
312,184,123648,1,8
200,184,124103,1,0
256,184,124330,1,8
256,72,124785,1,12
256,72,125012,1,0
200,72,125239,1,0
200,72,125466,1,12
200,296,126375,5,0
200,296,126603,2,2,B|88:296|88:296|88:296,2,90,6|2|2
216,320,128194,1,0
232,344,128421,2,6,B|344:344|344:344|344:344,1,90
320,264,129785,5,6
304,240,130012,1,0
288,216,130239,2,2,B|168:216|168:216,2,90,6|2|2
304,192,131830,1,0
320,168,132057,1,2
352,120,132512,1,0
352,120,132739,1,2
444,64,140239,5,0
412,104,140466,1,0
380,64,140694,1,0
348,104,140921,1,0
316,64,141148,2,4,B|132:64|132:64,1,180
136,176,142285,5,0
136,120,142512,1,8
248,120,142966,1,8
192,120,143194,1,0
192,232,143648,1,0
192,176,143875,1,12
248,176,144103,5,0
304,176,144330,1,8
304,64,144785,2,0,B|432:64|432:64,2,120,4|0|4
304,120,145921,5,0
304,176,146148,1,8
304,288,146603,1,12
360,288,146830,1,0
248,288,147284,1,0
192,280,147512,5,4
192,280,147739,1,0
136,272,147966,1,4
80,264,148194,1,0
24,256,148421,1,4
24,176,148762,1,0
24,96,149103,1,4
136,96,149557,5,0
192,96,149784,1,8
160,200,150239,1,8
216,200,150466,1,0
192,304,150921,1,0
248,304,151148,1,8
360,304,151603,5,8
360,192,152057,2,0,B|488:192|488:192,1,120,0|4
480,192,152739,1,0
480,72,153194,1,0
424,72,153421,1,8
304,72,153875,1,12
184,72,154330,1,12
184,184,154784,6,4,B|56:184|56:184,1,120,4|4
80,232,155466,1,4
104,280,155694,2,4,B|288:280,1,180,4|4
400,280,156830,5,0
456,280,157057,1,8
456,168,157512,1,12
400,160,157739,1,0
344,152,157966,1,8
288,144,158194,1,4
176,128,158648,5,0
232,136,158875,1,0
232,248,159330,1,12
152,232,159671,1,0
72,216,160012,1,4
72,104,160466,5,0
128,104,160694,1,12
224,48,161148,1,8
280,48,161375,1,4
392,48,161830,1,0
448,48,162057,5,12
448,104,162284,1,0
392,104,162512,1,8
392,160,162739,1,0
448,160,162966,1,4
448,240,163307,1,0
448,320,163648,1,4
320,320,164103,5,0
320,264,164330,1,12
320,152,164784,1,12
320,40,165239,1,0
320,96,165466,1,12
144,96,166148,5,8
200,96,166375,1,0
256,96,166603,1,8
256,208,167057,1,0
256,152,167284,1,8
256,264,167739,1,0
256,320,167966,1,4
256,192,168421,12,4,171148
256,192,171603,5,8
256,192,172057,1,4
80,72,179330,6,0,B|208:72,2,120,4|0|0
80,128,180466,1,0
80,184,180694,1,4
184,184,181148,6,0,B|328:184,1,120,4|0
304,288,182057,1,0
416,288,182512,1,0
472,288,182739,1,0
472,232,182966,6,0,B|472:88|472:88,1,120,4|0
360,112,183875,1,0
248,112,184330,1,0
216,152,184557,1,0
184,192,184785,6,4,B|40:192|40:192,2,120,4|4|4
216,232,185921,1,0
248,272,186148,1,4
304,272,186375,1,0
360,272,186603,6,0,B|432:272,2,60,4|0|0
368,216,187285,1,0
376,160,187512,1,0
384,104,187739,2,0,B|240:104|240:104,1,120
272,48,188421,6,0,B|192:48|192:48,1,60,4|0
160,48,188875,2,0,B|104:48,2,30
152,104,189330,2,0,B|24:104|24:104,1,120,4|0
16,208,190239,5,4
72,208,190466,1,0
128,208,190694,2,0,B|208:208|208:208,3,60
240,208,191603,2,0,B|240:248,2,30,4|0|0
296,208,192057,5,0
408,208,192512,1,0
464,208,192739,2,0,B|464:248,4,30,0|0|4|0|0
328,48,208194,5,0
312,72,208422,2,2,B|200:72|200:72|200:72,1,90
208,96,209330,1,2
192,120,209557,1,0
176,144,209785,1,2
160,168,210012,1,0
144,192,210240,2,6,B|256:192|256:192|256:192,1,90
248,216,211148,1,0
264,240,211375,1,0
280,264,211603,5,6
296,288,211830,1,0
312,312,212058,2,2,B|192:312|192:312,2,90,6|2|2
328,296,213649,1,0
344,280,213875,2,0,B|408:280|408:280,1,60,2|0
424,264,214557,1,2
256,40,222966,6,0,L|296:128|400:128|336:232|368:336|256:256|144:336|176:232|112:128|224:128|224:128|240:80,1,1080,0|0
256,192,227512,12,4,229785
352,256,230239,6,0,B|168:256|168:256,1,180,4|4
64,256,231375,5,0
56,200,231602,1,8
168,192,232057,1,8
160,136,232284,1,0
272,128,232739,1,0
264,72,232966,1,12
368,72,233420,5,8
376,128,233648,1,0
384,184,233875,1,0
488,184,234330,1,0
496,240,234557,5,4
392,240,235011,1,0
400,296,235239,1,8
288,296,235694,2,8,L|200:296|200:296,1,60,8|4
240,240,236148,2,0,L|160:240|160:240,1,60
192,184,236603,6,4,L|104:184|104:184,2,60,4|0|4
248,184,237285,1,0
264,128,237512,1,4
280,48,237853,1,0
360,48,238194,1,4
464,48,238648,5,0
456,104,238875,1,8
432,208,239330,1,8
424,264,239557,1,0
312,264,240011,1,0
304,320,240239,1,8
320,208,240693,5,8
328,152,240920,1,0
320,208,241148,2,0,B|192:208|192:208,1,120
192,264,241830,1,0
136,264,242057,1,0
80,264,242284,5,0
88,208,242511,1,8
104,96,242966,1,12
48,96,243194,1,0
160,96,243648,1,4
216,96,243875,6,0,B|344:96|344:96,1,120,4|4
440,96,244784,1,12
400,168,245125,1,0
480,168,245466,1,4
480,280,245920,5,0
424,280,246148,1,12
368,280,246375,1,0
424,280,246602,1,12
368,280,246830,1,0
312,280,247057,1,0
256,280,247284,1,12
256,168,247739,1,0
200,168,247966,5,0
312,168,248420,1,12
424,168,248875,1,0
368,168,249102,1,4
368,56,249557,1,0
368,112,249784,1,8
368,224,250239,6,12,L|288:224|288:224,1,60,4|0
256,240,250694,1,4
200,256,250921,2,0,L|112:256|112:256,1,60,0|4
88,272,251375,1,0
256,192,251603,12,0,252909
256,96,253420,5,8
256,208,253875,6,4,L|152:208|152:208,1,90,4|4
112,208,255012,1,0
112,208,255239,1,2
128,256,255694,1,4
160,336,256375,2,0,L|264:336|264:336,1,90,4|4
296,304,257512,6,4,L|408:304|408:304,1,90,4|4
424,264,258648,1,0
424,264,258875,1,2
384,224,259330,5,4
376,200,259557,1,2
368,176,259785,1,2
360,152,260012,1,4
352,128,260239,2,2,L|264:128|264:128,1,60,2|4
272,184,261148,6,4,L|176:184|176:184,1,90
128,248,262512,1,2
104,248,262739,1,0
80,248,262966,1,4
56,192,263421,1,2
32,192,263648,1,4
32,104,264330,6,4,L|104:104|104:104|104:104,1,60
176,104,265466,1,4
264,104,266148,6,0,L|312:104|312:104,1,30,2|4
352,104,266830,1,2
352,104,267057,1,4
408,104,267512,1,4
256,192,268194,12,0,272512
