osu file format v6

[General]
AudioFilename: Inoue Marina (Yoko Littner) - Pieces Of Sweet Stars (Video Edit Version).mp3
AudioLeadIn: 0
PreviewTime: 14751
Countdown: 0
SampleSet: Soft
StackLeniency: 0.7
Mode: 0
LetterboxInBreaks: 1
SkinPreference:Default

[Editor]
Bookmarks: 14784,30239,37512,51603,58194,65694,97512,112057,126148,132739,140239,172057
DistanceSpacing: 0.899999976158142
BeatDivisor: 4
GridSize: 8

[Metadata]
Title:Pieces of Sweet Stars
Artist:Inoue Marina
Creator:whymeman
Version:Sweet Stars
Source:Gurren Lagann
Tags:Tengen Toppa Gurren Lagann Kirameki Yoko Box Pieces of sweet stars star Azure Kyte blissfulyoshi NachoPiggy ztrot rust45 x3ns0r alvisto Mystearica GAINAX Inoue Marina

[Difficulty]
HPDrainRate:1
CircleSize:3
OverallDifficulty:3
SliderMultiplier:0.8
SliderTickRate:1

[Events]
//Background and Video events
0,0,"[Sweet Stars].jpg"
Video,0,"Pieces Of Sweet Stars.avi"
//Break Periods
2,30439,36072
2,58394,64254
2,97712,110617
2,132939,138799
//Storyboard Layer 0 (Background)
Sprite,Background,Centre,"Tinting Processor (Light Filter) v.1.0\Active Tint\Tinting.PNG",320,240 F,0,0,172057,0.936 M,0,0,172285,320,240 F,0,172057,172285,0.936,0 M,0,172285,,320,240 F,0,172285,,0
//Storyboard Layer 1 (Fail)
//Storyboard Layer 2 (Pass)
//Storyboard Layer 3 (Foreground)
//Storyboard Sound Samples
//Background Colour Transformations
3,100,255,213,255

[TimingPoints]
14785,454.545454545455,4,2,0,80,1,0
22739,-100,4,1,0,80,0,0
51603,-100,4,2,0,80,0,0
62967,-100,4,1,0,80,0,0
66603,-100,4,1,0,80,0,1
97513,-100,4,1,0,80,0,0
126150,-100,4,2,0,80,0,0
137513,-100,4,1,0,80,0,0
141150,-100,4,1,0,80,0,1
172059,-100,4,1,0,80,0,0

[Colours]
Combo1 : 193,193,193
Combo2 : 255,111,111
Combo3 : 254,208,24
Combo4 : 0,99,147
Combo5 : 255,197,168

[HitObjects]
384,48,14785,1,2
312,48,15239,1,2
240,48,15694,2,4,B|112:48,1,120,4|4
120,120,16830,5,0
120,120,17057,1,2
192,120,17512,1,2
296,120,18194,1,2
400,120,18875,5,2
400,192,19330,2,4,C|288:192|288:192,1,120
208,192,20466,5,0
208,192,20694,1,2
136,192,21148,1,2
136,296,21830,1,2
240,296,22512,5,2
312,296,22966,1,4
384,296,23421,1,4
456,296,23875,1,4
456,224,24330,5,0
456,152,24785,1,0
384,152,25239,1,0
384,152,25466,1,0
384,48,26148,6,0,B|296:48|296:48,1,80,0|0
192,48,27285,1,0
80,48,27966,1,0
80,120,28421,5,4
224,120,29330,1,4
296,120,29785,1,8
368,120,30239,1,4
288,216,37512,5,4
216,216,37966,1,0
216,144,38421,1,0
288,144,38875,1,8
360,144,39330,1,0
360,256,40012,1,0
248,256,40694,1,8
176,256,41148,5,0
104,256,41603,1,0
104,256,41830,1,8
104,144,42512,1,8
176,144,42966,5,0
248,144,43421,1,0
320,144,43875,1,0
392,144,44330,1,8
392,216,44784,5,4
280,216,45466,1,0
208,216,45921,1,0
208,216,46148,1,8
208,288,46603,2,0,B|336:288|336:288,1,120
432,288,47966,1,0
432,216,48421,5,0
432,104,49103,1,0
360,104,49557,1,0
360,104,49784,1,8
288,104,50239,1,0
176,104,50921,1,4
176,280,52057,6,2,B|56:280|56:280|64:280,1,120,6|2
56,208,53194,1,0
56,208,53421,1,2
56,136,53875,2,2,B|184:136|184:136|184:136,1,120
280,136,55239,5,2
280,208,55694,2,2,B|152:208|152:208,2,120
352,208,57512,1,2
352,136,57966,1,0
352,136,58194,1,2
88,176,65694,5,0
88,104,66148,1,0
160,104,66603,2,0,B|288:104|288:104,1,120,4|4
352,104,67739,5,0
352,104,67966,1,8
424,104,68421,1,8
424,104,68648,1,0
408,176,69103,1,0
408,176,69330,1,12
384,248,69784,5,8
368,320,70239,2,0,B|456:320|456:320,2,80,4|0|4
328,320,71375,5,0
296,320,71603,1,8
224,320,72057,1,8
224,320,72284,1,4
224,248,72739,1,0
224,248,72966,5,4
296,248,73421,1,4
296,176,73875,2,0,C|360:176|360:176,2,60,4|0|4
248,120,75012,5,0
248,120,75239,1,8
200,64,75694,1,8
200,64,75921,1,0
128,64,76375,1,0
128,64,76603,1,8
56,64,77057,5,8
56,136,77512,2,0,B|184:136|184:136,1,120
200,200,78648,1,0
200,200,78875,1,8
224,264,79330,1,12
248,328,79784,1,8
320,328,80239,6,0,B|408:328|408:328,1,80,4|0
472,328,81148,1,12
472,216,81830,1,4
416,168,82284,5,0
416,168,82512,1,8
360,120,82966,1,8
288,120,83421,1,0
288,120,83648,1,8
288,48,84103,5,0
288,48,84330,1,0
216,48,84784,1,12
104,48,85466,1,4
128,112,85921,5,0
128,112,86148,1,8
152,176,86603,1,12
152,176,86830,1,0
176,240,87284,1,0
176,240,87512,5,12
248,240,87966,1,12
320,240,88421,2,0,C|384:240|384:240,2,60,4|0|4
320,168,89557,5,0
320,168,89784,1,8
248,168,90239,1,8
176,168,90694,1,0
176,168,90921,1,8
176,56,91603,5,0
104,56,92057,1,4
104,168,92739,1,0
104,272,93421,1,0
176,272,93875,5,4
248,272,94330,1,0
320,272,94785,1,4
392,272,95239,1,0
256,192,95694,12,4,97512
40,48,112057,5,4
40,120,112512,1,0
112,120,112966,2,0,B|280:120|288:120,1,160
344,40,114557,1,0
416,120,115239,1,8
472,168,115694,5,0
472,240,116148,1,0
472,240,116375,1,0
400,240,116830,1,0
400,240,117057,1,8
328,240,117512,6,0,B|240:240|240:240,2,80,0|0|4
176,240,119330,5,4
64,240,120012,1,0
120,336,120694,1,8
192,336,121148,2,0,B|320:336|320:336,1,120
416,336,122512,1,8
384,272,122966,5,0
336,176,123648,1,8
264,176,124103,1,0
264,176,124330,1,8
264,104,124785,1,4
152,104,125466,1,4
336,104,126603,6,2,B|464:104|464:104|456:104,2,120,6|2|2
336,176,128421,2,6,B|216:176|216:176|224:176,1,120
104,176,129785,5,6
104,248,130239,2,2,B|232:248|232:248,2,120,6|2|2
104,320,132057,1,2
208,320,132739,1,2
432,64,140239,5,0
432,64,140466,1,0
432,64,140694,1,0
360,64,141148,2,4,B|232:64|232:64,1,120
240,136,142285,5,0
240,136,142512,1,8
312,136,142966,1,8
312,136,143194,1,0
384,136,143648,1,0
384,136,143875,1,12
384,208,144330,5,8
312,208,144785,2,0,B|224:208|224:208,2,80,4|0|4
304,240,145921,5,0
296,272,146148,1,8
272,344,146603,1,8
272,344,146830,1,0
200,344,147284,1,4
168,344,147512,5,0
136,344,147739,1,0
104,344,147966,1,4
88,272,148421,2,0,C|24:272|24:272,2,60,4|0|4
80,200,149557,5,0
80,200,149784,1,8
72,128,150239,1,8
72,128,150466,1,0
64,56,150921,1,0
64,56,151148,1,8
136,56,151603,5,8
144,128,152057,2,0,B|272:128|272:128,1,120,0|4
264,56,153194,1,0
264,56,153421,1,8
336,56,153875,1,12
408,56,154330,1,12
408,128,154784,6,4,B|320:128|320:128,1,80,4|4
328,200,155694,2,4,B|456:200,1,120,4|4
448,272,156830,5,0
448,272,157057,1,8
376,288,157512,1,12
344,296,157739,1,0
312,304,157966,1,8
280,312,158194,1,4
208,312,158648,5,0
208,312,158875,1,0
136,312,159330,1,12
136,256,159671,1,0
136,200,160012,1,4
136,128,160466,5,0
136,128,160694,1,12
208,128,161148,1,8
208,128,161375,1,4
280,128,161830,1,0
288,160,162057,5,12
296,192,162284,1,0
304,224,162512,1,8
320,288,162966,2,0,C|256:288,2,60,4|0|4
392,288,164103,5,0
392,288,164330,1,12
392,216,164784,1,12
392,144,165239,1,8
392,144,165466,1,4
280,144,166148,5,0
280,144,166375,1,0
280,144,166603,1,8
280,72,167057,1,8
280,72,167284,1,0
208,72,167739,2,0,B|160:72,1,40,0|12
256,192,168421,12,4,172057
