osu file format v9

[General]
AudioFilename: mp3.mp3
AudioLeadIn: 0
PreviewTime: 55699
Countdown: 0
SampleSet: Soft
StackLeniency: 0.7
Mode: 0
LetterboxInBreaks: 1

[Editor]
DistanceSpacing: 0.8
BeatDivisor: 4
GridSize: 8

[Metadata]
Title:Egao no dessan (TV size)
Artist:Inoue Marina , Kanae Itou
Creator:SuzumiyaSama
Version:Normal
Source:boku wa tomodachi ga sukunai
Tags:Inoue Marina , Kanae Itou Egao no dessan boku wa tomodachi ga sukunai

[Difficulty]
HPDrainRate:2
CircleSize:4
OverallDifficulty:2
ApproachRate:3
SliderMultiplier:1.2
SliderTickRate:1

[Events]
//Background and Video events
Video,0,"avi.avi"
0,0,"3.jpg"
//Break Periods
//Storyboard Layer 0 (Background)
//Storyboard Layer 1 (Fail)
//Storyboard Layer 2 (Pass)
//Storyboard Layer 3 (Foreground)
//Storyboard Sound Samples
//Background Colour Transformations
3,100,163,162,255

[TimingPoints]
8732,491.803278688525,4,2,0,60,1,0
8732,-100,4,1,0,40,0,0
10453,-100,4,2,0,60,0,0
12666,-100,4,1,0,40,0,0
14387,-100,4,2,0,60,0,0
16600,-100,4,2,0,50,0,0
17584,-100,4,2,0,70,0,0
18568,-100,4,2,0,50,0,0
19551,-100,4,2,0,70,0,0
20535,-100,4,2,0,60,0,0
52010,-100,4,2,0,70,0,0
52994,-100,4,2,0,80,0,0
53977,-100,4,2,0,90,0,0
55945,-100,4,2,0,75,0,1
79059,-100,4,2,0,75,0,0

[Colours]
Combo1 : 255,183,111
Combo2 : 129,252,129
Combo3 : 167,254,241
Combo4 : 240,95,252
Combo5 : 255,113,113

[HitObjects]
416,152,8731,1,0
352,224,9223,1,0
288,288,9715,2,0,B|248:336|168:336,1,120
152,248,10699,1,2
104,168,11191,1,2
128,72,11682,2,0,B|192:72,1,60
232,88,12174,1,4
328,112,12666,5,0
408,160,13158,1,0
320,200,13650,2,0,B|368:240|368:312,1,120
272,304,14633,1,2
184,264,15125,1,2
104,208,15617,2,2,B|72:152,1,60
128,176,16109,2,2,B|128:112,1,60
160,152,16600,6,0,B|184:80|232:48|320:64,1,200,2|0
344,72,17584,38,0,B|424:100|449:152|434:226,1,200,2|0
424,256,18568,54,0,B|360:280|272:280|216:248,1,200,2|0
200,256,19551,54,0,B|136:279|48:279|4:254,1,200,2|0
16,224,20535,54,2,B|40:208|40:128|64:112,3,120
136,56,22502,2,2,B|200:56|256:80,1,120
256,176,23486,2,2,B|311:208|347:256,1,120
256,296,24469,1,4
184,240,24961,22,0,B|184:176|144:128,1,120
208,56,25945,1,2
256,56,26191,1,2
304,56,26436,1,2
367,129,26928,6,0,B|328:176|328:240,1,120
304,336,27912,1,2
256,336,28158,1,2
208,336,28403,1,2
144,264,28895,21,0
48,288,29387,1,0
80,200,29879,2,0,B|80:72,2,120
144,264,31354,1,4
320,192,32338,54,0,B|384:192,2,60
256,264,33322,2,0,B|256:328,2,60
160,256,34305,2,2,B|96:232|40:256,2,120
160,112,36027,21,8
200,80,36272,2,2,B|232:88|256:104,1,60
280,64,36764,2,2,B|303:87|316:113,1,60
360,88,37256,2,0,B|369:119|367:148,2,60
400,64,37994,1,0
448,72,38240,2,0,B|480:128|480:192,2,120,2|0|4
392,152,39715,6,0,B|304:272|160:144|64:296,1,360
120,296,41436,1,2
168,312,41682,1,2
216,296,41928,1,2
264,312,42174,2,0,B|320:328|384:312,3,120,2|0|0|0
416,224,44141,6,0,B|440:168|432:104,1,120
344,64,45125,1,8
248,80,45617,1,8
288,168,46109,2,0,B|312:224|304:288,2,120
240,168,47338,5,2
224,120,47584,1,2
208,72,47830,1,2
192,24,48076,2,0,B|72:24,2,120,4|0|4
320,96,49797,21,2
336,144,50043,1,2
352,192,50289,1,2
368,240,50535,2,0,B|488:240,2,120,4|0|4
344,280,51764,5,2
296,304,52010,2,0,B|240:288|176:304,1,120
128,216,52994,2,0,B|190:200|246:216,1,120
216,128,53977,2,0,B|160:112|96:128,3,120
64,216,55945,21,8
144,264,56436,1,8
232,304,56928,1,8
328,328,57420,1,8
424,304,57912,2,0,B|432:240|416:184,2,120,8|0|6
328,328,59387,38,2,B|208:328,1,120
248,240,60371,2,2,B|368:240,1,120
448,192,61354,2,0,B|516:192,2,60
368,136,62338,1,2
280,176,62830,1,2
360,224,63322,1,4
280,280,63813,54,0,B|224:320|160:320,1,120
192,224,64797,1,8
104,256,65289,1,8
48,184,65781,2,0,B|17:123|41:67,1,120
136,48,66764,1,4
224,80,67256,38,0,B|256:72|288:80,2,60
224,176,68240,1,2
168,256,68732,1,2
264,264,69223,1,2
344,312,69715,2,4,B|434:312,2,90,4|0|4
400,232,70945,5,8
400,184,71191,1,8
400,136,71436,1,8
400,88,71682,2,2,B|336:88,1,60
304,56,72174,2,2,B|256:104,1,60
224,72,72666,2,0,B|104:72,1,120,2|4
120,168,73650,5,8
120,168,73895,1,8
160,200,74141,1,8
160,200,74387,1,8
200,224,74633,2,0,B|224:280|208:344,1,120,2|4
288,288,75617,6,2,B|344:264|408:288,1,120
440,200,76600,2,0,B|384:176|320:200,1,120,2|4
256,192,77584,12,4,79059
