osu file format v9

[General]
AudioFilename: mp3.mp3
AudioLeadIn: 0
PreviewTime: 55699
Countdown: 0
SampleSet: Soft
StackLeniency: 0.4
Mode: 0
LetterboxInBreaks: 1

[Editor]
Bookmarks: 8692
DistanceSpacing: 1
BeatDivisor: 4
GridSize: 8

[Metadata]
Title:Egao no dessan (TV size)
Artist:Inoue Marina , Kanae Itou
Creator:SuzumiyaSama
Version:Insane
Source:boku wa tomodachi ga sukunai
Tags:Inoue Marina , Kanae Itou Egao no dessan boku wa tomodachi ga sukunai

[Difficulty]
HPDrainRate:7
CircleSize:5
OverallDifficulty:7
ApproachRate:8
SliderMultiplier:1.8
SliderTickRate:1

[Events]
//Background and Video events
Video,0,"avi.avi"
0,0,"1.jpg"
//Break Periods
2,70653,70932
//Storyboard Layer 0 (Background)
//Storyboard Layer 1 (Fail)
//Storyboard Layer 2 (Pass)
//Storyboard Layer 3 (Foreground)
//Storyboard Sound Samples
//Background Colour Transformations
3,100,163,162,255

[TimingPoints]
8732,491.803278688525,4,2,0,60,1,0
8732,-100,4,1,0,40,0,0
10699,-100,4,2,0,50,0,0
12666,-100,4,1,0,40,0,0
14633,-100,4,2,0,40,0,0
15125,-100,4,2,0,60,0,0
15617,-100,4,2,0,80,0,0
16109,-100,4,2,0,100,0,0
16600,-100,4,2,0,60,0,0
20535,-100,4,2,0,60,0,0
32092,-100,4,2,0,60,0,0
39715,-133.333333333333,4,2,0,60,0,0
41191,-100,4,2,0,60,0,0
48076,-200,4,2,0,60,0,0
55699,-100,4,2,0,60,0,1
60125,-100,4,2,0,60,0,1
62830,-200,4,2,0,60,0,1
63322,-100,4,2,0,60,0,1
67010,-200,4,2,0,60,0,1
67502,-100,4,2,0,60,0,1
79305,-100,4,2,0,60,0,0

[Colours]
Combo1 : 255,183,111
Combo2 : 129,252,129
Combo3 : 167,254,241
Combo4 : 240,95,252
Combo5 : 255,113,113

[HitObjects]
56,192,8732,1,0
152,232,8978,1,0
256,224,9224,1,0
256,224,9346,1,0
256,224,9469,1,0
360,240,9715,2,0,B|448:240,2,90,0|0|8
200,96,10699,21,2
96,120,10945,1,2
160,208,11191,2,0,B|70:208,1,90
120,304,11683,1,2
120,304,11805,1,2
120,304,11928,1,2
224,272,12175,2,0,B|314:272,1,90,0|4
416,240,12666,53,0
360,144,12912,1,0
256,112,13158,1,0
256,112,13281,1,0
256,112,13404,1,0
152,80,13650,2,0,B|168:32|216:16,2,90,0|0|8
72,152,14387,1,4
96,256,14633,38,0,B|64:296|64:344,1,90,0|2
168,320,15125,2,0,B|216:320|256:296,1,90,0|2
232,192,15617,2,0,B|224:147|190:112,1,90,0|2
88,136,16109,2,0,B|64:200|88:240,1,90,0|2
176,280,16600,37,0
216,264,16723,1,0
256,256,16846,1,2
296,264,16969,1,0
336,280,17092,1,2
432,336,17338,1,2
456,232,17584,37,0
450,190,17707,1,0
437,151,17830,1,0
410,121,17953,1,0
376,94,18076,1,2
272,56,18322,1,4
184,120,18568,53,2
184,120,18691,1,2
200,160,18813,1,2
200,160,18936,1,2
184,200,19059,1,2
200,304,19305,1,8
96,320,19551,53,2
96,320,19674,1,2
80,280,19796,1,2
80,280,19919,1,0
96,240,20042,1,2
64,136,20289,1,8
64,136,20535,54,0,B|112:56,1,90
200,112,21027,1,2
200,112,21150,1,0
200,112,21273,1,2
224,216,21518,2,0,B|320:216,1,90
224,216,22010,1,2
224,216,22133,1,0
224,216,22256,1,2
32,192,22502,53,0
64,176,22625,1,0
96,192,22748,1,0
120,216,22871,1,0
144,192,22994,1,2
176,176,23117,1,0
208,192,23240,1,0
240,208,23363,1,0
272,192,23486,53,0
304,176,23609,1,0
336,192,23732,1,0
368,208,23855,1,0
400,192,23978,1,2
432,176,24101,1,0
464,192,24224,1,0
464,88,24470,1,4
256,40,24961,54,0,B|168:48|136:104,1,135
139,98,25453,1,2
192,192,25699,1,2
192,192,25822,1,0
192,192,25945,1,2
96,248,26191,1,6
416,192,26929,6,0,B|408:104|352:72,1,135
357,75,27420,1,2
312,168,27667,1,2
312,168,27790,1,0
312,168,27913,1,2
248,256,28159,1,12
40,192,28650,21,0
72,88,28896,2,0,B|160:120,1,90
224,32,29388,2,0,B|288:104,1,90
432,168,29880,1,2
400,208,30002,1,0
368,248,30125,1,2
304,160,30371,21,0
272,200,30493,1,2
240,240,30616,1,2
200,80,30863,1,8
128,160,31109,2,0,B|104:200|120:248,2,90
200,80,31846,1,4
256,288,32339,22,0,B|296:328|328:344|376:352,1,135
372,351,32830,1,0
448,272,33076,2,0,B|440:224|416:184,1,90
408,80,33568,1,2
408,80,33691,1,0
408,80,33814,2,2,B|352:96|328:136,1,90,0|0
224,112,34306,37,8
256,216,34552,2,0,B|232:304,1,90
144,240,35043,1,2
144,240,35166,1,0
144,240,35289,1,2
32,240,35535,1,4
32,128,35781,2,0,B|58:94|106:78,1,90
216,80,36273,5,0
128,144,36519,1,2
184,232,36764,1,0
272,168,37010,1,2
296,272,37257,2,0,B|344:272|376:232,1,90
416,136,37748,2,0,B|464:152|472:208,1,90,0|0
256,192,38240,12,4,39224
152,96,39716,54,0,B|80:96|24:192|24:192|80:288|168:288,1,337.499989941716
352,192,41437,21,2
288,104,41683,1,2
200,168,41929,2,0,B|216:256,1,90,0|2
320,248,42420,2,0,B|368:328,1,90,2|0
464,272,42912,2,0,B|485:183|453:95,1,180,0|4
256,192,43896,5,2
256,192,44142,1,2
168,248,44388,1,0
168,248,44510,1,0
168,248,44634,1,0
160,144,44880,1,2
160,144,45125,1,0
200,48,45371,1,0
200,48,45494,1,0
200,48,45617,1,2
280,120,45863,21,8
232,216,46109,1,0
248,232,46232,1,0
264,248,46354,1,0
280,264,46477,1,0
296,280,46600,1,0
312,296,46723,1,0
328,312,46846,1,0
344,328,46969,1,0
360,344,47092,1,4
376,240,47339,21,8
440,152,47585,1,8
360,80,47830,1,8
304,80,48076,2,2,B|263:91|231:131,1,90
136,192,49060,1,4
256,304,49798,54,0,B|296:336|344:344,1,90
392,336,50535,1,2
432,232,51027,1,4
384,80,51765,5,2
384,80,51888,1,2
384,80,52010,1,2
304,104,52257,2,0,B|256:112,1,45
176,96,52748,1,4
128,160,52994,2,0,B|80:168,1,45
80,248,53486,1,2
40,320,53732,1,4
120,336,53978,21,0
152,320,54101,1,0
168,288,54224,1,0
184,256,54347,1,0
216,240,54470,1,2
248,224,54593,1,0
264,192,54716,53,0
280,160,54839,1,0
312,144,54961,1,0
344,128,55084,1,0
360,96,55207,1,0
376,64,55330,1,0
408,48,55453,1,6
448,264,55945,53,2
344,304,56191,1,2
240,280,56437,2,0,B|200:264|176:216,1,90
96,144,56929,1,2
168,64,57175,1,2
272,48,57421,2,0,B|312:64|336:112,1,90,2|0
376,200,57912,53,8
272,192,58158,1,8
320,288,58404,1,8
216,272,58650,2,0,B|216:368,1,90,0|4
360,200,59388,53,2
360,200,59511,1,0
360,200,59634,1,0
304,88,59880,1,0
304,88,60125,1,8
208,128,60371,21,2
208,128,60494,1,0
208,128,60617,2,0,B|176:216,2,90,0|0|4
256,264,61355,1,2
392,232,61601,1,0
440,96,61847,5,2
320,24,62093,1,2
176,56,62339,1,0
56,128,62584,1,8
56,128,62830,2,0,B|72:176|72:176|56:224,1,90,0|4
256,304,63814,53,0
256,304,64060,1,0
360,264,64306,1,2
360,264,64552,1,2
328,160,64798,1,0
328,160,65043,1,0
432,128,65289,1,2
432,128,65535,1,2
344,64,65781,21,0
264,128,66027,1,0
160,136,66273,1,0
96,224,66519,1,2
96,224,66642,1,0
208,304,67257,22,0,B|248:336,1,45
352,328,67748,1,12
408,120,68240,1,2
352,328,68732,1,10
408,120,69224,1,12
192,128,69716,37,2
96,264,70084,1,4
256,272,70453,1,4
256,80,71682,53,0
352,232,71928,1,2
184,168,72174,1,0
360,120,72420,1,2
240,256,72666,1,0
240,256,72789,1,0
240,256,72912,1,0
240,256,73035,1,0
240,256,73158,1,4
256,112,73650,21,0
256,184,73896,1,0
320,224,74142,1,2
352,224,74265,1,2
376,152,74511,2,0,B|424:136|488:152,2,112.5,4|0|4
256,304,75617,53,0
160,152,75863,1,2
328,216,76109,1,2
152,264,76355,1,2
272,128,76601,1,0
272,128,76724,1,0
272,128,76847,1,0
272,128,76970,1,0
272,128,77093,1,6
256,272,77584,37,0
256,200,77830,1,0
192,160,78076,1,2
192,128,78199,1,2
256,192,78445,12,12,79060
