osu file format v9

[General]
AudioFilename: mp3.mp3
AudioLeadIn: 0
PreviewTime: 55699
Countdown: 0
SampleSet: Soft
StackLeniency: 0.7
Mode: 0
LetterboxInBreaks: 1

[Editor]
Bookmarks: 8731
DistanceSpacing: 1.3
BeatDivisor: 4
GridSize: 8

[Metadata]
Title:Egao no dessan (TV size)
Artist:Inoue Marina , Kanae Itou
Creator:SuzumiyaSama
Version:Hard
Source:boku wa tomodachi ga sukunai
Tags:Inoue Marina , Kanae Itou Egao no dessan boku wa tomodachi ga sukunai

[Difficulty]
HPDrainRate:6
CircleSize:4
OverallDifficulty:8
ApproachRate:5
SliderMultiplier:1.6
SliderTickRate:2

[Events]
//Background and Video events
Video,0,"avi.avi"
0,0,"2.jpg"
//Break Periods
2,38439,38516
//Storyboard Layer 0 (Background)
//Storyboard Layer 1 (Fail)
//Storyboard Layer 2 (Pass)
//Storyboard Layer 3 (Foreground)
//Storyboard Sound Samples
//Background Colour Transformations
3,100,163,162,255

[TimingPoints]
8732,491.803278688525,4,2,0,60,1,0
8732,-100,4,1,0,40,0,0
10699,-100,4,2,0,60,0,0
12666,-100,4,1,0,40,0,0
14633,-100,4,2,0,60,0,0
16600,-133.333333333333,4,2,0,60,0,0
20535,-100,4,2,0,60,0,0
22871,-100,4,2,0,50,0,0
23363,-100,4,2,0,60,0,0
24346,-100,4,2,0,80,0,0
24961,-100,4,2,0,60,0,0
39715,-200,4,2,0,60,0,0
41191,-100,4,2,0,60,0,0
55699,-100,4,2,0,75,0,1
76600,-100,4,2,0,75,0,1
79059,-100,4,2,0,75,0,0

[Colours]
Combo1 : 255,183,111
Combo2 : 129,252,129
Combo3 : 167,254,241
Combo4 : 240,95,252
Combo5 : 255,113,113

[HitObjects]
256,48,8732,1,0
160,88,8978,1,0
80,152,9224,1,0
32,248,9470,1,0
128,296,9716,2,0,B|208:288|288:320,1,160,0|8
408,152,10699,22,0,B|440:112|424:56,1,80
328,88,11191,1,2
328,88,11437,1,2
224,112,11683,2,0,B|208:192,1,80
112,152,12175,2,0,B|96:240,1,80,0|4
136,328,12666,53,0
232,296,12912,1,0
320,240,13158,1,0
392,160,13404,1,0
440,64,13650,2,0,B|360:56|280:88,1,160,0|8
96,176,14634,22,2,B|152:232,1,80
248,192,15125,2,2,B|320:224,1,80
344,120,15617,2,4,B|424:120,3,80,4|0|0|4
440,200,16600,54,0,B|296:344,1,199.999994039536,2|0
248,344,17584,38,0,B|128:344|112:224,1,199.999994039536,2|0
112,176,18568,54,0,B|312:176,1,199.999994039536,2|0
360,176,19551,54,0,B|344:58|224:58,1,199.999994039536,2|0
176,112,20535,54,2,B|104:72,3,80,2|0|0|0
112,176,21518,2,2,B|40:216,3,80,2|0|2|0
128,272,22502,1,0
128,272,22748,1,0
200,192,22994,1,8
200,192,23117,1,8
200,192,23240,1,8
288,248,23486,53,0
288,248,23732,1,0
352,168,23977,1,8
352,168,24100,1,8
352,168,24223,1,8
440,232,24469,1,4
416,328,24961,38,0,B|344:280|296:280,1,120
256,280,25453,1,2
160,248,25699,1,2
72,296,25945,1,2
56,192,26191,1,8
328,352,26928,6,0,B|376:280|376:232,1,120
376,192,27420,1,2
408,96,27666,1,0
360,8,27912,1,2
296,88,28158,1,4
104,160,28650,22,2,B|72:191|58:224,1,80
160,248,29142,1,0
248,304,29388,2,0,B|296:304|328:328,1,80
424,288,29880,1,2
424,288,30002,1,0
424,288,30125,1,2
344,224,30371,6,0,B|280:286|323:370,1,160
256,288,31109,1,8
168,232,31354,2,0,B|231:294|188:378,1,160,4|4
384,312,32339,6,0,B|328:344|264:312,1,120
224,288,32830,1,2
128,328,33076,1,0
88,232,33322,1,2
120,128,33568,1,0
208,64,33814,1,0
312,88,34060,1,0
392,160,34306,2,2,B|408:240|392:328,2,160,2|0|4
496,336,35781,21,2
392,320,36027,1,2
312,256,36273,2,0,B|216:296,1,80
136,280,36765,1,2
48,224,37011,1,2
48,120,37257,2,0,B|128:104,1,80
232,88,37748,2,0,B|264:160|264:248,1,160,2|4
104,56,39716,5,2
64,88,39961,1,2
96,128,40207,2,0,B|112:208|64:296,1,160,0|4
168,312,41437,5,8
272,280,41683,2,0,B|312:264|352:264,1,80
416,184,42175,22,0,B|376:168|336:168,1,80
272,88,42666,2,0,B|312:72|352:72,2,80,2|0|0
168,72,43404,1,4
88,144,43650,1,2
48,240,43896,22,0,B|72:272|112:288,2,80
144,192,44634,1,0
248,216,44880,2,0,B|256:168|232:136,1,80
320,80,45371,1,2
216,88,45617,1,2
144,160,45863,1,4
184,256,46109,5,0
216,296,46232,1,0
248,336,46355,2,0,B|328:336,3,80,8|0|0|4
400,256,47339,5,2
400,152,47584,2,0,B|352:152|320:176,1,80
232,128,48076,1,2
128,104,48322,1,2
48,176,48568,1,0
32,224,48691,1,0
16,272,48814,2,8,B|0:312|0:360,1,80,8|2
104,320,49306,2,0,B|184:320,1,80,2|4
288,312,49798,6,0,B|364:288|444:320,1,160
416,224,50535,2,0,B|416:192|448:152,1,80
368,88,51027,1,4
112,264,51765,5,2
112,264,51888,1,0
112,264,52011,1,2
144,160,52257,2,0,B|175:128|215:128,1,80,2|2
304,72,52748,1,8
408,72,52994,1,8
392,176,53240,2,0,B|424:248,1,80,2|2
320,248,53732,1,4
256,192,53978,12,4,55453
384,40,55945,5,0
304,232,56437,1,8
112,144,56929,2,8,B|232:32,1,160,0|8
432,88,57912,21,2
368,168,58158,1,0
352,272,58404,1,2
280,344,58650,1,6
160,56,59388,53,0
160,56,59511,1,0
160,56,59634,2,0,B|176:144,1,80,0|2
264,184,60125,1,8
376,192,60371,53,0
376,192,60494,1,0
376,192,60617,2,0,B|360:104,1,80,0|2
264,80,61109,1,4
160,56,61355,37,2
208,144,61601,1,2
136,224,61847,1,2
240,248,62093,1,2
344,264,62339,2,8,B|320:184,1,80
240,248,62830,2,0,B|184:192,2,80,0|0|4
392,112,63814,21,4
296,80,64060,1,0
192,104,64306,1,2
88,72,64552,1,0
120,168,64797,53,4
216,200,65043,1,0
320,176,65289,1,2
424,208,65535,1,0
344,272,65781,54,0,B|264:304,1,80
168,304,66273,1,8
80,240,66519,1,8
176,208,66765,1,4
328,64,67257,53,2
416,120,67502,1,2
320,160,67748,2,0,B|240:160,2,80,0|0|4
184,320,68732,1,10
384,248,69224,1,2
256,80,69716,21,8
128,152,70084,5,8
112,304,70453,5,12
448,208,71683,5,0
360,152,71929,1,0
272,200,72175,1,2
176,160,72420,1,0
136,64,72666,2,0,B|200:40|256:64,1,120,0|8
408,272,73650,5,0
312,232,73896,1,0
216,264,74142,1,0
216,264,74265,1,0
120,224,74511,2,0,B|101:114|209:44,1,200,0|4
368,176,75617,54,0,B|296:224,1,80
200,184,76109,2,0,B|272:136,1,80,2|0
184,80,76601,2,0,B|56:80,1,120,0|8
256,256,77584,21,0
256,256,77830,1,0
256,192,78076,12,4,79059
