osu file format v9

[General]
AudioFilename: mp3.mp3
AudioLeadIn: 0
PreviewTime: 55699
Countdown: 0
SampleSet: Soft
StackLeniency: 0.7
Mode: 0
LetterboxInBreaks: 1

[Editor]
Bookmarks: 8731,24921,55905
DistanceSpacing: 0.8
BeatDivisor: 4
GridSize: 8

[Metadata]
Title:Egao no dessan (TV size)
Artist:Inoue Marina , Kanae Itou
Creator:SuzumiyaSama
Version:Easy
Source:boku wa tomodachi ga sukunai
Tags:Inoue Marina , Kanae Itou Egao no dessan boku wa tomodachi ga sukunai

[Difficulty]
HPDrainRate:3
CircleSize:3
OverallDifficulty:1
ApproachRate:2
SliderMultiplier:1.2
SliderTickRate:1

[Events]
//Background and Video events
Video,0,"avi.avi"
0,0,"4.jpg"
//Break Periods
//Storyboard Layer 0 (Background)
//Storyboard Layer 1 (Fail)
//Storyboard Layer 2 (Pass)
//Storyboard Layer 3 (Foreground)
//Storyboard Sound Samples
//Background Colour Transformations
3,100,163,162,255

[TimingPoints]
8732,491.803278688525,4,2,0,50,1,0
8732,-100,4,1,0,40,0,0
10699,-100,4,2,0,60,0,0
12666,-100,4,1,0,40,0,0
14633,-100,4,2,0,60,0,0
16600,-100,4,2,0,60,0,0
17584,-100,4,2,0,60,0,0
18568,-100,4,2,0,70,0,0
19551,-100,4,2,0,80,0,0
39715,-200,4,2,0,60,0,0
41191,-100,4,2,0,60,0,0
55945,-100,4,2,0,80,0,1
79059,-100,4,2,0,80,0,0

[Colours]
Combo1 : 255,183,111
Combo2 : 129,252,129
Combo3 : 167,254,241
Combo4 : 240,95,252
Combo5 : 255,113,113

[HitObjects]
360,72,8732,2,0,B|392:128|392:192,1,120
344,272,9715,2,0,B|392:320,2,60
264,328,10699,1,2
168,304,11191,1,2
112,224,11682,1,2
96,128,12174,1,6
184,80,12666,6,0,B|240:48|304:48,1,120
384,96,13650,2,0,B|432:48,2,60
440,176,14634,1,2
416,272,15126,1,2
336,328,15617,1,2
240,344,16109,1,6
160,288,16600,6,0,B|80:200|80:96,1,200,8|0
96,80,17584,38,0,B|206:34|304:72,1,200,8|0
320,80,18568,54,0,B|400:168|400:264,1,200,8|0
368,272,19551,54,0,B|258:318|168:288,1,200,8|0
160,264,20535,54,2,B|136:240|136:208|136:176|104:160,3,120
168,88,22502,2,0,B|224:64|288:64,1,120
352,136,23486,1,0
400,224,23977,1,0
456,144,24469,1,6
352,136,24961,22,0,B|232:136,1,120,0|0
136,112,25945,1,2
112,208,26436,1,2
176,272,26928,2,0,B|296:272,1,120
368,336,27912,1,2
432,272,28404,1,2
360,208,28896,6,0,B|336:152|264:144,2,120
272,240,30371,1,2
184,200,30863,1,2
168,104,31355,1,2
240,40,31847,1,4
320,88,32339,6,0,B|384:88,2,60
288,176,33322,1,2
352,248,33814,1,2
256,264,34306,1,2
168,232,34798,2,0,B|168:168|208:120,2,120
144,328,36273,22,0,B|80:328|40:272,1,120
48,176,37257,2,0,B|48:112|104:72,1,120
192,48,38240,1,2
216,144,38732,1,2
200,240,39224,1,4
104,240,39715,6,0,B|72:120|96:56,1,180
184,32,41683,2,0,B|288:88,1,120
352,160,42666,1,8
392,248,43158,2,0,B|328:280|272:216,1,120
240,312,44142,37,2
160,256,44634,1,2
72,296,45125,1,2
72,200,45617,1,2
120,120,46109,2,4,B|184:104|224:24,1,120,4|4
352,80,47338,54,0,B|376:64|408:56,3,60
408,144,48568,1,8
376,232,49060,2,0,B|408:288,1,60
312,312,49797,2,0,B|248:312,3,60
232,216,51027,1,4
144,48,52011,22,2,B|80:152,1,120
176,152,52994,2,2,B|176:280,1,120
256,224,53978,2,4,B|320:344,3,120
376,256,55945,5,8
360,160,56437,1,8
296,88,56929,1,8
216,32,57420,1,8
120,40,57912,2,0,B|56:64|72:144,2,120,8|0|6
168,120,59388,6,0,B|232:120,2,60
168,216,60371,2,0,B|168:280,2,60
72,240,61355,1,2
88,336,61847,2,0,B|136:376|200:368,1,120
288,328,62830,2,0,B|376:247,1,120,0|4
280,248,63814,37,2
320,160,64306,1,2
256,88,64798,1,2
320,16,65289,1,2
400,64,65781,2,0,B|464:168|464:296,1,240,0|4
368,304,67257,38,0,B|312:320,2,60
320,224,68240,2,0,B|200:224,1,120
168,136,69223,1,2
248,80,69715,2,8,B|344:80,2,90
200,312,71683,5,2
136,240,72175,1,2
184,160,72666,1,2
104,104,73158,1,2
184,48,73650,2,0,B|304:48,3,120,0|0|0|4
328,144,75617,5,2
400,208,76109,1,2
328,272,76600,1,2
400,328,77092,1,2
256,192,77584,12,4,79059
