osu file format v12

[General]
AudioFilename: glimmer.mp3
AudioLeadIn: 0
PreviewTime: 47054
Countdown: 1
SampleSet: Soft
StackLeniency: 0.7
Mode: 0
LetterboxInBreaks: 1
WidescreenStoryboard: 1

[Editor]
Bookmarks: 4622,45410,53835
DistanceSpacing: 1
BeatDivisor: 4
GridSize: 4

[Metadata]
Title:Glimmer (TV Size)
TitleUnicode:Glimmer (TV Size)
Artist:Inory
ArtistUnicode:祈Inory
Creator:iPhone
Version:Hard
Source:Nano Core
Tags:纳米核心 祈
BeatmapID:375064
BeatmapSetID:152142

[Difficulty]
HPDrainRate:5
CircleSize:3
OverallDifficulty:6
ApproachRate:8
SliderMultiplier:1.5
SliderTickRate:1

[Events]
//Background and Video events
Video,0,"glimmer.flv"
0,0,"NanoCore_720p.jpg",0,0
//Break Periods
//Storyboard Layer 0 (Background)
//Storyboard Layer 1 (Fail)
//Storyboard Layer 2 (Pass)
//Storyboard Layer 3 (Foreground)
//Storyboard Sound Samples
//Background Colour Transformations
3,100,163,162,255

[TimingPoints]
205,410.958904109589,4,1,0,100,1,0
1027,-100,4,2,0,20,0,0
1232,-100,4,2,0,30,0,0
1437,-100,4,2,0,40,0,0
1643,-100,4,2,0,50,0,0
3903,-100,4,2,0,30,0,0
4931,-100,4,1,1,50,0,0
5547,-100,4,2,0,50,0,0
6574,-100,4,1,1,50,0,0
20752,-66.6666666666667,4,2,0,50,0,0
21985,-100,4,1,1,50,0,0
26095,-100,4,1,1,50,0,0
31026,-100,4,1,1,50,0,0
31232,-100,4,1,1,50,0,0
31437,-100,4,1,1,50,0,0
32670,-100,4,1,1,50,0,0
32876,-100,4,1,1,50,0,0
47054,-133.333333333333,4,1,1,50,0,0
47876,-66.6666666666667,4,1,1,50,0,1
53835,-100,4,1,1,50,0,1
54451,-66.6666666666667,4,1,1,50,0,1
61026,-100,4,1,1,40,0,0
70787,-66.6666666666667,4,1,1,50,0,0
72533,-133.333333333333,4,1,1,50,0,0
73355,-66.6666666666667,4,1,1,50,0,0
74177,-66.6666666666667,4,1,1,50,0,1
95547,-66.6666666666667,4,2,0,5,0,0

[HitObjects]
256,192,615,12,4,1848,0:0:0:0:
256,192,3492,12,0,4725,0:0:0:0:
256,192,4931,5,4,0:0:0:0:
256,192,5136,5,4,0:0:0:0:
256,192,5341,12,4,6574,0:0:0:0:
152,120,6780,5,0,0:0:0:0:
356,120,7088,5,0,0:0:0:0:
180,192,7396,5,0,0:0:0:0:
320,192,7705,5,0,0:0:0:0:
256,284,8013,2,0,L|256:220,3,37.5,8|0|0|0,0:0|0:0|0:0|0:0,0:0:0:0:
256,208,8424,5,6,0:0:0:0:
208,132,8629,2,0,P|172:152|156:168,2,37.5,0|0|8,0:0|0:0|0:0,0:0:0:0:
264,60,9040,2,0,P|297:81|320:112,1,75,2|8,0:0|0:0,0:0:0:0:
324,200,9451,2,0,L|324:252,1,37.5
188,236,9862,2,0,L|188:168,2,37.5,0|0|10,0:0|0:0|0:0,0:0:0:0:
184,328,10273,5,0,0:0:0:0:
120,264,10478,1,8,0:0:0:0:
140,176,10684,1,2,0:0:0:0:
112,92,10889,2,0,L|160:92,2,37.5,8|0|0,0:0|0:0|0:0,0:0:0:0:
188,44,11300,1,10,0:0:0:0:
324,340,11711,5,6,0:0:0:0:
368,260,11917,2,0,P|392:268|408:280,2,37.5,0|0|8,0:0|0:0|0:0,0:0:0:0:
332,176,12328,1,2,0:0:0:0:
376,96,12533,1,8,0:0:0:0:
284,100,12739,2,0,L|272:56,1,37.5
224,184,13150,2,0,L|236:240,2,37.5,0|0|8,0:0|0:0|0:0,0:0:0:0:
224,100,13561,6,0,P|280:140|296:184,1,112.5
328,308,14177,1,0,0:0:0:0:
192,308,14485,1,0,0:0:0:0:
256,188,14794,6,0,L|256:148|256:80,1,75,0|6,0:0|0:0,0:0:0:0:
340,124,15204,2,0,P|356:84|364:72,2,37.5,0|0|8,0:0|0:0|0:0,0:0:0:0:
400,184,15615,2,0,L|440:168,1,37.5,2|0,0:0|0:0,0:0:0:0:
340,264,16026,2,0,L|376:280,2,37.5,0|0|8,0:0|0:0|0:0,0:0:0:0:
264,228,16437,1,0,0:0:0:0:
208,160,16643,5,10,0:0:0:0:
124,188,16848,1,0,0:0:0:0:
204,316,17054,1,8,0:0:0:0:
292,332,17259,2,0,P|336:340|368:328,2,75,0|8|0,0:0|0:0|0:0,0:0:0:0:
292,180,17876,1,10,0:0:0:0:
292,180,18287,5,6,0:0:0:0:
416,236,18595,1,2,0:0:0:0:
404,100,18903,1,2,0:0:0:0:
376,184,19109,1,2,0:0:0:0:
324,256,19314,2,0,L|280:288,2,37.5,0|0|8,0:0|0:0|0:0,0:0:0:0:
236,280,19725,2,0,L|200:264,2,37.5,0|0|8,0:0|0:0|0:0,0:0:0:0:
172,216,20136,6,0,L|168:160,3,37.5,0|0|8|0,0:0|0:0|0:0|0:0,0:0:0:0:
256,192,20547,12,4,21574,0:0:0:0:
204,304,21985,6,0,P|264:288|320:212,1,150,0|8,0:0|0:0,0:0:0:0:
320,132,22602,1,0,0:0:0:0:
260,68,22807,1,8,0:0:0:0:
196,132,23013,2,0,P|244:144|268:144,2,40,0|0|8,0:0|0:0|0:0,0:0:0:0:
116,108,23424,2,0,P|164:56|192:40,1,75,0|8,0:0|0:0,0:0:0:0:
252,28,23835,1,0,0:0:0:0:
336,56,24040,2,0,P|384:112|348:200,1,150,8|8,0:0|0:0,0:0:0:0:
300,124,24657,6,0,P|296:168|292:188,2,37.5,0|0|8,0:0|0:0|0:0,0:0:0:0:
340,52,25068,1,0,0:0:0:0:
428,56,25273,2,0,L|472:104,1,37.5,8|0,0:0|0:0,0:0:0:0:
472,216,25684,2,0,P|452:268|424:292,1,75,8|0,0:0|0:0,0:0:0:0:
400,200,26095,2,0,P|428:148|460:136,1,75,8|0,0:0|0:0,0:0:0:0:
352,136,26506,5,8,0:0:0:0:
280,84,26711,2,0,P|200:64|124:184,1,225,0|8,0:0|0:0,0:0:0:0:
156,248,27533,2,0,B|168:284|168:300|160:320|152:336,1,75,0|8,0:0|0:0,0:0:0:0:
84,268,27944,6,0,P|80:300|88:328,2,37.5,0|0|4,0:0|0:0|0:0,0:0:0:0:
228,224,28355,1,0,0:0:0:0:
228,316,28561,1,8,0:0:0:0:
316,336,28766,2,0,L|372:340,1,37.5
308,212,29177,2,0,P|288:176|260:152,1,75,0|8,0:0|0:0,0:0:0:0:
196,184,29588,2,0,L|316:316,1,150
368,308,30204,1,0,0:0:0:0:
456,228,30410,2,0,L|456:188,1,37.5
336,128,30821,1,0,0:0:0:0:
256,88,31026,1,8,0:0:0:0:
176,48,31232,1,0,0:0:0:0:
112,84,31437,6,0,P|172:120|216:104,1,112.5,8|0,0:0|0:0,0:0:0:0:
240,136,31848,2,0,P|256:184|240:228,1,75,0|0,0:0|0:0,0:0:0:0:
216,292,32259,1,8,0:0:0:0:
328,152,32465,1,0,0:0:0:0:
244,180,32670,1,8,0:0:0:0:
160,208,32876,1,0,0:0:0:0:
72,188,33081,6,0,P|48:176|36:156,10,37.5,12|0|0|0|8|0|0|0|8|0|0,0:0|0:0|0:0|0:0|0:0|0:0|0:0|0:0|0:0|0:0|0:0,0:0:0:0:
124,112,34314,1,0,0:0:0:0:
200,68,34520,1,0,0:0:0:0:
288,64,34725,6,0,P|323:111|332:168,1,112.5,4|0,0:0|0:0,0:0:0:0:
324,208,35136,2,0,P|292:272|264:284,1,75,8|0,0:0|0:0,0:0:0:0:
204,300,35547,1,8,0:0:0:0:
124,140,35958,2,8,P|140:88|180:60,1,75
240,52,36369,6,8,P|280:112|272:156,1,112.5
252,188,36780,1,8,0:0:0:0:
208,112,36985,1,0,0:0:0:0:
272,48,37191,2,0,P|324:40|360:52,1,75,8|0,0:0|0:0,0:0:0:0:
424,88,37602,2,0,P|448:144|444:180,1,75,8|0,0:0|0:0,0:0:0:0:
420,244,38013,6,0,P|368:272|324:280,1,75,4|0,0:0|0:0,0:0:0:0:
284,220,38424,2,0,P|316:200|368:196,1,75,8|0,0:0|0:0,0:0:0:0:
340,284,38835,1,8,0:0:0:0:
252,288,39040,1,0,0:0:0:0:
184,232,39246,1,8,0:0:0:0:
172,144,39451,2,0,L|172:72,2,37.5,0|0|8,0:0|0:0|0:0,0:0:0:0:
232,76,39862,5,0,0:0:0:0:
296,136,40068,1,8,0:0:0:0:
364,76,40273,1,0,0:0:0:0:
420,148,40478,1,8,0:0:0:0:
464,324,40889,2,0,P|428:340|364:320,1,75,8|0,0:0|0:0,0:0:0:0:
324,280,41300,5,4,0:0:0:0:
284,200,41506,2,0,P|260:248|224:268,2,75,0|8|0,0:0|0:0|0:0,0:0:0:0:
348,136,42122,2,0,P|316:84|320:40,1,75,8|0,0:0|0:0,0:0:0:0:
232,36,42533,2,0,P|216:72|232:136,1,75,8|0,0:0|0:0,0:0:0:0:
268,180,42944,5,8,0:0:0:0:
336,240,43150,2,0,P|356:296|272:328,1,150
208,292,43766,1,0,0:0:0:0:
164,212,43972,1,8,0:0:0:0:
204,132,44177,1,0,0:0:0:0:
292,148,44383,2,0,P|288:72|272:44,1,75,0|4,0:0|0:0,0:0:0:0:
372,108,44794,6,0,P|388:160|408:212,1,75,0|8,0:0|0:0,0:0:0:0:
416,268,45205,2,0,P|404:320|356:336,1,75,0|8,0:0|0:0,0:0:0:0:
328,268,45615,2,0,P|288:248|240:256,1,75,0|8,0:0|0:0,0:0:0:0:
168,252,46026,2,0,L|168:312,2,37.5,0|0|4,0:0|0:0|0:0,0:0:0:0:
168,252,46437,5,0,0:0:0:0:
168,252,46643,5,0,0:0:0:0:
288,192,47054,2,0,B|328:148|252:116|312:88,1,112.500004291535
304,92,47876,5,4,0:0:0:0:
380,176,48081,2,0,P|392:136|392:112,2,56.2500021457673,0|0|8,0:0|0:0|0:0,0:0:0:0:
272,144,48492,1,0,0:0:0:0:
360,72,48698,1,8,0:0:0:0:
324,180,48903,2,0,P|324:216|316:240,2,56.2500021457673,0|0|8,0:0|0:0|0:0,0:0:0:0:
288,72,49314,1,0,0:0:0:0:
192,128,49520,5,8,0:0:0:0:
268,212,49725,2,0,L|268:156,1,56.2500021457673
124,92,50136,2,0,L|124:204,1,112.500004291535,0|8,0:0|0:0,0:0:0:0:
164,284,50547,2,0,B|200:236|200:232|196:164,1,120.000004577637,0|8,0:0|0:0,0:0:0:0:
204,68,50958,1,0,0:0:0:0:
232,60,51061,1,0,0:0:0:0:
260,56,51163,5,4,0:0:0:0:
284,168,51369,2,0,L|348:140,1,60.0000022888184
172,136,51780,2,0,P|120:212|120:264,1,120.000004577637,0|8,0:0|0:0,0:0:0:0:
156,336,52191,2,0,P|196:276|204:208,1,120.000004577637,0|8,0:0|0:0,0:0:0:0:
204,124,52602,1,0,0:0:0:0:
124,52,52807,6,0,B|92:72|92:72|104:92|104:92|80:96|80:96|100:116|100:116|76:116|76:116|88:136|88:136|64:144|64:144|84:160|84:160|60:164|60:164|72:172|64:192,1,225.000008583069,8|8,0:0|0:0,0:0:0:0:
124,260,53424,2,0,P|188:276|248:244,1,112.500004291535,0|8,0:0|0:0,0:0:0:0:
256,192,53835,1,0,0:0:0:0:
224,124,54040,1,8,0:0:0:0:
292,88,54246,1,0,0:0:0:0:
196,28,54451,5,4,0:0:0:0:
112,100,54657,2,0,L|124:168,1,56.2500021457673
220,292,55068,1,0,0:0:0:0:
240,176,55273,1,8,0:0:0:0:
156,104,55478,2,0,L|168:168,1,56.2500021457673
268,296,55889,1,0,0:0:0:0:
284,184,56095,5,8,0:0:0:0:
172,184,56300,2,0,P|108:256|188:344,1,225.000008583069
272,280,56917,1,0,0:0:0:0:
376,240,57122,2,0,P|408:244|428:264,2,56.2500021457673,0|0|8,0:0|0:0|0:0,0:0:0:0:
264,216,57533,1,0,0:0:0:0:
236,224,57636,1,0,0:0:0:0:
212,244,57739,5,12,0:0:0:0:
304,308,57944,2,0,L|368:292,1,60.0000022888184
200,324,58355,2,0,P|148:280|140:212,1,112.500004291535,0|8,0:0|0:0,0:0:0:0:
188,140,58766,1,0,0:0:0:0:
296,112,58972,1,8,0:0:0:0:
144,40,59177,1,0,0:0:0:0:
204,136,59383,6,0,P|264:152|276:144,6,56.2500021457673,8|0|0|0|8|0|0,0:0|0:0|0:0|0:0|0:0|0:0|0:0,0:0:0:0:
120,208,60204,1,8,0:0:0:0:
204,280,60410,1,0,0:0:0:0:
272,192,60615,1,8,0:0:0:0:
184,120,60821,1,0,0:0:0:0:
196,196,61026,6,0,P|248:164|264:132,1,80,6|0,0:0|0:0,0:0:0:0:
332,168,61437,2,0,P|336:116|312:80,1,80,8|0,0:0|0:0,0:0:0:0:
264,44,61848,1,8,0:0:0:0:
180,48,62054,2,0,L|188:140,2,75,0|8|0,0:0|0:0|0:0,0:0:0:0:
112,96,62670,5,10,0:0:0:0:
64,164,62876,2,0,P|64:228|88:276,1,80,0|8,0:0|0:0,0:0:0:0:
124,296,63287,1,2,0:0:0:0:
124,296,63492,1,8,0:0:0:0:
200,328,63698,2,0,P|248:320|280:296,1,75,0|8,0:0|0:0,0:0:0:0:
320,240,64109,1,0,0:0:0:0:
336,160,64314,6,0,P|304:92|232:76,1,150,12|8,0:0|0:0,0:0:0:0:
248,156,64931,2,0,P|272:228|356:252,1,160,0|0,0:0|0:0,0:0:0:0:
392,200,65547,2,0,L|380:112,1,75,8|0,0:0|0:0,0:0:0:0:
364,44,65958,6,0,L|276:52,1,80,10|0,0:0|0:0,0:0:0:0:
216,88,66369,1,8,0:0:0:0:
144,128,66574,2,0,P|169:158|206:169,1,80,0|10,0:0|0:0,0:0:0:0:
276,136,66985,2,0,P|308:156|328:196,2,75,0|8|0,0:0|0:0|0:0,0:0:0:0:
196,112,67602,5,14,0:0:0:0:
212,192,67807,1,0,0:0:0:0:
156,252,68013,1,8,0:0:0:0:
216,312,68218,1,0,0:0:0:0:
300,312,68424,1,8,0:0:0:0:
356,252,68629,1,0,0:0:0:0:
300,192,68835,1,8,0:0:0:0:
312,112,69040,1,0,0:0:0:0:
232,96,69246,6,0,L|208:196,1,75,6|0,0:0|0:0,0:0:0:0:
168,236,69657,2,0,P|188:280|228:296,1,75,8|0,0:0|0:0,0:0:0:0:
292,312,70068,2,0,P|360:308|396:220,1,150,8|8,0:0|0:0,0:0:0:0:
256,192,70684,12,4,72533,0:0:0:0:
336,72,73355,6,0,P|360:112|360:140,1,56.2500021457673,8|0,0:0|0:0,0:0:0:0:
288,276,73766,2,0,P|224:260|192:208,1,112.500004291535,8|0,0:0|0:0,0:0:0:0:
180,112,74177,6,0,L|272:184,1,112.500004291535,6|0,0:0|0:0,0:0:0:0:
228,288,74588,1,8,0:0:0:0:
180,188,74794,1,2,0:0:0:0:
248,100,74999,1,8,0:0:0:0:
360,92,75205,2,0,L|412:132,2,56.2500021457673,0|0|8,0:0|0:0|0:0,0:0:0:0:
260,144,75615,1,0,0:0:0:0:
268,256,75821,5,10,0:0:0:0:
380,248,76026,1,0,0:0:0:0:
372,136,76232,1,8,0:0:0:0:
276,76,76437,2,0,L|220:72,2,56.2500021457673,2|0|8,0:0|0:0|0:0,0:0:0:0:
388,88,76848,2,0,P|440:140|424:196,1,112.500004291535,0|10,0:0|0:0,0:0:0:0:
256,308,77465,5,10,0:0:0:0:
208,208,77670,2,0,P|268:192|312:216,1,112.500004291535
224,284,78081,2,0,P|148:264|132:200,1,112.500004291535,2|8,0:0|0:0,0:0:0:0:
144,128,78492,2,0,P|200:100|272:108,1,112.500004291535,0|8,0:0|0:0,0:0:0:0:
268,212,78903,1,0,0:0:0:0:
316,312,79109,5,8,0:0:0:0:
344,204,79314,2,0,P|340:164|328:140,1,56.2500021457673
180,84,79725,1,0,0:0:0:0:
124,188,79931,1,8,0:0:0:0:
232,212,80136,1,0,0:0:0:0:
164,304,80341,2,0,P|232:332|288:332,1,112.500004291535,8|0,0:0|0:0,0:0:0:0:
368,276,80752,5,6,0:0:0:0:
400,168,80958,2,0,L|332:188,2,60.0000022888184,0|0|8,0:0|0:0|0:0,0:0:0:0:
320,100,81369,1,2,0:0:0:0:
220,52,81574,1,8,0:0:0:0:
116,96,81780,2,0,P|112:132|136:176,2,60.0000022888184,0|0|8,0:0|0:0|0:0,0:0:0:0:
56,180,82191,1,0,0:0:0:0:
40,68,82396,6,0,P|104:44|168:72,1,112.500004291535,10|0,0:0|0:0,0:0:0:0:
248,100,82807,1,8,0:0:0:0:
340,32,83013,2,0,P|416:52|468:96,1,120.000004577637,2|8,0:0|0:0,0:0:0:0:
368,144,83424,1,0,0:0:0:0:
460,208,83629,1,10,0:0:0:0:
460,208,84040,5,6,0:0:0:0:
320,304,84348,1,2,0:0:0:0:
168,232,84657,1,2,0:0:0:0:
204,128,84862,1,2,0:0:0:0:
272,216,85068,2,0,P|284:264|284:292,2,60.0000022888184,0|0|8,0:0|0:0|0:0,0:0:0:0:
352,296,85478,6,0,P|328:336|292:340,2,56.2500021457673,0|0|4,0:0|0:0|0:0,0:0:0:0:
384,200,85889,1,0,0:0:0:0:
328,104,86095,1,8,0:0:0:0:
220,80,86300,1,0,0:0:0:0:
112,116,86506,2,0,P|95:141|88:168,3,56.2500021457673
128,332,87122,1,0,0:0:0:0:
232,284,87328,6,0,P|284:320|336:316,1,112.500004291535,6|0,0:0|0:0,0:0:0:0:
424,252,87739,2,0,P|372:223|320:232,1,112.500004291535,8|0,0:0|0:0,0:0:0:0:
236,156,88150,2,0,P|320:140|344:112,1,112.500004291535,8|0,0:0|0:0,0:0:0:0:
264,36,88561,1,8,0:0:0:0:
156,52,88766,2,0,P|144:84|140:168,1,112.500004291535,0|8,0:0|0:0,0:0:0:0:
180,268,89177,5,0,0:0:0:0:
284,308,89383,1,8,0:0:0:0:
284,196,89588,1,0,0:0:0:0:
232,96,89794,2,8,P|116:64|36:128,2,225.000008583069,0|0|4,0:0|0:0|0:0,0:0:0:0:
320,164,90821,5,0,0:0:0:0:
224,220,91026,1,8,0:0:0:0:
324,268,91232,1,0,0:0:0:0:
392,180,91437,2,0,P|384:112|336:84,1,112.500004291535,8|0,0:0|0:0,0:0:0:0:
240,80,91848,2,0,P|172:116|160:160,1,112.500004291535,8|4,0:0|0:0,0:0:0:0:
260,200,92259,5,4,0:0:0:0:
112,284,92568,1,4,0:0:0:0:
108,116,92876,1,4,0:0:0:0:
188,264,93184,1,4,0:0:0:0:
36,192,93492,2,0,B|152:184|152:184|228:88,1,225.000008583069,0|4,0:0|0:0,0:0:0:0:
256,192,94109,12,0,95547,0:0:0:0:
