osu file format v12

[General]
AudioFilename: glimmer.mp3
AudioLeadIn: 0
PreviewTime: 47054
Countdown: 1
SampleSet: Normal
StackLeniency: 0.7
Mode: 0
LetterboxInBreaks: 1
WidescreenStoryboard: 1

[Editor]
Bookmarks: 4622,45410,53835
DistanceSpacing: 1
BeatDivisor: 4
GridSize: 8
TimelineZoom: 1

[Metadata]
Title:Glimmer (TV Size)
TitleUnicode:Glimmer (TV Size)
Artist:Inory
ArtistUnicode:祈Inory
Creator:iPhone
Version:Easy
Source:Nano Core
Tags:纳米核心 祈
BeatmapID:378646
BeatmapSetID:152142

[Difficulty]
HPDrainRate:1
CircleSize:2
OverallDifficulty:2
ApproachRate:3
SliderMultiplier:1.2
SliderTickRate:1

[Events]
//Background and Video events
Video,0,"glimmer.flv"
0,0,"NanoCore_720p.jpg",0,0
//Break Periods
2,2048,3696
//Storyboard Layer 0 (Background)
//Storyboard Layer 1 (Fail)
//Storyboard Layer 2 (Pass)
//Storyboard Layer 3 (Foreground)
//Storyboard Sound Samples
//Background Colour Transformations
3,100,163,162,255

[TimingPoints]
205,410.958904109589,4,1,0,100,1,0
1027,-100,4,2,0,20,0,0
1232,-100,4,2,0,30,0,0
1437,-100,4,2,0,40,0,0
1643,-100,4,2,0,50,0,0
3903,-100,4,2,0,30,0,0
4931,-100,4,1,1,50,0,0
5547,-100,4,2,0,50,0,0
6574,-100,4,1,1,50,0,0
20752,-100,4,2,0,50,0,0
21985,-100,4,1,1,50,0,0
26095,-100,4,1,1,50,0,0
31026,-100,4,1,1,50,0,0
31232,-100,4,1,1,50,0,0
31437,-100,4,1,1,50,0,0
32670,-100,4,1,1,50,0,0
32876,-100,4,1,1,50,0,0
47054,-100,4,1,1,50,0,1
53835,-100,4,1,1,50,0,1
54040,-100,4,1,1,50,0,1
54246,-100,4,1,1,50,0,1
61026,-100,4,1,1,40,0,0
70787,-100,4,1,1,50,0,0
72533,-100,4,1,1,50,0,0
73355,-100,4,1,1,50,0,0
74177,-100,4,1,1,50,0,1
95547,-100,4,2,0,5,0,0

[HitObjects]
256,192,1848,5,4,0:0:0:0:
256,192,5136,5,0,0:0:0:0:
256,256,6574,6,4,B|256:192|256:192|192:144|192:144|280:120|280:120|208:80|208:80|328:48,1,420,4|0,0:0|0:0,0:0:0:0:
400,128,8424,6,4,P|456:224|392:344,1,240,4|0,0:0|0:0,0:0:0:0:
168,336,10068,2,0,P|120:232|176:120,1,240,6|0,0:0|0:0,0:0:0:0:
376,248,11711,2,0,P|256:224|128:256,1,240,2|0,0:0|0:0,0:0:0:0:
352,128,13355,5,0,0:0:0:0:
184,296,14177,1,0,0:0:0:0:
424,264,14999,2,0,P|320:200|304:88,1,240
72,152,16643,5,0,0:0:0:0:
256,304,17465,1,0,0:0:0:0:
440,144,18287,6,0,P|400:88|344:96,1,120,6|0,0:0|0:0,0:0:0:0:
256,160,19109,1,0,0:0:0:0:
256,192,19931,12,0,21574,0:0:0:0:
376,280,22396,5,0,0:0:0:0:
232,88,23218,2,0,P|168:112|144:168,1,120
240,224,24040,2,0,P|304:256|352:224,1,120
392,128,24862,5,4,0:0:0:0:
160,88,25684,2,0,P|72:72|-8:80,1,120
96,176,26506,6,0,P|168:200|240:200,1,120,0|0,0:0|0:0,0:0:0:0:
304,128,27328,2,0,P|392:152|384:288,1,240,0|4,0:0|0:0,0:0:0:0:
192,144,28972,6,0,B|168:64|296:16|376:48,1,240
448,136,30204,2,0,P|472:224|456:288,1,120
232,312,31437,5,4,0:0:0:0:
160,184,32259,1,4,0:0:0:0:
256,192,33081,12,4,34725,0:0:0:0:
400,80,35547,6,0,P|432:176|400:320,1,240,0|4,0:0|0:0,0:0:0:0:
168,312,37191,2,0,P|140:196|173:82,1,240,0|4,0:0|0:0,0:0:0:0:
328,176,38835,1,0,0:0:0:0:
264,280,39246,1,0,0:0:0:0:
160,216,39657,5,0,0:0:0:0:
368,88,40478,2,0,P|440:112|480:160,1,120
376,216,41300,5,4,0:0:0:0:
144,168,42122,1,0,0:0:0:0:
216,72,42533,1,0,0:0:0:0:
272,176,42944,5,0,0:0:0:0:
480,296,43766,1,0,0:0:0:0:
256,192,44177,12,0,46232,0:0:0:0:
448,320,47876,6,0,L|328:272,2,120
280,144,49520,2,0,L|400:184,2,120
48,216,51163,6,0,P|120:200|160:152,1,120,4|0,0:0|0:0,0:0:0:0:
176,48,51985,1,0,0:0:0:0:
176,288,52807,6,0,P|248:280|288:240,1,120,0|0,0:0|0:0,0:0:0:0:
312,136,53629,1,0,0:0:0:0:
208,72,54040,1,0,0:0:0:0:
152,176,54451,5,0,0:0:0:0:
360,64,55273,2,0,B|424:88|424:88|456:144,1,120
368,224,56095,5,0,0:0:0:0:
216,64,56917,2,0,P|136:120|128:184,1,120,4|0,0:0|0:0,0:0:0:0:
240,192,57739,5,0,0:0:0:0:
440,320,58561,2,0,P|392:264|328:248,1,120
256,192,59383,12,4,61026,0:0:0:0:
376,96,61848,5,0,0:0:0:0:
136,96,62670,1,6,0:0:0:0:
256,304,63492,1,0,0:0:0:0:
72,152,64314,6,0,P|88:80|144:40,2,120,4|0|0,0:0|0:0|0:0,0:0:0:0:
312,176,65958,1,2,0:0:0:0:
144,344,66780,2,4,P|256:304|376:336,1,240,2|4,0:0|0:0,0:0:0:0:
360,96,68424,6,4,P|248:56|128:88,1,240,2|4,0:0|0:0,0:0:0:0:
256,288,70068,1,0,0:0:0:0:
256,192,70478,12,4,72533,0:0:0:0:
256,240,73355,5,0,0:0:0:0:
256,120,73766,1,0,0:0:0:0:
360,176,74177,5,0,0:0:0:0:
120,168,74999,2,0,P|160:224|232:232,1,120
256,128,75821,5,0,0:0:0:0:
448,272,76643,2,0,P|443:213|400:173,1,120
256,112,77465,6,0,B|352:224|136:192|272:328,1,240,2|0,0:0|0:0,0:0:0:0:
136,112,79109,1,2,0:0:0:0:
376,112,79931,2,0,L|376:232,2,120,0|0|6,0:0|0:0|0:0,0:0:0:0:
176,240,81574,5,0,0:0:0:0:
416,232,82396,5,2,0:0:0:0:
336,144,82807,1,0,0:0:0:0:
216,144,83218,2,0,P|229:87|275:50,1,120,2|2,0:0|0:0,0:0:0:0:
296,168,84040,6,0,B|280:232|216:264|136:232|136:152,1,240,6|0,0:0|0:0,0:0:0:0:
232,80,85273,2,0,P|352:56|496:96,2,240
64,184,87328,5,6,0:0:0:0:
280,280,88150,1,0,0:0:0:0:
424,88,88972,5,4,0:0:0:0:
256,184,89794,2,0,L|256:312,2,120,0|0|4,0:0|0:0|0:0,0:0:0:0:
144,136,91026,5,0,0:0:0:0:
360,232,91848,1,0,0:0:0:0:
256,192,92259,12,4,93903,0:0:0:0:
