osu file format v13

[General]
AudioFilename: [Groundbreaking BOF2013] Ino - ----------.mp3
AudioLeadIn: 0
PreviewTime: 16294
Countdown: 0
SampleSet: Soft
StackLeniency: 0.2
Mode: 0
LetterboxInBreaks: 1
WidescreenStoryboard: 1

[Editor]
DistanceSpacing: 0.5
BeatDivisor: 4
GridSize: 4
TimelineZoom: 3.399999

[Metadata]
Title:Kokeshineko Medore
TitleUnicode:コケシネコ・メドレー
Artist:Ino
ArtistUnicode:Ino
Creator:Leminine
Version:extr@
Source:Groundbreaking BOF2013
Tags:
BeatmapID:345579
BeatmapSetID:138354

[Difficulty]
HPDrainRate:6
CircleSize:4
OverallDifficulty:7
ApproachRate:9
SliderMultiplier:2
SliderTickRate:1

[Events]
//Background and Video events
0,0,"Konachan.com - 175483 sample.jpg",0,0
//Break Periods
2,122584,125332
//Storyboard Layer 0 (Background)
//Storyboard Layer 1 (Fail)
//Storyboard Layer 2 (Pass)
//Storyboard Layer 3 (Foreground)
//Storyboard Sound Samples

[TimingPoints]
1240,555.555555555556,4,2,0,60,1,0
6240,324.324324324324,4,2,0,60,1,0
16294,-200,4,2,0,60,0,0
16578,322.58064516129,4,2,0,60,1,0
16578,-100,4,2,0,60,0,0
52707,-125,4,2,0,60,0,0
57868,-100,4,2,0,60,0,0
87545,-133.333333333333,4,2,0,60,0,0
112061,-100,4,2,0,60,0,0
125923,284.36018957346,4,2,0,60,1,0
126207,284.36018957346,4,2,0,60,1,0
153499,-200,4,2,0,5,0,0
156064,320,4,2,0,60,1,0

[HitObjects]
352,100,6240,6,0,P|364:152|348:204,1,100
252,148,6564,1,0,0:0:0:0:
204,292,6726,2,0,L|196:316|196:316,4,25
272,332,7050,1,0,0:0:0:0:
200,212,7212,1,0,0:0:0:0:
128,280,7375,1,0,0:0:0:0:
280,236,7537,6,0,P|280:188|248:144,1,100
200,212,7861,1,0,0:0:0:0:
344,288,8023,1,0,0:0:0:0:
200,72,8348,2,0,L|252:104|252:104,1,50
348,52,8510,2,0,L|312:92,1,50
288,160,8672,1,0,0:0:0:0:
292,180,8753,1,0,0:0:0:0:
296,200,8834,6,0,L|312:276,1,50
388,272,8996,2,0,L|372:196,1,50
184,312,9239,2,0,L|128:324|128:324,2,50
216,288,9483,1,0,0:0:0:0:
228,252,9564,1,0,0:0:0:0:
220,212,9645,1,0,0:0:0:0:
188,188,9726,1,0,0:0:0:0:
148,188,9807,1,0,0:0:0:0:
108,180,9888,1,0,0:0:0:0:
84,148,9969,1,0,0:0:0:0:
80,108,10050,1,0,0:0:0:0:
100,76,10131,6,0,L|128:44|128:44,8,25
188,44,10537,2,0,P|188:80|176:100,2,50
236,40,10780,1,0,0:0:0:0:
276,48,10861,1,0,0:0:0:0:
308,72,10942,1,0,0:0:0:0:
324,108,11023,1,0,0:0:0:0:
324,148,11104,1,0,0:0:0:0:
320,168,11185,1,0,0:0:0:0:
316,188,11267,2,0,L|307:232|307:232,2,25
232,243,11429,5,0,0:0:0:0:
260,280,11510,1,0,0:0:0:0:
300,296,11591,1,0,0:0:0:0:
344,289,11672,1,0,0:0:0:0:
380,260,11753,1,0,0:0:0:0:
380,260,11915,2,0,L|416:252|416:252,2,25
456,304,12077,2,0,L|492:296|492:296,2,25
472,224,12239,5,0,0:0:0:0:
476,180,12321,1,0,0:0:0:0:
448,144,12402,1,0,0:0:0:0:
404,140,12483,1,0,0:0:0:0:
368,168,12564,1,0,0:0:0:0:
324,180,12645,1,0,0:0:0:0:
276,168,12726,6,0,P|252:160|232:136,3,50
216,104,13050,2,0,P|196:72|176:56,3,50
144,48,13375,2,0,P|104:40|80:44,3,50
60,68,13699,2,0,L|36:100|36:100,6,25
84,108,14023,5,0,0:0:0:0:
120,132,14104,1,0,0:0:0:0:
136,172,14185,1,0,0:0:0:0:
124,216,14267,1,0,0:0:0:0:
88,244,14348,1,0,0:0:0:0:
60,280,14429,1,0,0:0:0:0:
64,324,14510,1,0,0:0:0:0:
100,352,14591,1,0,0:0:0:0:
144,348,14672,1,0,0:0:0:0:
172,312,14753,1,0,0:0:0:0:
212,288,14834,1,0,0:0:0:0:
252,264,14915,1,0,0:0:0:0:
276,228,14996,6,0,L|292:200|292:200,6,25
316,308,15321,2,0,L|300:336|300:336,2,25,0|0|0,0:0|0:0|0:0,0:0:0:0:
392,304,15483,2,0,L|412:332,2,25
428,240,15645,2,0,L|476:232|476:232,2,25
392,176,15807,2,0,L|412:140,2,25
353,236,15969,2,0,L|312:213|312:213,6,25
264,244,16294,6,0,P|266:197|298:163,1,75
312,152,16578,5,0,0:0:0:0:
324,136,16658,1,0,0:0:0:0:
328,116,16739,1,0,0:0:0:0:
324,96,16819,1,0,0:0:0:0:
312,80,16900,1,0,0:0:0:0:
296,72,16981,1,0,0:0:0:0:
276,72,17061,1,0,0:0:0:0:
256,80,17142,1,0,0:0:0:0:
244,96,17223,1,0,0:0:0:0:
240,116,17303,1,0,0:0:0:0:
236,136,17384,1,0,0:0:0:0:
224,152,17465,1,0,0:0:0:0:
208,164,17545,1,0,0:0:0:0:
188,172,17626,1,0,0:0:0:0:
168,172,17707,1,0,0:0:0:0:
148,164,17787,1,0,0:0:0:0:
136,148,17868,6,0,L|116:96,3,50
76,88,18190,2,0,L|20:120|20:120,3,50
20,156,18513,2,0,B|24:180|48:200|48:200,3,50
76,232,18836,2,0,P|92:256|100:288,3,50
100,320,19158,5,0,0:0:0:0:
104,332,19239,1,0,0:0:0:0:
116,344,19319,1,0,0:0:0:0:
128,348,19400,1,0,0:0:0:0:
144,348,19481,1,0,0:0:0:0:
156,340,19561,1,0,0:0:0:0:
164,328,19642,1,0,0:0:0:0:
172,316,19723,1,0,0:0:0:0:
184,304,19803,1,0,0:0:0:0:
196,296,19884,1,0,0:0:0:0:
208,288,19965,1,0,0:0:0:0:
224,284,20045,1,0,0:0:0:0:
240,284,20126,1,0,0:0:0:0:
256,288,20207,1,0,0:0:0:0:
268,296,20287,1,0,0:0:0:0:
276,308,20368,1,0,0:0:0:0:
276,324,20448,6,0,L|280:376,3,50
324,372,20771,2,0,L|352:328,3,50
392,312,21094,2,0,L|410:360,3,50
451,344,21416,2,0,L|465:293,3,50
468,252,21739,5,0,0:0:0:0:
460,232,21819,1,0,0:0:0:0:
448,216,21900,1,0,0:0:0:0:
432,204,21981,1,0,0:0:0:0:
412,200,22061,1,0,0:0:0:0:
392,200,22142,1,0,0:0:0:0:
372,208,22223,1,0,0:0:0:0:
356,220,22303,1,0,0:0:0:0:
348,240,22384,2,0,L|304:268|304:268,3,50
264,276,22707,2,0,L|192:268,3,50
184,304,23029,5,0,0:0:0:0:
160,320,23110,1,0,0:0:0:0:
132,324,23190,1,0,0:0:0:0:
104,316,23271,1,0,0:0:0:0:
84,292,23352,1,0,0:0:0:0:
100,268,23432,1,0,0:0:0:0:
104,240,23513,1,0,0:0:0:0:
96,212,23594,1,0,0:0:0:0:
76,180,23674,5,0,0:0:0:0:
112,192,23755,1,0,0:0:0:0:
152,192,23836,1,0,0:0:0:0:
188,180,23916,1,0,0:0:0:0:
216,160,23997,1,0,0:0:0:0:
212,180,24077,1,0,0:0:0:0:
228,192,24158,1,0,0:0:0:0:
220,212,24239,1,0,0:0:0:0:
236,228,24319,6,0,P|280:272|344:276,1,100
364,280,24561,2,0,B|372:251|372:251|388:216|388:216|396:184,1,100
408,152,24803,1,0,0:0:0:0:
252,52,24965,1,0,0:0:0:0:
254,59,25045,1,0,0:0:0:0:
258,67,25126,1,0,0:0:0:0:
261,76,25207,1,0,0:0:0:0:
265,84,25287,2,0,L|285:139|285:139,3,50
300,172,25610,5,0,0:0:0:0:
292,180,25690,1,0,0:0:0:0:
288,188,25771,1,0,0:0:0:0:
268,216,25852,1,0,0:0:0:0:
280,252,25932,1,0,0:0:0:0:
316,272,26013,1,0,0:0:0:0:
356,268,26094,1,0,0:0:0:0:
384,240,26174,1,0,0:0:0:0:
384,200,26255,6,0,P|384:168|396:144,2,50
454,185,26497,1,0,0:0:0:0:
468,228,26577,1,0,0:0:0:0:
464,272,26658,1,0,0:0:0:0:
440,312,26739,1,0,0:0:0:0:
400,336,26819,1,0,0:0:0:0:
356,340,26900,5,0,0:0:0:0:
340,316,26981,1,0,0:0:0:0:
324,292,27061,1,0,0:0:0:0:
308,268,27142,1,0,0:0:0:0:
280,260,27223,1,0,0:0:0:0:
256,276,27303,1,0,0:0:0:0:
232,292,27384,1,0,0:0:0:0:
208,308,27465,1,0,0:0:0:0:
180,300,27545,1,0,0:0:0:0:
156,280,27626,1,0,0:0:0:0:
148,252,27707,1,0,0:0:0:0:
152,224,27787,1,0,0:0:0:0:
180,208,27868,1,0,0:0:0:0:
200,184,27948,1,0,0:0:0:0:
204,156,28029,1,0,0:0:0:0:
196,128,28110,1,0,0:0:0:0:
172,112,28190,6,0,L|116:140,3,50
96,168,28513,2,0,P|100:200|120:232,3,50
152,232,28836,2,0,L|208:204,3,50
240,196,29158,2,0,P|276:196|320:212,3,50
332,216,29481,5,0,0:0:0:0:
360,224,29561,1,0,0:0:0:0:
384,240,29642,1,0,0:0:0:0:
400,264,29723,1,0,0:0:0:0:
428,276,29803,1,0,0:0:0:0:
456,264,29884,1,0,0:0:0:0:
464,236,29965,1,0,0:0:0:0:
448,212,30045,1,0,0:0:0:0:
420,204,30126,1,0,0:0:0:0:
408,196,30207,1,0,0:0:0:0:
400,184,30287,1,0,0:0:0:0:
396,168,30368,1,0,0:0:0:0:
396,152,30448,1,0,0:0:0:0:
408,124,30529,1,0,0:0:0:0:
408,92,30610,1,0,0:0:0:0:
388,68,30690,1,0,0:0:0:0:
360,56,30771,6,0,B|332:44|304:52|304:52,3,50
268,68,31094,2,0,P|244:96|240:120,3,50
240,152,31416,1,0,0:0:0:0:
260,192,31497,1,0,0:0:0:0:
268,236,31577,1,0,0:0:0:0:
260,280,31658,1,0,0:0:0:0:
236,320,31739,2,0,L|168:336,3,50
144,336,32061,5,0,0:0:0:0:
108,332,32142,1,0,0:0:0:0:
76,316,32223,1,0,0:0:0:0:
52,288,32303,1,0,0:0:0:0:
44,252,32384,1,0,0:0:0:0:
60,220,32465,1,0,0:0:0:0:
88,200,32545,1,0,0:0:0:0:
120,184,32626,1,0,0:0:0:0:
140,156,32707,1,0,0:0:0:0:
136,136,32787,1,0,0:0:0:0:
132,116,32868,1,0,0:0:0:0:
124,80,32948,1,0,0:0:0:0:
152,100,33029,1,0,0:0:0:0:
188,104,33110,1,0,0:0:0:0:
224,100,33190,1,0,0:0:0:0:
232,96,33271,1,0,0:0:0:0:
240,92,33352,6,0,L|276:44,3,50
312,40,33674,2,0,P|348:44|376:64,3,50
396,76,33997,2,0,L|416:128,1,50
344,144,34158,2,0,L|348:200|348:200,1,50
424,196,34319,1,0,0:0:0:0:
420,224,34400,1,0,0:0:0:0:
436,248,34481,1,0,0:0:0:0:
428,276,34561,1,0,0:0:0:0:
444,300,34642,5,0,0:0:0:0:
412,324,34723,1,0,0:0:0:0:
372,324,34803,1,0,0:0:0:0:
336,308,34884,1,0,0:0:0:0:
316,276,34965,1,0,0:0:0:0:
292,308,35045,1,0,0:0:0:0:
256,324,35126,1,0,0:0:0:0:
216,324,35207,1,0,0:0:0:0:
180,308,35287,2,0,L|128:344,3,50
100,336,35610,2,0,L|44:312|44:312,3,50
44,272,35932,5,0,0:0:0:0:
84,252,36013,1,0,0:0:0:0:
112,216,36094,1,0,0:0:0:0:
120,172,36174,1,0,0:0:0:0:
112,128,36255,1,0,0:0:0:0:
112,128,36416,1,0,0:0:0:0:
285,172,36631,1,0,0:0:0:0:
432,66,36846,1,0,0:0:0:0:
432,68,37223,6,0,P|384:132|432:248,1,200
424,160,37707,2,0,P|372:172|336:232,1,100
360,304,38029,1,0,0:0:0:0:
352,136,38190,1,0,0:0:0:0:
268,208,38352,1,0,0:0:0:0:
360,304,38513,2,0,P|412:292|448:232,1,100
268,208,38836,1,0,0:0:0:0:
296,44,38997,2,0,P|244:56|208:116,1,100
424,192,39319,6,0,B|436:160|436:160|440:124|440:124|452:96,2,100
284,116,39803,1,0,0:0:0:0:
176,192,39965,1,0,0:0:0:0:
52,156,40126,1,0,0:0:0:0:
92,240,40287,5,0,0:0:0:0:
160,104,40448,1,0,0:0:0:0:
272,208,40610,1,0,0:0:0:0:
236,44,40771,5,0,0:0:0:0:
176,192,40932,1,0,0:0:0:0:
72,76,41094,1,0,0:0:0:0:
68,96,41174,1,0,0:0:0:0:
68,116,41255,1,0,0:0:0:0:
72,136,41336,1,0,0:0:0:0:
80,156,41416,1,0,0:0:0:0:
232,128,41577,1,0,0:0:0:0:
232,128,41900,1,0,0:0:0:0:
332,196,42061,1,0,0:0:0:0:
340,76,42223,1,0,0:0:0:0:
248,284,42384,6,0,P|316:316|432:264,1,200
428,112,42868,2,0,P|388:80|320:84,1,100
332,196,43190,1,0,0:0:0:0:
452,192,43352,1,0,0:0:0:0:
272,120,43513,1,0,0:0:0:0:
248,284,43674,2,0,P|300:312|348:316,1,100
420,308,43997,1,0,0:0:0:0:
248,284,44158,2,0,B|196:275|196:275|135:294,1,100
40,248,44481,1,0,0:0:0:0:
152,204,44642,1,0,0:0:0:0:
72,160,44803,1,0,0:0:0:0:
240,188,44965,6,0,B|290:197|290:197|344:176,1,100
280,96,45287,1,0,0:0:0:0:
248,284,45448,5,0,0:0:0:0:
356,272,45610,2,0,B|401:249|401:249|428:200,1,100
416,108,45932,5,0,0:0:0:0:
248,284,46094,1,0,0:0:0:0:
416,276,46255,1,0,0:0:0:0:
432,280,46336,1,0,0:0:0:0:
432,296,46416,1,0,0:0:0:0:
420,304,46497,1,0,0:0:0:0:
408,292,46577,1,0,0:0:0:0:
332,196,46739,1,0,0:0:0:0:
332,196,47061,1,0,0:0:0:0:
308,100,47223,1,0,0:0:0:0:
208,212,47384,1,0,0:0:0:0:
168,36,47545,6,0,P|152:104|36:176,1,200
388,128,48190,1,0,0:0:0:0:
388,128,48352,2,0,P|384:68|348:28,1,100
292,184,48674,1,0,0:0:0:0:
344,280,48836,2,0,P|308:324|256:336,2,100
432,276,49319,2,0,P|364:284|224:236,1,200
148,140,49803,2,0,P|92:124|40:128,1,100
292,184,50126,6,0,B|340:168|340:168|368:120|360:56|320:28,2,200
228,64,50932,2,0,L|332:28,1,100
424,176,51255,2,0,L|226:246,1,200
100,176,51739,1,0,0:0:0:0:
100,176,51900,2,0,B|144:220|144:220|128:268|160:324|216:336,1,200
295,316,52384,2,0,P|276:271|236:243,1,100
64,248,52707,5,0,0:0:0:0:
376,324,53029,1,0,0:0:0:0:
264,92,53352,1,0,0:0:0:0:
264,92,53513,1,0,0:0:0:0:
376,324,53836,6,0,P|388:252|324:192,1,160
428,264,54319,1,0,0:0:0:0:
360,124,54481,2,0,P|288:128|264:228,1,160
460,172,54965,2,0,L|436:88,1,80
208,80,55287,5,0,0:0:0:0:
340,316,55610,1,0,0:0:0:0:
160,212,55932,2,0,L|68:244,2,80
256,232,56416,2,0,B|260:196|248:172|248:172|348:136,1,160
344,220,56900,1,0,0:0:0:0:
420,192,57061,1,0,0:0:0:0:
228,76,57384,1,0,0:0:0:0:
204,82,57465,1,0,0:0:0:0:
180,89,57545,1,0,0:0:0:0:
155,95,57626,1,0,0:0:0:0:
131,101,57707,1,0,0:0:0:0:
131,100,57868,6,0,B|80:116|80:116|44:168,1,100
100,212,58110,1,0,0:0:0:0:
108,224,58190,2,0,L|48:312,1,100
124,328,58432,1,0,0:0:0:0:
136,340,58513,2,0,L|192:257,1,100
264,272,58755,1,0,0:0:0:0:
276,264,58836,2,0,P|264:208|228:180,1,100
196,168,59077,1,0,0:0:0:0:
180,164,59158,5,0,0:0:0:0:
336,72,59319,2,0,L|392:52,2,50
392,264,59642,2,0,L|346:225,2,50
484,84,59965,2,0,L|473:142,2,50
244,224,60287,2,0,L|256:172|256:172,1,50
324,152,60448,5,0,0:0:0:0:
184,56,60610,1,0,0:0:0:0:
192,80,60690,1,0,0:0:0:0:
200,104,60771,1,0,0:0:0:0:
141,209,60932,1,0,0:0:0:0:
122,192,61013,1,0,0:0:0:0:
104,176,61094,1,0,0:0:0:0:
84,316,61255,1,0,0:0:0:0:
108,321,61336,1,0,0:0:0:0:
133,326,61416,1,0,0:0:0:0:
300,300,61577,1,0,0:0:0:0:
276,295,61658,1,0,0:0:0:0:
251,290,61739,5,0,0:0:0:0:
416,248,61900,2,0,L|472:260,2,50
292,160,62223,2,0,L|236:172,2,50
452,80,62545,1,0,0:0:0:0:
448,100,62626,1,0,0:0:0:0:
444,120,62707,1,0,0:0:0:0:
440,140,62787,1,0,0:0:0:0:
436,160,62868,1,0,0:0:0:0:
436,160,63029,6,0,L|413:266,1,100
232,96,63352,2,0,B|244:48|244:48|300:20,1,100
232,328,63674,2,0,P|176:337|132:310,1,100
156,184,63997,2,0,P|212:175|256:202,1,100
104,244,64319,5,0,0:0:0:0:
84,96,64481,1,0,0:0:0:0:
196,256,64642,1,0,0:0:0:0:
96,260,64803,1,0,0:0:0:0:
212,96,64965,5,0,0:0:0:0:
260,208,65126,1,0,0:0:0:0:
88,276,65287,1,0,0:0:0:0:
220,80,65448,1,0,0:0:0:0:
286,284,65610,2,0,P|237:283|196:256,1,100
324,104,65932,2,0,P|373:105|414:132,1,100
192,308,66255,2,0,P|164:260|164:208,1,100,0|0,0:0|0:0,0:0:0:0:
416,80,66577,2,0,P|444:128|444:180,1,100,0|0,0:0|0:0,0:0:0:0:
288,204,66900,5,0,0:0:0:0:
276,188,66981,1,0,0:0:0:0:
288,172,67061,1,0,0:0:0:0:
308,180,67142,1,0,0:0:0:0:
308,200,67223,1,0,0:0:0:0:
96,184,67384,2,0,P|144:156|228:252,1,200
116,324,67868,1,0,0:0:0:0:
104,304,67948,1,0,0:0:0:0:
116,284,68029,1,0,0:0:0:0:
140,292,68110,1,0,0:0:0:0:
140,316,68190,6,0,L|120:372,3,50
192,296,68513,2,0,L|240:320,3,50
284,304,68836,2,0,L|300:256,3,50
348,236,69158,2,0,L|400:256,3,50
440,232,69481,5,0,0:0:0:0:
448,220,69561,1,0,0:0:0:0:
456,208,69642,1,0,0:0:0:0:
448,196,69723,1,0,0:0:0:0:
440,184,69803,1,0,0:0:0:0:
448,172,69884,1,0,0:0:0:0:
456,160,69965,1,0,0:0:0:0:
444,148,70045,1,0,0:0:0:0:
432,136,70126,2,0,L|468:96,3,50
416,120,70448,5,0,0:0:0:0:
396,128,70771,5,0,0:0:0:0:
364,152,70852,1,0,0:0:0:0:
324,160,70932,1,0,0:0:0:0:
284,156,71013,1,0,0:0:0:0:
248,136,71094,1,0,0:0:0:0:
208,124,71174,1,0,0:0:0:0:
168,132,71255,1,0,0:0:0:0:
140,160,71336,1,0,0:0:0:0:
136,200,71416,1,0,0:0:0:0:
168,224,71497,1,0,0:0:0:0:
176,264,71577,1,0,0:0:0:0:
160,300,71658,1,0,0:0:0:0:
124,316,71739,1,0,0:0:0:0:
84,308,71819,1,0,0:0:0:0:
60,276,71900,1,0,0:0:0:0:
60,236,71981,1,0,0:0:0:0:
84,204,72061,6,0,P|104:176|112:152,3,50
120,124,72384,2,0,L|128:72|128:72,3,50
144,36,72707,1,0,0:0:0:0:
184,36,72787,1,0,0:0:0:0:
220,56,72868,1,0,0:0:0:0:
236,92,72948,1,0,0:0:0:0:
228,132,73029,1,0,0:0:0:0:
224,148,73110,1,0,0:0:0:0:
220,164,73190,1,0,0:0:0:0:
216,180,73271,1,0,0:0:0:0:
212,196,73352,6,0,L|196:256|196:256,3,50
220,284,73674,2,0,L|252:348|252:348,3,50
280,352,73997,1,0,0:0:0:0:
296,356,74077,1,0,0:0:0:0:
312,356,74158,1,0,0:0:0:0:
328,352,74239,1,0,0:0:0:0:
340,340,74319,1,0,0:0:0:0:
344,324,74400,1,0,0:0:0:0:
344,308,74481,1,0,0:0:0:0:
338,294,74561,1,0,0:0:0:0:
327,283,74642,5,0,0:0:0:0:
309,258,74723,1,0,0:0:0:0:
310,228,74803,1,0,0:0:0:0:
329,204,74884,1,0,0:0:0:0:
358,201,74965,1,0,0:0:0:0:
388,204,75045,1,0,0:0:0:0:
416,196,75126,1,0,0:0:0:0:
440,176,75207,1,0,0:0:0:0:
452,148,75287,2,0,L|460:96,3,50
456,68,75610,5,0,0:0:0:0:
440,56,75932,5,0,0:0:0:0:
408,80,76013,1,0,0:0:0:0:
368,88,76094,1,0,0:0:0:0:
328,84,76174,1,0,0:0:0:0:
292,64,76255,1,0,0:0:0:0:
252,60,76336,1,0,0:0:0:0:
220,80,76416,1,0,0:0:0:0:
212,120,76497,1,0,0:0:0:0:
232,156,76577,1,0,0:0:0:0:
264,172,76658,1,0,0:0:0:0:
288,196,76739,1,0,0:0:0:0:
312,224,76819,1,0,0:0:0:0:
344,240,76900,1,0,0:0:0:0:
348,260,76981,1,0,0:0:0:0:
352,280,77061,1,0,0:0:0:0:
356,300,77142,1,0,0:0:0:0:
344,316,77223,6,0,P|316:332|284:336,3,50
264,336,77545,1,0,0:0:0:0:
232,312,77626,1,0,0:0:0:0:
224,272,77707,1,0,0:0:0:0:
240,236,77787,1,0,0:0:0:0:
276,220,77868,1,0,0:0:0:0:
304,192,77948,1,0,0:0:0:0:
308,152,78029,1,0,0:0:0:0:
292,116,78110,1,0,0:0:0:0:
256,100,78190,5,0,0:0:0:0:
232,104,78271,1,0,0:0:0:0:
228,128,78352,1,0,0:0:0:0:
248,140,78432,1,0,0:0:0:0:
264,124,78513,1,0,0:0:0:0:
136,64,78674,6,0,L|80:88,2,50
52,188,78997,2,0,L|112:188|112:188,2,50
180,268,79319,2,0,L|124:292,2,50
300,180,79642,5,0,0:0:0:0:
336,196,79723,1,0,0:0:0:0:
372,216,79803,1,0,0:0:0:0:
360,344,79965,6,0,L|300:380|300:380,2,50
396,136,80287,2,0,L|456:100|456:100,2,50
224,248,80610,2,0,L|188:188|188:188,1,50
188,132,80771,5,0,0:0:0:0:
216,104,80852,1,0,0:0:0:0:
220,64,80932,1,0,0:0:0:0:
200,28,81013,1,0,0:0:0:0:
160,16,81094,1,0,0:0:0:0:
76,140,81255,2,0,L|36:176|36:176,2,50
140,240,81577,2,0,L|120:288,2,50
256,212,81900,2,0,L|268:268,2,50
412,280,82223,5,0,0:0:0:0:
376,296,82303,1,0,0:0:0:0:
340,312,82384,1,0,0:0:0:0:
364,164,82545,2,0,L|396:120,2,50
224,308,82868,2,0,L|160:332,2,50
236,180,83190,5,0,0:0:0:0:
244,140,83271,1,0,0:0:0:0:
236,100,83352,1,0,0:0:0:0:
208,72,83432,1,0,0:0:0:0:
168,60,83513,1,0,0:0:0:0:
128,68,83594,1,0,0:0:0:0:
100,96,83674,1,0,0:0:0:0:
124,204,83836,6,0,L|88:252,2,50
324,192,84158,2,0,L|300:136,2,50
212,360,84481,2,0,L|271:367,2,50
224,248,84803,5,0,0:0:0:0:
240,260,84884,1,0,0:0:0:0:
224,268,84965,1,0,0:0:0:0:
184,92,85126,6,0,L|228:64,2,50
366,165,85448,2,0,L|324:192,2,50
168,184,85771,5,0,0:0:0:0:
128,180,85852,1,0,0:0:0:0:
92,192,85932,1,0,0:0:0:0:
64,220,86013,1,0,0:0:0:0:
52,260,86094,1,0,0:0:0:0:
60,300,86174,1,0,0:0:0:0:
88,328,86255,6,0,B|136:344|136:344|236:328|236:328|292:348,1,200
436,252,86739,5,0,0:0:0:0:
408,276,86819,1,0,0:0:0:0:
380,300,86900,2,0,B|246:250|246:250|183:260|183:260,1,200
84,144,87384,5,0,0:0:0:0:
116,168,87465,1,0,0:0:0:0:
152,192,87545,2,0,B|196:184|196:184|224:160|224:160|272:180|320:148,3,150.000005722046
262,89,88836,6,0,B|292:164|292:164|388:144,2,150.000005722046
344,76,89642,2,0,P|392:80|420:104,1,75.0000028610231
392,276,89965,2,0,P|312:272|248:228,1,150.000005722046
192,180,90448,1,0,0:0:0:0:
116,212,90610,1,0,0:0:0:0:
220,64,90932,6,0,L|300:88,1,75.0000028610231
372,64,91255,1,0,0:0:0:0:
436,116,91416,2,0,B|420:144|385:149|385:149|380:208|324:224|324:224,1,150.000005722046
76,116,92061,1,0,0:0:0:0:
132,196,92223,1,0,0:0:0:0:
132,196,92545,6,0,B|168:244|168:244|276:280,1,150.000005722046
324,296,93029,2,0,L|253:272,1,75.0000028610231
197,322,93352,2,0,L|253:272,1,75.0000028610231
238,198,93674,2,0,L|253:272,1,75.0000028610231
320,212,93997,5,0,0:0:0:0:
320,212,94319,2,0,B|360:176|360:176|372:124|372:124|424:136|464:112|468:56|468:56,1,225.000008583069
392,48,94965,1,0,0:0:0:0:
392,48,95287,2,0,P|344:40|308:24,1,75.0000028610231
244,40,95610,2,0,P|208:68|168:76,1,75.0000028610231
92,216,96094,5,0,0:0:0:0:
172,192,96255,1,0,0:0:0:0:
152,272,96416,1,0,0:0:0:0:
230,246,96577,6,0,P|250:210|238:154,1,75.0000028610231
230,246,96900,2,0,P|265:225|284:171,1,75.0000028610231
230,246,97223,1,0,0:0:0:0:
304,280,97384,1,0,0:0:0:0:
304,280,97707,1,0,0:0:0:0:
304,280,97868,6,0,L|357:311|357:311,2,50.0000019073487
425,265,98190,2,0,L|426:204,2,50.0000019073487
344,208,98513,1,0,0:0:0:0:
316,168,98621,1,0,0:0:0:0:
328,120,98728,1,0,0:0:0:0:
376,108,98836,1,0,0:0:0:0:
392,60,98943,1,0,0:0:0:0:
364,20,99051,1,0,0:0:0:0:
316,28,99158,6,0,B|276:36|276:36|264:80|232:104|184:88|184:88,1,150.000005722046
84,136,99803,1,0,0:0:0:0:
152,168,99965,1,0,0:0:0:0:
88,208,100126,1,0,0:0:0:0:
156,240,100287,2,0,P|188:268|120:336,1,150.000005722046
64,336,100771,1,0,0:0:0:0:
88,208,100932,1,0,0:0:0:0:
88,208,101255,5,0,0:0:0:0:
100,200,101336,1,0,0:0:0:0:
112,192,101416,1,0,0:0:0:0:
96,120,101577,1,0,0:0:0:0:
184,132,101739,2,0,P|252:124|288:48,2,150.000005722046
264,160,102545,5,0,0:0:0:0:
200,216,102707,1,0,0:0:0:0:
280,240,102868,2,0,P|228:244|184:336,1,150.000005722046
264,320,103352,1,0,0:0:0:0:
336,356,103513,1,0,0:0:0:0:
336,356,103836,1,0,0:0:0:0:
332,272,103997,1,0,0:0:0:0:
396,220,104158,1,0,0:0:0:0:
388,140,104319,6,0,B|408:108|408:108|412:68|412:68|452:72|480:36,2,150.000005722046
312,108,105126,1,0,0:0:0:0:
244,156,105287,1,0,0:0:0:0:
168,124,105448,2,0,B|132:104|132:104|100:112|68:148|56:192,1,150.000005722046
116,240,105932,1,0,0:0:0:0:
88,316,106094,1,0,0:0:0:0:
88,316,106416,5,0,0:0:0:0:
100,328,106497,1,0,0:0:0:0:
112,340,106577,1,0,0:0:0:0:
188,288,106739,1,0,0:0:0:0:
256,344,106900,2,0,P|276:296|272:260,1,75.0000028610231
364,280,107223,2,0,P|348:224|312:196,1,75.0000028610231
408,160,107545,2,0,P|353:125|316:126,2,75.0000028610231
384,40,108029,6,0,P|336:80|220:80,1,150.000005722046
160,76,108513,1,0,0:0:0:0:
160,76,108674,2,0,P|112:88|156:160,1,150.000005722046
228,188,109158,2,0,L|304:232,1,75.0000028610231
336,304,109481,5,0,0:0:0:0:
88,256,109803,1,0,0:0:0:0:
324,60,110126,2,0,L|408:32,2,75.0000028610231
384,140,110610,1,0,0:0:0:0:
384,140,110771,6,0,P|360:176|316:204,1,75.0000028610231
260,204,111094,2,0,P|220:192|184:160,1,75.0000028610231
288,132,111416,1,0,0:0:0:0:
288,132,111739,1,0,0:0:0:0:
288,132,112061,5,0,0:0:0:0:
284,272,112223,2,0,P|316:296|376:304,1,100
172,176,112545,2,0,P|135:191|99:239,1,100
311,127,112868,2,0,P|316:88|292:32,1,100
256,192,113190,1,0,0:0:0:0:
400,120,113352,1,0,0:0:0:0:
212,56,113513,6,0,P|152:72|104:124,1,100
96,296,113836,2,0,P|139:339|208:355,1,100
360,276,114158,2,0,P|376:216|355:148,1,100
196,136,114481,1,0,0:0:0:0:
260,292,114642,1,0,0:0:0:0:
212,56,114803,6,0,L|104:36,1,100
336,132,115126,2,0,L|444:112,1,100
152,220,115448,2,0,L|44:200,1,100
240,304,115771,1,0,0:0:0:0:
392,240,115932,1,0,0:0:0:0:
256,144,116094,6,0,B|260:196|260:196|288:244|288:244,1,100
452,128,116416,2,0,B|448:76|448:76|420:28|420:28,1,100
192,64,116739,2,0,L|76:84,1,100
84,280,117061,1,0,0:0:0:0:
76,300,117223,6,0,L|192:280,1,100
256,144,117545,2,0,L|140:164,1,100
160,340,117868,2,0,B|208:332|208:332|244:292,1,100
168,100,118190,2,0,B|120:108|120:108|84:148,1,100
412,240,118513,6,0,L|500:172|500:172,1,100
412,240,118836,2,0,L|309:197|309:197,1,100
412,239,119158,2,0,L|426:350|426:350,1,100
388,76,119481,1,0,0:0:0:0:
388,76,119642,1,0,0:0:0:0:
388,76,119803,5,0,0:0:0:0:
364,44,119884,1,0,0:0:0:0:
324,36,119965,1,0,0:0:0:0:
288,48,120045,1,0,0:0:0:0:
268,84,120126,1,0,0:0:0:0:
276,124,120207,1,0,0:0:0:0:
304,152,120287,1,0,0:0:0:0:
344,160,120368,1,0,0:0:0:0:
376,184,120448,1,0,0:0:0:0:
380,224,120529,1,0,0:0:0:0:
352,252,120610,1,0,0:0:0:0:
312,256,120690,1,0,0:0:0:0:
276,240,120771,1,0,0:0:0:0:
240,224,120852,1,0,0:0:0:0:
200,232,120932,1,0,0:0:0:0:
160,240,121013,1,0,0:0:0:0:
120,228,121094,1,0,0:0:0:0:
92,200,121174,1,0,0:0:0:0:
84,160,121255,1,0,0:0:0:0:
100,124,121336,1,0,0:0:0:0:
136,104,121416,1,0,0:0:0:0:
136,104,121577,5,0,0:0:0:0:
136,104,121900,1,0,0:0:0:0:
332,148,122061,1,0,0:0:0:0:
212,224,122223,1,0,0:0:0:0:
408,188,122384,1,0,0:0:0:0:
220,320,125932,5,0,0:0:0:0:
208,64,126207,6,0,P|144:60|96:180,1,200
152,232,126633,2,0,P|216:236|264:116,1,200
292,100,126988,1,0,0:0:0:0:
304,60,127060,1,0,0:0:0:0:
336,36,127131,1,0,0:0:0:0:
376,36,127202,1,0,0:0:0:0:
408,60,127273,1,0,0:0:0:0:
424,96,127344,5,0,0:0:0:0:
428,224,127486,2,0,L|459:262,2,50
340,180,127770,1,0,0:0:0:0:
280,260,127913,1,0,0:0:0:0:
192,212,128055,1,0,0:0:0:0:
180,224,128126,1,0,0:0:0:0:
168,236,128197,1,0,0:0:0:0:
92,172,128339,1,0,0:0:0:0:
148,344,128481,5,0,0:0:0:0:
168,348,128552,1,0,0:0:0:0:
188,348,128624,1,0,0:0:0:0:
208,344,128695,1,0,0:0:0:0:
228,336,128766,1,0,0:0:0:0:
324,356,128908,1,0,0:0:0:0:
340,343,128979,1,0,0:0:0:0:
353,328,129050,1,0,0:0:0:0:
364,311,129121,1,0,0:0:0:0:
371,291,129192,1,0,0:0:0:0:
464,256,129334,1,0,0:0:0:0:
284,208,129477,1,0,0:0:0:0:
296,216,129548,1,0,0:0:0:0:
308,224,129619,5,0,0:0:0:0:
416,108,129761,2,0,L|444:92,4,25
320,132,130045,1,0,0:0:0:0:
488,168,130188,1,0,0:0:0:0:
300,48,130330,2,0,L|328:40,2,25
264,60,130472,1,0,0:0:0:0:
236,92,130543,1,0,0:0:0:0:
228,132,130614,1,0,0:0:0:0:
236,172,130685,1,0,0:0:0:0:
264,200,130756,6,0,L|376:224|376:224,1,100
268,220,131183,2,0,B|320:232|320:232|344:284|336:344|264:364,1,200
244,364,131538,1,0,0:0:0:0:
204,352,131609,1,0,0:0:0:0:
180,320,131680,1,0,0:0:0:0:
180,280,131752,1,0,0:0:0:0:
160,244,131823,1,0,0:0:0:0:
120,232,131894,5,0,0:0:0:0:
84,336,132036,2,0,L|36:360,2,50
96,148,132320,1,0,0:0:0:0:
40,260,132462,1,0,0:0:0:0:
224,196,132605,1,0,0:0:0:0:
228,188,132676,1,0,0:0:0:0:
232,180,132747,1,0,0:0:0:0:
120,232,132889,1,0,0:0:0:0:
228,284,133031,5,0,0:0:0:0:
248,280,133102,1,0,0:0:0:0:
264,272,133173,1,0,0:0:0:0:
280,260,133244,1,0,0:0:0:0:
292,244,133316,1,0,0:0:0:0:
392,244,133458,1,0,0:0:0:0:
400,225,133529,1,0,0:0:0:0:
404,207,133600,1,0,0:0:0:0:
405,188,133671,1,0,0:0:0:0:
400,169,133742,1,0,0:0:0:0:
304,140,133884,2,0,L|272:92,2,50
380,60,134169,5,0,0:0:0:0:
264,272,134311,1,0,0:0:0:0:
276,100,134453,1,0,0:0:0:0:
460,144,134595,5,0,0:0:0:0:
256,284,134737,1,0,0:0:0:0:
268,112,134879,1,0,0:0:0:0:
416,248,135022,5,0,0:0:0:0:
416,248,135306,6,0,P|372:220|320:216,1,100
196,224,135590,1,0,0:0:0:0:
428,332,135733,2,0,P|480:304|500:264,1,100
460,144,136017,1,0,0:0:0:0:
348,300,136159,1,0,0:0:0:0:
344,308,136230,1,0,0:0:0:0:
340,316,136301,1,0,0:0:0:0:
336,324,136372,1,0,0:0:0:0:
332,332,136443,6,0,B|288:356|288:356|232:356,2,100
264,256,136870,2,0,B|308:228|308:228|316:176,1,100
264,256,137154,1,0,0:0:0:0:
252,124,137297,2,0,L|216:104,4,25
172,180,137581,6,0,B|132:160|132:160|44:180,2,100
312,64,138007,2,0,B|352:84|352:84|440:64,1,100
324,196,138292,1,0,0:0:0:0:
444,244,138434,1,0,0:0:0:0:
440,260,138505,1,0,0:0:0:0:
436,276,138576,1,0,0:0:0:0:
420,280,138647,1,0,0:0:0:0:
404,284,138718,6,0,B|364:288|364:288|320:344,1,100
240,216,139003,1,0,0:0:0:0:
124,312,139145,2,0,L|232:328|232:328,1,100
352,143,139429,1,0,0:0:0:0:
332,140,139500,1,0,0:0:0:0:
311,136,139571,1,0,0:0:0:0:
291,132,139643,1,0,0:0:0:0:
271,128,139714,1,0,0:0:0:0:
352,143,139856,6,0,B|392:150|392:150|464:116,1,100
352,52,140140,1,0,0:0:0:0:
396,248,140282,1,0,0:0:0:0:
240,216,140425,2,0,B|236:176|236:176|276:124,1,100
472,264,140709,2,0,B|476:304|476:304|436:356,1,100
240,216,140993,6,0,B|268:188|268:188|356:172,2,100
264,300,141420,1,0,0:0:0:0:
400,216,141562,1,0,0:0:0:0:
312,84,141704,1,0,0:0:0:0:
176,168,141846,2,0,L|156:192,4,25
332,168,142131,5,0,0:0:0:0:
392,52,142273,1,0,0:0:0:0:
252,192,142415,1,0,0:0:0:0:
408,140,142557,2,0,B|384:84|316:72|272:112|272:112|244:104|220:120,1,200
344,254,142984,1,0,0:0:0:0:
360,248,143055,1,0,0:0:0:0:
371,242,143126,1,0,0:0:0:0:
382,236,143197,1,0,0:0:0:0:
393,230,143268,1,0,0:0:0:0:
252,192,143410,6,0,L|216:168,4,25
436,112,143695,2,0,L|472:132,4,25
276,52,143979,1,0,0:0:0:0:
248,80,144050,1,0,0:0:0:0:
208,88,144121,1,0,0:0:0:0:
172,100,144192,1,0,0:0:0:0:
148,132,144263,1,0,0:0:0:0:
140,172,144334,1,0,0:0:0:0:
152,212,144406,6,0,B|176:240|176:240|260:256,1,100
332,192,144690,1,0,0:0:0:0:
408,296,144832,2,0,L|396:352,2,50
292,352,145116,1,0,0:0:0:0:
472,240,145259,1,0,0:0:0:0:
476,223,145330,1,0,0:0:0:0:
480,211,145401,1,0,0:0:0:0:
475,195,145472,1,0,0:0:0:0:
471,180,145543,5,0,0:0:0:0:
332,192,145685,2,0,L|288:268,2,50
272,100,145970,1,0,0:0:0:0:
204,244,146112,1,0,0:0:0:0:
384,108,146254,1,0,0:0:0:0:
193,139,146396,2,0,L|175:173|175:173,4,25
332,192,146680,5,0,0:0:0:0:
124,220,146823,1,0,0:0:0:0:
108,224,146894,1,0,0:0:0:0:
92,228,146965,1,0,0:0:0:0:
280,288,147107,2,0,L|336:272,2,50
164,320,147391,1,0,0:0:0:0:
124,312,147462,1,0,0:0:0:0:
92,288,147534,1,0,0:0:0:0:
76,252,147605,1,0,0:0:0:0:
80,212,147676,1,0,0:0:0:0:
108,180,147747,1,0,0:0:0:0:
144,164,147818,6,0,B|183:151|183:151|254:161,1,100
180,236,148102,1,0,0:0:0:0:
280,100,148244,2,0,P|242:145|316:249,1,200
348,252,148600,1,0,0:0:0:0:
388,240,148671,2,0,L|408:212,4,25
464,112,148955,6,0,B|484:216,1,100
368,128,149240,1,0,0:0:0:0:
252,156,149382,2,0,L|288:52,1,100
172,100,149666,1,0,0:0:0:0:
116,184,149808,1,0,0:0:0:0:
100,168,149879,1,0,0:0:0:0:
84,148,149951,1,0,0:0:0:0:
76,124,150022,1,0,0:0:0:0:
68,100,150093,5,0,0:0:0:0:
172,100,150235,1,0,0:0:0:0:
52,248,150377,1,0,0:0:0:0:
200,216,150519,2,0,P|264:212|400:268,1,200
408,332,150875,1,0,0:0:0:0:
364,328,150946,1,0,0:0:0:0:
328,304,151017,1,0,0:0:0:0:
316,260,151088,2,0,L|324:224,2,25
389,259,151230,5,0,0:0:0:0:
244,304,151372,2,0,L|232:340,4,25
52,248,151657,2,0,P|84:176|216:144,1,200
240,156,152012,1,0,0:0:0:0:
288,152,152083,2,0,L|332:140,6,25
352,132,152368,6,0,B|396:116|396:116|412:72|384:16|324:16|296:32,1,200
256,244,152794,1,0,0:0:0:0:
360,144,152936,1,0,0:0:0:0:
224,44,153079,1,0,0:0:0:0:
264,256,153221,1,0,0:0:0:0:
368,156,153363,1,0,0:0:0:0:
232,56,153505,6,0,P|164:108|412:88,1,850
296,216,156064,5,0,0:0:0:0:
296,216,156384,1,0,0:0:0:0:
84,104,156704,5,0,0:0:0:0:
84,104,157024,1,0,0:0:0:0:
96,344,157344,5,0,0:0:0:0:
96,344,157664,1,0,0:0:0:0:
296,216,157984,5,0,0:0:0:0:
36,188,158304,1,0,0:0:0:0:
148,272,158464,1,0,0:0:0:0:
296,128,158784,5,0,0:0:0:0:
248,140,158864,1,0,0:0:0:0:
216,176,158944,1,0,0:0:0:0:
212,224,159024,1,0,0:0:0:0:
228,272,159104,1,0,0:0:0:0:
272,300,159184,1,0,0:0:0:0:
324,300,159264,1,0,0:0:0:0:
364,268,159344,1,0,0:0:0:0:
380,220,159424,1,0,0:0:0:0:
368,172,159504,1,0,0:0:0:0:
376,124,159584,1,0,0:0:0:0:
420,100,159664,1,0,0:0:0:0:
468,116,159744,1,0,0:0:0:0:
472,124,159824,1,0,0:0:0:0:
476,132,159904,1,0,0:0:0:0:
476,132,160224,5,0,0:0:0:0:
