osu file format v7

[General]
AudioFilename: lunatic_red_eyes.mp3
AudioLeadIn: 3000
PreviewTime: 35370
Countdown: 3
SampleSet: Soft
StackLeniency: 0.7
Mode: 0
LetterboxInBreaks: 0

[Editor]
DistanceSpacing: 1
BeatDivisor: 4
GridSize: 8

[Metadata]
Title:Lunatic Red Eyes
Artist:Innocent Key
Creator:varq
Version:Lunatic
Source:touhou
Tags:reisen inaba imperishable night

[Difficulty]
HPDrainRate:7
CircleSize:5
OverallDifficulty:8
SliderMultiplier:1.4
SliderTickRate:1

[Events]
//Background and Video events
//Break Periods
//Storyboard Layer 0 (Background)
//Storyboard Layer 1 (Fail)
//Storyboard Layer 2 (Pass)
//Storyboard Layer 3 (Foreground)
//Storyboard Sound Samples
//Background Colour Transformations
3,100,0,0,0

[TimingPoints]
3370.59020872745,333.333333333333,4,2,0,100,1,0

[Colours]
Combo1 : 250,18,18
Combo2 : 202,0,202
Combo3 : 245,177,245

[HitObjects]
88,88,703,1,0
312,99,1037,2,0,B|368:43,1,70
346,160,1370,2,0,B|418:160,1,70
321,220,1703,2,0,B|377:276,1,70
193,287,2037,5,0
139,69,2370,2,0,B|211:69,1,70
303,128,2703,2,0,B|231:128,1,70
136,186,3037,2,0,B|208:186,1,70
372,252,3370,5,0
316,35,3703,2,0,B|383:62,1,70
289,127,4037,2,0,B|375:118,1,70
310,221,4370,2,0,B|371:180,1,70
117,213,4703,6,0,B|122:216|112:225|87:203|154:222|113:217|103:215|103:209|116:213,4,35,0|0|0|0|0
432,179,5370,6,0,B|432:189|432:177|434:183|433:186|455:140|406:201|435:178,4,35,0|0|0|0|0
215,118,6037,5,0
342,73,6371,2,0,L|348:57|414:73,1,70
309,136,6704,2,0,L|291:169|237:136,1,70
224,46,7037,2,0,L|278:28|296:46,1,70
131,195,7371,5,0
295,201,7704,2,0,L|282:222|252:194|223:201,1,70,0|0
172,278,8037,2,0,L|197:285|210:312|244:278,1,70
330,281,8371,2,0,L|357:302|375:280|402:281,1,70
400,84,8704,5,0
223,141,9037,2,0,L|264:159|295:141,1,70
383,203,9371,2,0,L|412:191|455:203,1,70
394,299,9704,2,0,L|394:326|332:357,1,70,0|0
138,269,10037,6,0,L|137:260|136:264|136:260|131:269|139:269,4,35,0|0|0|0|0
379,85,10704,6,0,L|385:91|380:85|382:88|374:88|382:87,4,35
74,84,11370,6,0,L|61:87|134:129,1,70,0|0
329,164,11870,1,0
127,261,12203,1,0
344,316,12537,1,0
452,120,12870,1,0
425,102,12953,1,0
395,91,13037,1,0
284,78,13203,2,0,B|200:49|132:166|259:214,1,210
443,270,14037,5,0
340,226,14203,2,0,B|277:200|377:101|227:95,3,140,0|0|0|0
179,78,15370,5,0
147,92,15453,1,0
124,118,15537,1,0
110,150,15620,1,0
144,144,15704,1,0
177,152,15787,1,0
206,170,15870,1,0
227,197,15953,1,0
200,219,16037,1,0
167,232,16120,1,0
132,235,16203,1,0
99,221,16287,1,0
105,255,16370,1,0
127,281,16453,1,0
158,296,16537,1,0
192,303,16620,1,0
226,304,16703,5,0
336,283,16870,1,0
412,72,17203,1,0
440,180,17370,1,0
231,99,17703,1,0
311,177,17870,1,0
467,337,18203,5,0
383,262,18370,1,0
489,226,18537,1,0
405,151,18704,1,0
383,260,18870,1,0
299,185,19037,1,0
405,151,19203,1,0
321,76,19370,5,0
214,110,19537,1,0
339,295,19870,1,0
233,332,20037,1,0
156,121,20370,1,0
133,230,20537,1,0
356,225,20870,5,0
417,130,21037,1,0
307,148,21203,1,0
218,216,21370,1,0
197,244,21453,1,0
232,243,21537,1,0
216,132,21703,1,0
243,109,21787,1,0
208,102,21870,1,0
100,133,22037,5,0
52,234,22204,1,0
260,347,22537,1,0
359,295,22704,1,0
397,74,23037,1,0
285,87,23204,1,0
91,199,23537,5,0
93,86,23704,1,0
187,144,23870,1,0
91,199,24037,1,0
81,310,24203,1,0
185,267,24371,1,0
282,213,24537,1,0
460,203,24704,5,0
396,110,24870,1,0
181,43,25204,1,0
124,139,25371,1,0
347,124,25704,1,0
352,236,25871,1,0
143,317,26204,1,0
199,220,26371,1,0
87,220,26537,1,0
148,126,26704,1,0
180,126,26787,1,0
212,126,26871,1,0
302,61,27037,1,0
270,61,27120,1,0
238,61,27204,1,0
126,59,27370,5,0
64,153,27537,1,0
287,137,27870,1,0
224,230,28037,1,0
445,196,28370,1,0
388,293,28537,1,0
315,81,28870,1,0
255,175,29037,1,0
200,76,29204,1,0
145,173,29370,1,0
257,176,29537,1,0
369,176,29704,1,0
316,274,29870,1,0
203,270,30037,5,0
90,273,30204,1,0
98,49,30537,1,0
48,149,30704,1,0
270,129,31037,1,0
360,62,31204,1,0
403,281,31537,1,0
346,183,31704,1,0
415,95,31870,1,0
433,205,32037,1,0
405,226,32120,1,0
376,247,32204,1,0
266,268,32370,1,0
236,247,32454,1,0
206,228,32537,1,0
149,131,32703,5,0
244,72,32870,1,0
464,109,33203,1,0
367,166,33370,1,0
205,320,33703,1,0
306,272,33870,1,0
345,51,34203,1,0
248,108,34370,1,0
360,113,34537,1,0
265,171,34703,1,0
172,235,34870,1,0
284,231,35037,1,0
194,297,35203,1,0
81,293,35370,5,0
79,180,35537,1,0
253,39,35870,1,0
364,47,36037,1,0
339,269,36370,1,0
234,227,36537,1,0
85,59,36870,1,0
176,124,37037,1,0
264,191,37203,1,0
336,105,37370,1,0
353,75,37453,1,0
382,57,37537,1,0
422,160,37703,1,0
395,182,37787,1,0
380,213,37870,1,0
329,313,38037,5,0
113,254,38370,2,0,B|197:228|203:143,1,140
144,59,38870,1,0
324,191,39203,1,0
139,318,39537,2,0,B|184:272|233:295,1,70
421,253,40037,5,0
389,267,40120,1,0
392,232,40203,1,0
409,121,40370,1,0
297,132,40537,1,0
211,203,40703,1,0
354,30,41037,1,0
250,70,41203,1,0
69,204,41537,1,0
284,264,41870,5,0
392,236,42037,1,0
360,220,42120,1,0
192,215,42370,1,0
277,142,42537,1,0
244,129,42620,1,0
86,142,42870,1,0
161,59,43037,1,0
127,49,43120,1,0
256,192,43370,1,0
256,192,43703,5,0
256,192,44037,1,0
256,192,44203,1,0
256,192,44537,1,0
256,192,44870,1,0
256,192,45037,1,0
256,192,45370,1,0
256,192,45703,1,0
256,192,45870,1,0
256,192,46203,1,0
256,192,46370,1,0
256,192,46537,1,0
256,192,46870,1,0
256,192,46953,1,0
256,192,47037,1,0
256,192,47203,1,0
256,192,47703,1,0
256,192,47870,1,0
256,192,48036,1,0
256,192,48203,1,0
256,192,48370,1,0
256,192,48536,1,0
256,192,48703,1,0
256,192,49037,1,0
256,192,49370,1,0
256,192,49537,1,0
256,192,49870,1,0
256,192,50203,1,0
256,192,50370,1,0
256,192,50703,1,0
256,192,50870,1,0
256,192,51037,1,0
256,192,51370,1,0
256,192,51703,1,0
256,192,51870,1,0
256,192,52203,1,0
256,192,52370,1,0
256,192,52536,1,0
256,192,53037,1,0
256,192,53370,1,0
256,192,53453,1,0
256,192,53536,1,0
256,192,53703,1,0
256,192,53870,1,0
256,192,54036,1,0
256,192,54370,1,0
256,192,54703,1,0
256,192,54870,1,0
256,192,55203,1,0
256,192,55537,1,0
256,192,55703,1,0
256,192,56037,1,0
256,192,56203,1,0
256,192,56370,1,0
256,192,56537,1,0
256,192,56870,1,0
256,192,57037,1,0
256,192,57203,1,0
256,192,57537,1,0
256,192,57703,1,0
256,192,57870,1,0
256,192,58370,1,0
256,192,58453,1,0
256,192,58537,1,0
256,192,58703,1,0
256,192,58787,1,0
256,192,58870,1,0
256,192,59037,1,0
256,192,59370,1,0
256,192,59870,1,0
256,192,60037,1,0
256,192,60203,1,0
256,192,60537,1,0
256,192,61037,1,0
256,192,61203,1,0
256,192,61370,1,0
256,192,61537,1,0
256,192,61703,1,0
256,192,61870,1,0
256,192,62037,1,0
256,192,62203,1,0
256,192,62370,1,0
256,192,62537,1,0
256,192,62703,1,0
256,192,62870,1,0
256,192,63203,1,0
256,192,63537,1,0
256,192,63704,1,0
256,192,64037,1,0
256,192,64371,1,0
256,192,64703,1,0
256,192,65037,1,0
256,192,65203,1,0
256,192,65370,1,0
256,192,65537,1,0
256,192,65870,1,0
256,192,66536,1,0
256,192,66703,1,0
256,192,66870,1,0
256,192,67203,1,0
256,192,67703,1,0
256,192,68037,1,0
256,192,68370,1,0
256,192,68537,1,0
256,192,68703,1,0
256,192,68870,1,0
256,192,69203,1,0
256,192,69370,1,0
256,192,69703,1,0
256,192,70037,1,0
256,192,70536,1,0
256,192,70703,1,0
256,192,70870,1,0
256,192,71203,1,0
256,192,71536,1,0
256,192,71703,1,0
256,192,72037,1,0
256,192,72370,1,0
256,192,72703,1,0
256,192,73037,1,0
256,192,73203,1,0
256,192,73370,1,0
256,192,73537,1,0
256,192,73870,1,0
256,192,74203,1,0
256,192,74370,1,0
256,192,74703,1,0
256,192,75037,1,0
256,192,75370,1,0
256,192,75703,1,0
256,192,75870,1,0
256,192,76036,1,0
256,192,76203,1,0
256,192,76536,1,0
256,192,77037,1,0
256,192,77370,1,0
256,192,77703,1,0
256,192,78037,1,0
256,192,78203,1,0
256,192,78370,1,0
256,192,78537,1,0
256,192,78703,1,0
256,192,78870,1,0
256,192,79037,1,0
256,192,79203,1,0
256,192,79287,1,0
256,192,79370,1,0
256,192,79453,1,0
256,192,79537,1,0
256,192,79620,1,0
256,192,79703,1,0
256,192,79787,1,0
256,192,79870,1,0
256,192,79953,1,0
256,192,80037,1,0
256,192,80120,1,0
256,192,80203,1,0
256,192,80287,1,0
256,192,80370,1,0
256,192,80453,1,0
256,192,80537,1,0
256,192,81037,1,0
256,192,81370,1,0
256,192,81703,1,0
256,192,81870,1,0
256,192,82037,1,0
256,192,82203,1,0
256,192,82370,1,0
256,192,82537,1,0
256,192,82703,1,0
256,192,83203,1,0
256,192,83537,1,0
256,192,83703,1,0
256,192,83870,1,0
256,192,84037,1,0
256,192,84120,1,0
256,192,84203,1,0
256,192,84370,1,0
256,192,84453,1,0
256,192,84537,1,0
256,192,84703,1,0
256,192,84787,1,0
256,192,84870,1,0
256,192,85037,1,0
256,192,85120,1,0
256,192,85203,1,0
256,192,85370,1,0
256,192,86037,1,0
256,192,86370,1,0
256,192,86703,1,0
256,192,87037,1,0
256,192,87203,1,0
256,192,87370,1,0
256,192,87537,1,0
256,192,87703,1,0
256,192,87870,1,0
256,192,88037,1,0
256,192,88537,1,0
256,192,88870,1,0
256,192,89037,1,0
256,192,89203,1,0
256,192,89370,1,0
256,192,89453,1,0
256,192,89537,1,0
256,192,89703,1,0
256,192,89787,1,0
256,192,89870,1,0
256,192,90037,1,0
