osu file format v7

[General]
AudioFilename: lunatic_red_eyes.mp3
AudioLeadIn: 500
PreviewTime: 35370
Countdown: 3
SampleSet: Soft
StackLeniency: 0.7
Mode: 0
LetterboxInBreaks: 0

[Editor]
DistanceSpacing: 1.60000002384186
BeatDivisor: 2
GridSize: 8

[Metadata]
Title:Lunatic Red Eyes
Artist:Innocent Key
Creator:varq
Version:Easy
Source:touhou
Tags:reisen

[Difficulty]
HPDrainRate:5
CircleSize:5
OverallDifficulty:7
SliderMultiplier:0.8
SliderTickRate:1

[Events]
//Background and Video events
//Break Periods
2,110070,117137
//Storyboard Layer 0 (Background)
//Storyboard Layer 1 (Fail)
//Storyboard Layer 2 (Pass)
//Storyboard Layer 3 (Foreground)
//Storyboard Sound Samples
//Background Colour Transformations
3,100,0,0,0

[TimingPoints]
3370.59020872745,333.333333333333,4,2,0,100,1,0

[Colours]
Combo1 : 250,18,18
Combo2 : 202,0,202
Combo3 : 245,177,245

[HitObjects]
116,130,703,2,0,B|396:129,1,240
236,175,2037,2,0,B|484:170,1,240
31,167,3370,2,0,B|299:166,1,240
145,131,4703,2,0,B|252:134,1,80
127,104,5370,2,0,B|212:109,1,80
94,189,6037,2,0,B|358:187,1,240
94,259,7370,2,0,B|343:260,1,240
74,208,8703,2,0,B|337:209,1,240
127,191,10037,2,0,B|216:191,1,80
92,191,10703,2,0,B|189:190,1,80
256,192,11370,1,0
256,192,12037,1,0
256,192,12703,1,0
181,213,13370,2,0,B|289:211,2,80
256,192,14703,1,0
256,192,15370,1,0
196,186,16037,2,0,B|288:189,2,80
256,192,17370,1,0
256,192,18037,1,0
256,192,18703,1,0
256,192,19037,1,0
256,192,19370,1,0
256,192,20037,1,0
256,192,20703,1,0
256,192,21370,1,0
256,192,21703,1,0
256,192,22037,1,0
256,192,22703,1,0
256,192,23370,1,0
256,192,24037,1,0
256,192,24370,1,0
256,192,24703,1,0
256,192,25370,1,0
256,192,26037,1,0
256,192,26703,1,0
256,192,27037,1,0
256,192,27370,1,0
256,192,28037,1,0
256,192,28703,1,0
256,192,29370,1,0
256,192,29703,1,0
256,192,30037,1,0
256,192,30703,1,0
256,192,31370,1,0
256,192,32037,1,0
256,192,32370,1,0
256,192,32703,1,0
256,192,33370,1,0
256,192,34037,1,0
256,192,34703,1,0
256,192,35037,1,0
256,192,35370,1,0
256,192,36037,1,0
256,192,36703,1,0
256,192,37370,1,0
256,192,37703,1,0
256,192,38037,1,0
256,192,38370,1,0
256,192,38703,2,0,B|392:192,2,120
256,192,40370,1,0
256,192,40703,1,0
144,208,41203,2,0,B|336:208,2,160
256,192,43370,1,0
256,192,43703,1,0
200,200,44537,2,0,B|328:192,1,120
256,192,45870,1,0
256,192,46537,1,0
256,192,47203,1,0
256,192,48703,1,0
256,192,49037,1,0
256,192,49870,1,0
256,192,50370,1,0
256,192,51370,1,0
256,192,51870,1,0
256,192,52370,1,0
256,192,52703,1,0
256,192,54037,1,0
128,208,54370,2,0,B|176:208,3,40
256,192,55203,1,0
256,192,55703,1,0
256,192,56537,1,0
256,192,57203,1,0
256,192,57870,1,0
256,192,58703,1,0
256,192,59370,1,0
256,192,60703,1,0
256,192,61370,1,0
256,192,62037,1,0
256,192,63203,1,0
256,192,63703,1,0
256,192,64703,1,0
256,192,65870,1,0
256,192,67203,1,0
256,192,68703,1,0
256,192,69037,1,0
256,192,69370,1,0
256,192,69703,1,0
256,192,70037,1,0
256,192,70537,1,0
256,192,71203,1,0
256,192,72037,1,0
256,192,72703,1,0
256,192,73203,1,0
256,192,74037,1,0
256,192,75370,1,0
256,192,76703,1,0
256,192,78037,1,0
256,192,79037,1,0
256,192,79370,1,0
256,192,80537,1,0
256,192,81370,1,0
256,192,82037,1,0
256,192,82703,1,0
256,192,83370,1,0
256,192,84037,1,0
256,192,84703,1,0
256,192,85370,1,0
256,192,85703,1,0
256,192,86037,1,0
256,192,86703,1,0
256,192,87370,1,0
256,192,88037,1,0
256,192,88703,1,0
256,192,89370,1,0
256,192,90037,1,0
256,192,90703,1,0
256,192,91370,1,0
256,192,92037,1,0
256,192,92703,1,0
256,192,93370,1,0
256,192,93703,1,0
256,192,94037,1,0
256,192,94703,1,0
256,192,95370,1,0
256,192,96037,1,0
256,192,96370,1,0
256,192,96703,1,0
256,192,97370,1,0
256,192,98037,1,0
256,192,98703,1,0
256,192,99370,1,0
256,192,100037,1,0
256,192,100703,1,0
256,192,101037,1,0
256,192,101370,1,0
256,192,101703,1,0
256,192,102037,1,0
256,192,103370,1,0
256,192,104703,1,0
256,192,107370,1,0
256,192,108703,1,0
256,192,109870,1,0
256,192,118037,5,0
256,192,119370,1,0
256,192,120703,1,0
256,192,122037,1,0
256,192,122370,1,0
256,192,122703,1,0
256,192,123037,1,0
256,192,123370,1,0
256,192,124037,1,0
256,192,124703,1,0
256,192,125370,1,0
256,192,125703,1,0
256,208,126037,1,0
256,192,126703,1,0
256,208,127370,1,0
256,192,128037,1,0
256,208,128370,1,0
256,208,128703,1,0
256,192,129370,1,0
256,208,130037,1,0
256,192,130703,1,0
256,208,131037,1,0
256,208,131370,1,0
256,192,132037,1,0
256,208,132537,1,0
