osu file format v12

[General]
AudioFilename: Innocent Key - Lunatic Red Eyes.mp3
AudioLeadIn: 0
PreviewTime: 80344
Countdown: 0
SampleSet: Normal
StackLeniency: 0.7
Mode: 0
LetterboxInBreaks: 1

[Editor]
Bookmarks: 16844,38178,58178,80844,102178,123511,132844,155511,176844,187511,214178,235511,256844,276844
DistanceSpacing: 2
BeatDivisor: 4
GridSize: 4

[Metadata]
Title:Lunatic Red Eyes
TitleUnicode:Lunatic Red Eyes
Artist:Innocent Key
ArtistUnicode:Innocent Key
Creator:asaink
Version:Lunatic
Source:Touhou
Tags:reisen udongein inaba Invisible Full Moon ZUN Yu Mizogushi Ciel rouran c75
BeatmapID:252237
BeatmapSetID:93522

[Difficulty]
HPDrainRate:6
CircleSize:4
OverallDifficulty:7
ApproachRate:9
SliderMultiplier:2.2
SliderTickRate:1

[Events]
//Background and Video events
0,0,"BG.jpg",0,0
//Break Periods
2,27844,34511
2,102844,112178
2,177178,186178
//Storyboard Layer 0 (Background)
//Storyboard Layer 1 (Fail)
//Storyboard Layer 2 (Pass)
//Storyboard Layer 3 (Foreground)
//Storyboard Sound Samples
//Background Colour Transformations
3,100,163,162,255

[TimingPoints]
845,333.333333333333,4,1,0,60,1,0
16511,-100,4,1,0,70,0,0
16844,-100,4,1,0,45,0,1
16928,-100,4,1,0,70,0,1
22094,-100,4,1,0,45,0,1
22261,-100,4,1,0,70,0,1
27511,-100,4,1,0,45,0,0
38428,-100,4,1,0,60,0,0
59428,-100,4,1,0,45,0,0
59594,-100,4,1,0,65,0,0
62094,-100,4,1,0,45,0,0
62261,-100,4,1,0,65,0,0
64761,-100,4,1,0,45,0,0
64928,-100,4,1,0,65,0,0
70094,-100,4,1,0,45,0,0
70261,-100,4,1,0,65,0,0
72761,-100,4,1,0,45,0,0
72928,-100,4,1,0,65,0,0
75428,-100,4,1,0,45,0,0
75594,-100,4,1,0,65,0,0
79761,-100,4,1,0,45,0,0
79928,-100,4,1,0,65,0,0
80678,-100,4,1,0,70,0,1
102511,-100,4,1,0,60,0,0
117428,-100,4,1,0,5,0,0
117761,-100,4,1,0,60,0,0
123428,-100,4,1,0,45,0,0
123761,-100,4,1,0,60,0,0
128761,-100,4,1,0,45,0,0
128928,-100,4,1,0,60,0,0
134094,-100,4,1,0,45,0,0
134261,-100,4,1,0,65,0,0
136761,-100,4,1,0,45,0,0
136928,-100,4,1,0,65,0,0
139428,-100,4,1,0,45,0,0
139594,-100,4,1,0,65,0,0
144761,-100,4,1,0,45,0,0
144928,-100,4,1,0,65,0,0
147428,-100,4,1,0,45,0,0
147594,-100,4,1,0,65,0,0
150094,-100,4,1,0,45,0,0
150261,-100,4,1,0,65,0,0
154428,-100,4,1,0,45,0,0
154594,-100,4,1,0,65,0,0
155344,-100,4,1,0,70,0,1
176844,-100,4,1,0,70,0,0
176928,-100,4,1,0,65,0,0
187428,-100,4,1,0,45,0,0
187594,-100,4,1,0,65,0,0
187928,-100,4,1,0,45,0,0
188094,-100,4,1,0,65,0,0
189261,-100,4,1,0,45,0,0
189428,-100,4,1,0,65,0,0
192761,-100,4,1,0,45,0,0
192928,-100,4,1,0,65,0,0
198094,-100,4,1,0,45,0,0
198428,-100,4,1,0,35,0,0
198594,-100,4,1,0,65,0,0
199094,-100,4,1,0,35,0,0
199261,-100,4,1,0,65,0,0
199761,-100,4,1,0,35,0,0
199928,-100,4,1,0,65,0,0
200428,-100,4,1,0,35,0,0
200594,-100,4,1,0,65,0,0
203428,-100,4,1,0,45,0,0
203594,-100,4,1,0,65,0,0
207261,-100,4,1,0,90,0,0
208761,-100,4,1,0,45,0,0
208928,-100,4,1,0,90,0,0
210428,-100,4,1,0,35,0,0
210594,-100,4,1,0,65,0,0
211094,-100,4,1,0,35,0,0
211261,-100,4,1,0,65,0,0
211761,-100,4,1,0,35,0,0
211928,-100,4,1,0,65,0,0
212428,-100,4,1,0,35,0,0
212594,-100,4,1,0,65,0,0
213094,-100,4,1,0,45,0,0
213261,-100,4,1,0,65,0,0
214011,-100,4,1,0,70,0,1
235511,-100,4,1,0,45,0,0
235594,-100,4,1,0,70,0,0
241428,-100,4,1,0,45,0,0
241594,-100,4,1,0,70,0,0
246094,-100,4,1,0,45,0,0
246261,-100,4,1,0,70,0,0
251428,-100,4,1,0,45,0,0
251594,-100,4,1,0,70,0,0
256761,-100,4,1,0,45,0,0
257094,-100,4,1,0,60,0,0
262094,-100,4,1,0,45,0,0
262261,-100,4,1,0,60,0,0
266928,-100,4,1,0,70,0,0

[Colours]
Combo1 : 239,1,37
Combo2 : 255,147,255
Combo3 : 0,0,121
Combo4 : 64,128,128

[HitObjects]
256,360,16511,1,8,0:0:0:0:
464,288,16678,1,8,0:0:0:0:
288,160,16844,6,0,P|176:200|88:256,1,220,0|8,0:0|0:0,0:0:0:0:
8,328,17344,1,0,0:0:0:0:
128,368,17511,1,0,0:0:0:0:
256,360,17678,1,0,0:0:0:0:
376,320,17844,2,0,P|424:288|464:248,2,110,8|0|0,0:0|0:0|0:0,0:0:0:0:
256,360,18344,5,0,0:0:0:0:
136,320,18511,1,8,0:0:0:0:
236,248,18678,1,0,0:0:0:0:
120,208,18844,1,0,0:0:0:0:
104,204,18928,1,0,0:0:0:0:
88,200,19011,1,0,0:0:0:0:
224,136,19178,1,8,0:0:0:0:
236,132,19261,1,0,0:0:0:0:
252,128,19344,1,0,0:0:0:0:
372,88,19511,6,0,P|468:128|484:236,1,220,0|8,0:0|0:0,0:0:0:0:
444,352,20011,1,0,0:0:0:0:
332,292,20178,1,0,0:0:0:0:
256,192,20344,1,0,0:0:0:0:
184,88,20511,2,0,P|140:52|88:36,2,110,8|0|0,0:0|0:0|0:0,0:0:0:0:
256,192,21011,5,0,0:0:0:0:
152,264,21178,1,8,0:0:0:0:
92,152,21344,1,0,0:0:0:0:
28,260,21511,1,0,0:0:0:0:
28,260,21594,1,0,0:0:0:0:
28,260,21678,1,0,0:0:0:0:
92,368,21844,1,8,0:0:0:0:
92,368,21928,1,0,0:0:0:0:
92,368,22011,1,0,0:0:0:0:
312,348,22178,6,0,L|424:348,2,110,4|0|8,0:0|0:0|0:0,0:0:0:0:
252,236,22678,1,0,0:0:0:0:
192,124,22844,2,0,L|80:124,2,110,0|0|8,0:0|0:0|0:0,0:0:0:0:
320,124,23344,1,0,0:0:0:0:
448,124,23511,5,0,0:0:0:0:
408,244,23678,1,0,0:0:0:0:
288,204,23844,1,8,0:0:0:0:
328,83,24011,1,0,0:0:0:0:
432,156,24178,1,0,0:0:0:0:
435,282,24344,1,0,0:0:0:0:
309,285,24511,1,8,0:0:0:0:
304,155,24678,1,0,0:0:0:0:
204,80,24844,6,0,P|112:136|40:224,1,220,0|8,0:0|0:0,0:0:0:0:
76,344,25344,1,0,0:0:0:0:
200,316,25511,1,0,0:0:0:0:
312,256,25678,1,0,0:0:0:0:
384,152,25844,2,0,L|488:192,2,110,8|0|0,0:0|0:0|0:0,0:0:0:0:
256,144,26344,6,0,L|152:104,2,110,0|8|0,0:0|0:0|0:0,0:0:0:0:
312,256,26844,1,0,0:0:0:0:
312,256,26928,1,0,0:0:0:0:
312,256,27011,1,0,0:0:0:0:
200,360,27178,1,8,0:0:0:0:
60,256,27344,1,0,0:0:0:0:
16,40,27511,1,4,0:0:0:0:
256,192,35511,12,4,38178,0:0:0:0:
60,336,38511,6,0,P|28:236|106:162,1,220,8|0,0:0|0:0,0:0:0:0:
207,126,39011,1,0,0:0:0:0:
311,92,39178,1,8,0:0:0:0:
416,60,39344,2,0,P|447:159|400:264,1,220
324,340,39844,1,8,0:0:0:0:
216,320,40011,1,0,0:0:0:0:
184,312,40094,1,0,0:0:0:0:
152,300,40178,1,0,0:0:0:0:
88,252,40344,1,0,0:0:0:0:
28,188,40511,2,0,P|1:139|1:85,1,110,8|0,0:0|0:0,0:0:0:0:
104,44,40844,6,0,P|192:92|232:200,1,220,0|8,0:0|0:0,0:0:0:0:
208,308,41344,1,0,0:0:0:0:
116,368,41511,1,0,0:0:0:0:
24,308,41678,2,0,P|40:200|116:124,1,220
248,68,42178,5,0,0:0:0:0:
116,124,42344,1,0,0:0:0:0:
248,180,42511,1,8,0:0:0:0:
116,236,42678,1,0,0:0:0:0:
248,292,42844,5,0,0:0:0:0:
273,302,42928,1,0,0:0:0:0:
299,312,43011,1,0,0:0:0:0:
325,321,43094,1,0,0:0:0:0:
351,329,43178,1,8,0:0:0:0:
377,336,43261,1,0,0:0:0:0:
404,342,43344,1,0,0:0:0:0:
431,347,43428,1,0,0:0:0:0:
458,351,43511,1,4,0:0:0:0:
204,140,43844,5,8,0:0:0:0:
296,80,44011,1,0,0:0:0:0:
296,80,44178,2,0,L|404:52,1,110
360,156,44511,1,8,0:0:0:0:
416,252,44678,1,0,0:0:0:0:
416,252,44844,2,0,L|492:172,2,110,0|0|8,0:0|0:0|0:0,0:0:0:0:
256,192,45511,1,0,0:0:0:0:
76,64,45844,5,8,0:0:0:0:
256,192,46011,1,0,0:0:0:0:
120,304,46344,6,0,L|24:360,2,110,0|8|0,0:0|0:0|0:0,0:0:0:0:
404,304,47011,2,0,L|500:360,2,110,0|8|0,0:0|0:0|0:0,0:0:0:0:
300,268,47511,5,0,0:0:0:0:
192,244,47678,1,0,0:0:0:0:
96,192,47844,1,8,0:0:0:0:
36,100,48011,1,0,0:0:0:0:
128,40,48178,5,0,0:0:0:0:
165,43,48261,1,0,0:0:0:0:
202,48,48344,1,0,0:0:0:0:
240,55,48428,1,0,0:0:0:0:
278,62,48511,1,8,0:0:0:0:
316,71,48594,1,0,0:0:0:0:
352,80,48678,1,0,0:0:0:0:
389,89,48761,1,0,0:0:0:0:
426,100,48844,1,4,0:0:0:0:
240,220,49178,5,8,0:0:0:0:
148,280,49344,1,0,0:0:0:0:
148,280,49511,2,0,P|188:316|244:328,1,110
348,300,49844,1,8,0:0:0:0:
348,300,50011,2,0,P|384:260|396:204,1,110
364,100,50344,1,0,0:0:0:0:
364,100,50511,2,0,P|324:64|268:52,1,110,8|0,0:0|0:0,0:0:0:0:
164,84,50844,1,0,0:0:0:0:
164,84,51011,2,0,P|128:124|116:180,1,110,0|8,0:0|0:0,0:0:0:0:
148,284,51344,5,0,0:0:0:0:
148,284,51511,2,0,P|208:360|324:368,1,220,0|8,0:0|0:0,0:0:0:0:
424,324,52011,1,0,0:0:0:0:
491,235,52178,1,0,0:0:0:0:
448,136,52344,2,0,P|436:88|452:28,2,110,0|8|0,0:0|0:0|0:0,0:0:0:0:
491,235,52844,5,0,0:0:0:0:
347,245,53011,1,0,0:0:0:0:
204,256,53178,1,8,0:0:0:0:
60,266,53344,1,0,0:0:0:0:
24,144,53511,1,0,0:0:0:0:
24,144,53594,1,0,0:0:0:0:
24,144,53678,1,0,0:0:0:0:
24,144,53844,1,8,0:0:0:0:
96,60,54011,1,0,0:0:0:0:
144,160,54178,1,4,0:0:0:0:
16,340,54511,5,8,0:0:0:0:
16,340,54678,2,0,P|72:336|124:320,1,110
296,288,55011,1,0,0:0:0:0:
296,288,55178,2,0,P|240:284|188:268,1,110,8|0,0:0|0:0,0:0:0:0:
112,232,55511,1,0,0:0:0:0:
112,232,55678,2,0,P|96:180|96:124,1,110,0|8,0:0|0:0,0:0:0:0:
256,192,56178,1,0,0:0:0:0:
436,64,56511,5,8,0:0:0:0:
256,192,56678,1,0,0:0:0:0:
392,304,57011,6,0,L|488:360,2,110,0|8|0,0:0|0:0|0:0,0:0:0:0:
104,304,57678,2,2,P|52:280|28:232,1,110,2|10,0:0|0:0,0:0:0:0:
16,168,58011,2,2,B|112:124|236:212|340:168,1,330,2|10,0:0|0:0,0:0:0:0:
152,60,58844,1,0,0:0:0:0:
372,60,59178,1,8,0:0:0:0:
464,260,59511,5,4,0:0:0:0:
464,260,59594,1,0,0:0:0:0:
464,260,59678,2,0,P|432:304|384:332,1,110,0|8,0:0|0:0,0:0:0:0:
276,356,60011,1,0,0:0:0:0:
168,336,60178,1,0,0:0:0:0:
72,284,60344,1,0,0:0:0:0:
12,192,60511,1,8,0:0:0:0:
0,84,60678,2,0,P|108:96|128:192,1,220
72,284,61178,5,8,0:0:0:0:
180,280,61344,1,0,0:0:0:0:
288,256,61511,1,0,0:0:0:0:
380,196,61678,1,0,0:0:0:0:
440,104,61844,1,8,0:0:0:0:
440,104,61928,1,0,0:0:0:0:
440,104,62011,1,0,0:0:0:0:
440,104,62094,1,0,0:0:0:0:
440,104,62178,2,0,P|323:61|397:161,1,330,4|0,0:0|0:0,0:0:0:0:
252,160,62844,5,0,0:0:0:0:
252,160,63011,1,0,0:0:0:0:
252,160,63178,1,8,0:0:0:0:
152,116,63344,2,0,L|240:48,2,110
68,188,63844,1,8,0:0:0:0:
200,364,64178,6,0,L|144:376,1,55
308,340,64428,2,0,L|364:328,1,55,0|8,0:0|0:0,0:0:0:0:
468,300,64678,5,0,0:0:0:0:
468,300,64761,1,0,0:0:0:0:
468,300,64844,2,0,P|444:208|344:140,1,220,4|8,0:0|0:0,0:0:0:0:
240,108,65344,1,0,0:0:0:0:
132,96,65511,1,0,0:0:0:0:
36,152,65678,1,0,0:0:0:0:
0,256,65844,1,8,0:0:0:0:
36,360,66011,2,0,B|368:344,1,330,0|8,0:0|0:0,0:0:0:0:
472,316,66678,5,0,0:0:0:0:
372,272,66844,1,0,0:0:0:0:
272,224,67011,1,0,0:0:0:0:
172,180,67178,1,8,0:0:0:0:
72,136,67344,2,0,P|132:80|364:92,1,330,0|8,0:0|0:0,0:0:0:0:
120,244,68178,1,0,0:0:0:0:
404,264,68511,1,8,0:0:0:0:
184,80,68844,1,0,0:0:0:0:
240,360,69178,1,8,0:0:0:0:
384,112,69511,6,0,L|440:112,1,55
296,112,69761,1,0,0:0:0:0:
296,112,69844,1,8,0:0:0:0:
296,112,69928,1,0,0:0:0:0:
296,112,70011,1,0,0:0:0:0:
296,112,70094,1,0,0:0:0:0:
296,112,70178,6,0,P|196:112|100:180,1,220,4|8,0:0|0:0,0:0:0:0:
28,264,70678,1,0,0:0:0:0:
28,264,70844,1,0,0:0:0:0:
88,356,71011,1,0,0:0:0:0:
88,356,71178,1,8,0:0:0:0:
148,220,71344,2,0,P|256:192|360:220,1,220
480,264,71844,5,8,0:0:0:0:
480,264,72011,1,0,0:0:0:0:
420,356,72178,1,0,0:0:0:0:
420,356,72344,1,0,0:0:0:0:
360,264,72511,1,8,0:0:0:0:
360,264,72678,1,0,0:0:0:0:
360,264,72761,1,0,0:0:0:0:
360,264,72844,2,0,P|245:224|322:323,1,330,4|0,0:0|0:0,0:0:0:0:
432,308,73511,5,0,0:0:0:0:
492,216,73678,1,0,0:0:0:0:
472,108,73844,1,8,0:0:0:0:
380,48,74011,2,0,P|324:40|272:60,2,110
472,108,74511,1,8,0:0:0:0:
296,240,74844,6,0,L|340:272,1,55
212,168,75094,2,0,L|168:136,1,55,0|8,0:0|0:0,0:0:0:0:
88,60,75344,5,0,0:0:0:0:
88,60,75428,1,0,0:0:0:0:
88,60,75511,2,0,P|20:148|56:240,1,220,4|8,0:0|0:0,0:0:0:0:
132,320,76011,1,0,0:0:0:0:
236,356,76178,1,0,0:0:0:0:
344,336,76344,1,0,0:0:0:0:
440,284,76511,1,8,0:0:0:0:
500,192,76678,2,2,L|196:64,1,330,2|10,0:0|0:0,0:0:0:0:
416,40,77511,5,0,0:0:0:0:
256,192,77844,1,8,0:0:0:0:
96,344,78178,2,0,B|316:344|316:344|316:124|316:124|96:124,1,660,0|8,0:0|0:0,0:0:0:0:
96,236,79344,5,0,0:0:0:0:
96,236,79428,1,0,0:0:0:0:
96,236,79511,1,0,0:0:0:0:
186,326,79678,1,0,0:0:0:0:
277,235,79844,1,12,0:0:0:0:
186,145,80011,1,0,0:0:0:0:
96,236,80178,1,0,0:0:0:0:
224,236,80344,1,0,0:0:0:0:
224,108,80511,1,8,0:0:0:0:
96,108,80678,6,0,P|16:168|52:268,1,220,4|0,0:0|0:0,0:0:0:0:
160,332,81178,1,8,0:0:0:0:
284,356,81344,1,0,0:0:0:0:
412,364,81511,2,0,P|504:292|476:208,1,220,0|8,0:0|0:0,0:0:0:0:
384,120,82011,5,0,0:0:0:0:
264,80,82178,1,0,0:0:0:0:
140,60,82344,1,0,0:0:0:0:
16,84,82511,1,8,0:0:0:0:
88,188,82678,2,0,L|200:188,1,110,0|0,0:0|0:0,0:0:0:0:
264,188,82928,1,2,0:0:0:0:
328,188,83011,2,2,L|440:188,1,110,2|10,0:0|0:0,0:0:0:0:
504,80,83344,6,0,P|468:188|404:272,1,220
300,344,83844,1,8,0:0:0:0:
172,344,84011,1,0,0:0:0:0:
300,344,84178,1,0,0:0:0:0:
172,344,84344,1,0,0:0:0:0:
300,344,84511,1,8,0:0:0:0:
172,344,84678,1,0,0:0:0:0:
72,268,84844,2,0,L|96:160,2,110,0|0|8,0:0|0:0|0:0,0:0:0:0:
72,268,85344,1,0,0:0:0:0:
216,256,85511,2,0,L|236:308,2,55
168,120,85844,5,8,0:0:0:0:
192,96,85928,1,0,0:0:0:0:
220,80,86011,1,0,0:0:0:0:
252,72,86094,1,0,0:0:0:0:
284,68,86178,2,0,P|388:72|468:152,1,220,4|8,0:0|0:0,0:0:0:0:
464,276,86678,1,0,0:0:0:0:
348,324,86844,1,0,0:0:0:0:
256,236,87011,1,0,0:0:0:0:
164,324,87178,1,8,0:0:0:0:
48,276,87344,1,0,0:0:0:0:
8,156,87511,2,0,P|88:92|160:160,1,220,0|8,0:0|0:0,0:0:0:0:
160,288,88011,1,0,0:0:0:0:
160,288,88178,2,0,L|60:336,2,110,0|0|8,0:0|0:0|0:0,0:0:0:0:
272,228,88678,6,0,P|296:128|204:91,1,220
100,164,89178,1,8,0:0:0:0:
48,320,89344,1,0,0:0:0:0:
188,228,89511,1,0,0:0:0:0:
20,228,89678,1,0,0:0:0:0:
156,320,89844,1,8,0:0:0:0:
100,164,90011,1,0,0:0:0:0:
48,320,90178,2,0,P|136:216|20:228,1,330
40,88,90844,5,0,0:0:0:0:
84,80,90928,1,0,0:0:0:0:
128,76,91011,1,0,0:0:0:0:
172,72,91094,1,0,0:0:0:0:
216,76,91178,1,8,0:0:0:0:
260,84,91261,1,0,0:0:0:0:
296,100,91344,2,0,P|380:144|476:224,1,220,4|0,0:0|0:0,0:0:0:0:
500,348,91844,5,8,0:0:0:0:
376,368,92011,1,0,0:0:0:0:
252,344,92178,2,0,P|152:292|72:220,1,220,0|8,0:0|0:0,0:0:0:0:
8,112,92678,5,0,0:0:0:0:
128,72,92844,1,0,0:0:0:0:
252,48,93011,1,0,0:0:0:0:
376,72,93178,1,8,0:0:0:0:
448,176,93344,2,0,L|336:176,1,110
272,176,93594,1,2,0:0:0:0:
208,176,93678,2,2,L|96:176,1,110,2|10,0:0|0:0,0:0:0:0:
32,68,94011,6,0,P|44:168|100:272,1,220
184,368,94511,1,8,0:0:0:0:
256,264,94678,1,0,0:0:0:0:
184,368,94844,1,0,0:0:0:0:
256,264,95011,1,0,0:0:0:0:
184,368,95178,1,8,0:0:0:0:
256,264,95344,1,0,0:0:0:0:
132,240,95511,2,0,L|104:132,2,110,0|0|8,0:0|0:0|0:0,0:0:0:0:
132,240,96011,1,0,0:0:0:0:
224,348,96178,2,0,L|168:348,2,55
368,348,96511,5,8,0:0:0:0:
400,344,96594,1,0,0:0:0:0:
432,336,96678,1,0,0:0:0:0:
460,320,96761,1,0,0:0:0:0:
484,296,96844,2,0,P|520:256|464:116,1,220,4|8,0:0|0:0,0:0:0:0:
360,52,97344,1,0,0:0:0:0:
236,40,97511,1,0,0:0:0:0:
112,64,97678,1,0,0:0:0:0:
28,160,97844,1,8,0:0:0:0:
8,284,98011,1,0,0:0:0:0:
120,344,98178,2,0,P|232:268|256:192,1,220,0|8,0:0|0:0,0:0:0:0:
256,64,98678,1,0,0:0:0:0:
256,64,98844,2,0,L|368:64,2,110,0|0|8,0:0|0:0|0:0,0:0:0:0:
128,64,99344,6,0,P|148:172|200:268,1,220
292,356,99844,1,8,0:0:0:0:
408,308,100011,1,0,0:0:0:0:
480,204,100178,1,0,0:0:0:0:
408,100,100344,1,0,0:0:0:0:
292,52,100511,1,8,0:0:0:0:
168,76,100678,1,0,0:0:0:0:
96,180,100844,2,0,P|128:299|162:182,1,330
64,80,101511,5,0,0:0:0:0:
64,80,101594,1,0,0:0:0:0:
64,80,101678,1,0,0:0:0:0:
64,80,101761,1,0,0:0:0:0:
64,80,101844,1,8,0:0:0:0:
64,80,101928,1,0,0:0:0:0:
64,80,102011,1,0,0:0:0:0:
104,200,102178,2,0,P|116:228|136:248,1,55
280,364,102511,1,12,0:0:0:0:
256,192,112844,12,0,117511,0:0:0:0:
256,192,117844,5,8,0:0:0:0:
256,192,118178,12,4,123511,0:0:0:0:
440,80,123844,5,8,0:0:0:0:
440,80,124011,1,0,0:0:0:0:
328,80,124178,2,0,L|216:80,2,110,0|0|8,0:0|0:0|0:0,0:0:0:0:
388,172,124678,1,0,0:0:0:0:
280,172,124844,2,0,L|168:172,2,110,0|0|8,0:0|0:0|0:0,0:0:0:0:
336,268,125344,1,0,0:0:0:0:
228,268,125511,2,0,L|116:268,2,110,0|0|8,0:0|0:0|0:0,0:0:0:0:
336,268,126011,5,0,0:0:0:0:
336,268,126178,2,0,P|276:344|160:352,1,220,0|8,0:0|0:0,0:0:0:0:
76,280,126678,1,0,0:0:0:0:
16,188,126844,1,0,0:0:0:0:
32,80,127011,2,0,P|80:68|140:84,2,110,0|8|0,0:0|0:0|0:0,0:0:0:0:
80,216,127511,5,0,0:0:0:0:
200,292,127678,1,0,0:0:0:0:
132,268,127844,1,8,0:0:0:0:
272,300,128011,1,0,0:0:0:0:
412,272,128178,1,0,0:0:0:0:
412,272,128261,1,0,0:0:0:0:
412,272,128344,1,0,0:0:0:0:
512,224,128511,1,8,0:0:0:0:
510,112,128678,1,0,0:0:0:0:
417,171,128844,1,4,0:0:0:0:
220,72,129178,5,8,0:0:0:0:
220,72,129344,2,0,P|164:68|112:52,2,110
256,176,129844,1,8,0:0:0:0:
232,284,130011,1,0,0:0:0:0:
232,284,130178,2,0,P|284:300|352:308,2,110,0|0|8,0:0|0:0|0:0,0:0:0:0:
256,192,130844,1,0,0:0:0:0:
76,64,131178,5,8,0:0:0:0:
256,192,131344,1,0,0:0:0:0:
120,304,131678,6,0,L|24:360,2,110,0|8|0,0:0|0:0|0:0,0:0:0:0:
408,304,132344,2,2,P|460:280|484:232,1,110,2|10,0:0|0:0,0:0:0:0:
496,168,132678,2,2,B|400:124|276:212|172:168,1,330,2|10,0:0|0:0,0:0:0:0:
360,60,133511,1,0,0:0:0:0:
140,60,133844,1,8,0:0:0:0:
40,256,134178,5,4,0:0:0:0:
40,256,134261,1,0,0:0:0:0:
40,256,134344,2,0,P|96:248|148:232,1,110,0|8,0:0|0:0,0:0:0:0:
252,196,134678,1,0,0:0:0:0:
356,160,134844,1,0,0:0:0:0:
464,176,135011,1,0,0:0:0:0:
500,280,135178,1,8,0:0:0:0:
424,360,135344,2,0,P|312:340|208:312,1,220
108,268,135844,5,8,0:0:0:0:
48,176,136011,1,0,0:0:0:0:
68,68,136178,1,0,0:0:0:0:
176,48,136344,1,0,0:0:0:0:
284,68,136511,1,8,0:0:0:0:
284,68,136594,1,0,0:0:0:0:
284,68,136678,1,0,0:0:0:0:
284,68,136761,1,0,0:0:0:0:
284,68,136844,2,0,P|337:180|230:115,1,330,4|0,0:0|0:0,0:0:0:0:
420,64,137511,5,0,0:0:0:0:
420,64,137678,1,0,0:0:0:0:
420,64,137844,1,8,0:0:0:0:
384,168,138011,2,0,L|280:208,2,110
488,132,138511,1,8,0:0:0:0:
216,320,138844,6,0,L|244:368,1,55
164,224,139094,2,0,L|136:176,1,55,0|8,0:0|0:0,0:0:0:0:
84,80,139344,5,0,0:0:0:0:
84,80,139428,1,0,0:0:0:0:
84,80,139511,2,0,P|16:152|52:256,1,220,4|8,0:0|0:0,0:0:0:0:
128,336,140011,1,0,0:0:0:0:
236,360,140178,1,0,0:0:0:0:
344,336,140344,1,0,0:0:0:0:
436,276,140511,1,8,0:0:0:0:
460,168,140678,2,0,P|360:56|196:80,1,330,0|8,0:0|0:0,0:0:0:0:
124,164,141344,5,0,0:0:0:0:
216,224,141511,1,0,0:0:0:0:
308,284,141678,1,0,0:0:0:0:
400,344,141844,1,8,0:0:0:0:
292,364,142011,2,0,P|136:316|32:192,1,330,0|8,0:0|0:0,0:0:0:0:
304,100,142844,1,0,0:0:0:0:
148,340,143178,1,8,0:0:0:0:
408,224,143511,1,0,0:0:0:0:
128,160,143844,1,8,0:0:0:0:
352,336,144178,6,0,L|396:368,1,55
268,264,144428,1,0,0:0:0:0:
268,264,144511,1,8,0:0:0:0:
268,264,144594,1,0,0:0:0:0:
268,264,144678,1,0,0:0:0:0:
268,264,144761,1,0,0:0:0:0:
268,264,144844,2,0,P|212:176|276:92,1,220,4|8,0:0|0:0,0:0:0:0:
385,47,145344,1,0,0:0:0:0:
496,65,145511,1,0,0:0:0:0:
478,176,145678,1,0,0:0:0:0:
367,158,145844,1,8,0:0:0:0:
260,136,146011,2,0,P|152:136|122:229,1,220
104,340,146511,5,8,0:0:0:0:
215,357,146678,1,0,0:0:0:0:
233,247,146844,1,0,0:0:0:0:
122,229,147011,1,0,0:0:0:0:
104,340,147178,1,8,0:0:0:0:
104,340,147344,1,0,0:0:0:0:
104,340,147428,1,0,0:0:0:0:
104,340,147511,2,0,P|196:260|71:277,1,330,4|0,0:0|0:0,0:0:0:0:
248,368,148178,5,0,0:0:0:0:
352,344,148344,1,0,0:0:0:0:
444,284,148511,1,8,0:0:0:0:
496,188,148678,2,0,P|504:132|484:80,2,110
496,188,149178,1,8,0:0:0:0:
192,320,149511,6,0,L|160:364,1,55
264,236,149761,2,0,L|296:192,1,55,0|8,0:0|0:0,0:0:0:0:
352,96,150011,5,0,0:0:0:0:
352,96,150094,1,0,0:0:0:0:
352,96,150178,2,0,P|252:64|144:92,1,220,4|8,0:0|0:0,0:0:0:0:
68,172,150678,1,0,0:0:0:0:
92,280,150844,1,0,0:0:0:0:
172,356,151011,1,0,0:0:0:0:
280,376,151178,1,8,0:0:0:0:
388,352,151344,2,0,L|188:88,1,330,0|8,0:0|0:0,0:0:0:0:
400,148,152178,5,0,0:0:0:0:
188,88,152511,1,8,0:0:0:0:
68,272,152844,2,0,B|288:272|288:272|288:52|288:52|68:52,1,660,0|8,0:0|0:0,0:0:0:0:
40,176,154011,5,0,0:0:0:0:
40,176,154094,1,0,0:0:0:0:
40,176,154178,1,0,0:0:0:0:
40,304,154344,1,0,0:0:0:0:
168,304,154511,1,12,0:0:0:0:
168,176,154678,1,0,0:0:0:0:
80,268,154844,1,0,0:0:0:0:
144,378,155011,1,0,0:0:0:0:
254,314,155178,1,8,0:0:0:0:
190,204,155344,6,0,P|156:104|240:52,1,220,4|0,0:0|0:0,0:0:0:0:
364,72,155844,1,8,0:0:0:0:
472,136,156011,1,0,0:0:0:0:
512,256,156178,2,0,P|476:344|360:368,1,220,0|8,0:0|0:0,0:0:0:0:
236,352,156678,5,0,0:0:0:0:
116,312,156844,1,0,0:0:0:0:
40,212,157011,1,0,0:0:0:0:
20,88,157178,1,8,0:0:0:0:
144,60,157344,2,0,L|223:139,1,110
269,184,157594,1,2,0:0:0:0:
314,229,157678,2,2,L|393:308,1,110,2|10,0:0|0:0,0:0:0:0:
288,380,158011,6,0,P|184:348|148:248,1,220
148,124,158511,1,8,0:0:0:0:
148,252,158678,1,0,0:0:0:0:
148,124,158844,1,0,0:0:0:0:
148,252,159011,1,0,0:0:0:0:
148,124,159178,1,8,0:0:0:0:
148,252,159344,1,0,0:0:0:0:
220,148,159511,2,0,L|304:76,2,110,0|0|8,0:0|0:0|0:0,0:0:0:0:
120,224,160011,1,0,0:0:0:0:
48,120,160178,2,0,L|24:68,2,55
116,308,160511,5,8,0:0:0:0:
132,336,160594,1,0,0:0:0:0:
156,356,160678,1,0,0:0:0:0:
184,372,160761,1,0,0:0:0:0:
216,380,160844,2,0,B|304:380|380:364|424:320,1,220,4|8,0:0|0:0,0:0:0:0:
508,228,161344,1,0,0:0:0:0:
480,104,161511,2,0,P|436:68|380:52,1,110
260,52,161844,1,8,0:0:0:0:
132,52,162011,1,0,0:0:0:0:
56,152,162178,2,0,P|67:253|166:256,1,220,0|8,0:0|0:0,0:0:0:0:
276,192,162678,1,0,0:0:0:0:
276,192,162844,2,0,L|368:128,2,110,0|0|8,0:0|0:0|0:0,0:0:0:0:
172,264,163344,6,0,P|252:328|324:260,1,220
376,104,163844,1,8,0:0:0:0:
432,260,164011,1,0,0:0:0:0:
296,168,164178,1,0,0:0:0:0:
464,168,164344,1,0,0:0:0:0:
324,260,164511,1,8,0:0:0:0:
376,104,164678,1,0,0:0:0:0:
432,260,164844,2,0,P|332:180|464:176,1,330
196,340,165511,5,0,0:0:0:0:
156,320,165594,1,0,0:0:0:0:
124,288,165678,1,0,0:0:0:0:
96,252,165761,1,0,0:0:0:0:
76,212,165844,1,8,0:0:0:0:
64,168,165928,1,0,0:0:0:0:
60,124,166011,2,0,B|108:20|248:44,1,220,4|0,0:0|0:0,0:0:0:0:
364,88,166511,5,8,0:0:0:0:
468,160,166678,1,0,0:0:0:0:
508,280,166844,2,0,B|508:336|472:380|412:384|340:368,1,220,0|8,0:0|0:0,0:0:0:0:
224,328,167344,5,0,0:0:0:0:
172,212,167511,1,0,0:0:0:0:
220,96,167678,1,0,0:0:0:0:
336,44,167844,1,8,0:0:0:0:
460,68,168011,2,0,L|380:147,1,110
335,192,168261,1,2,0:0:0:0:
290,237,168344,2,2,L|210:316,1,110,2|10,0:0|0:0,0:0:0:0:
144,208,168678,6,0,P|212:288|316:332,1,220
440,360,169178,1,8,0:0:0:0:
480,240,169344,1,0,0:0:0:0:
440,360,169511,1,0,0:0:0:0:
480,240,169678,1,0,0:0:0:0:
440,360,169844,1,8,0:0:0:0:
480,240,170011,1,0,0:0:0:0:
400,144,170178,2,0,L|328:56,2,110,0|0|8,0:0|0:0|0:0,0:0:0:0:
400,144,170678,1,0,0:0:0:0:
284,228,170844,2,0,L|256:276,2,55
208,352,171178,5,8,0:0:0:0:
176,348,171261,1,0,0:0:0:0:
144,340,171344,1,0,0:0:0:0:
112,328,171428,1,0,0:0:0:0:
84,312,171511,2,0,P|12:248|44:140,1,220,4|8,0:0|0:0,0:0:0:0:
144,64,172011,1,0,0:0:0:0:
268,40,172178,2,0,P|328:40|376:56,1,110
472,136,172511,1,8,0:0:0:0:
512,256,172678,1,0,0:0:0:0:
440,360,172844,2,0,P|324:352|256:280,1,220,0|8,0:0|0:0,0:0:0:0:
200,168,173344,1,0,0:0:0:0:
200,168,173511,2,0,L|148:68,2,110,0|0|8,0:0|0:0|0:0,0:0:0:0:
352,80,174011,6,0,P|332:188|280:284,1,220
188,372,174511,1,8,0:0:0:0:
72,324,174678,1,0,0:0:0:0:
0,220,174844,1,0,0:0:0:0:
72,116,175011,1,0,0:0:0:0:
188,68,175178,1,8,0:0:0:0:
312,92,175344,1,0,0:0:0:0:
384,196,175511,2,0,P|352:315|318:198,1,330
416,96,176178,5,0,0:0:0:0:
416,96,176261,1,0,0:0:0:0:
416,96,176344,1,0,0:0:0:0:
416,96,176428,1,0,0:0:0:0:
416,96,176511,1,8,0:0:0:0:
416,96,176594,1,0,0:0:0:0:
416,96,176678,1,0,0:0:0:0:
376,216,176844,2,0,P|364:244|344:264,1,55,4|0,0:0|0:0,0:0:0:0:
80,324,187011,5,0,0:0:0:0:
256,192,187178,1,8,0:0:0:0:
40,148,187511,6,0,P|80:104|128:84,1,110,4|0,0:0|0:0,0:0:0:0:
303,82,187844,1,8,0:0:0:0:
480,80,188011,1,4,0:0:0:0:
140,168,188344,1,0,0:0:0:0:
480,260,188678,1,0,0:0:0:0:
140,348,189011,1,0,0:0:0:0:
400,112,189344,1,4,0:0:0:0:
60,208,189678,1,0,0:0:0:0:
60,208,189844,1,8,0:0:0:0:
180,368,190178,5,0,0:0:0:0:
187,300,190511,1,8,0:0:0:0:
194,232,190844,1,0,0:0:0:0:
201,165,191178,1,8,0:0:0:0:
208,97,191511,2,0,L|213:41,14,55
344,100,192844,5,4,0:0:0:0:
344,100,192928,1,0,0:0:0:0:
344,100,193011,1,0,0:0:0:0:
344,244,193178,1,2,0:0:0:0:
344,244,193261,1,0,0:0:0:0:
344,244,193344,1,0,0:0:0:0:
200,244,193511,2,0,L|144:244,2,55
200,100,193844,5,2,0:0:0:0:
200,100,193928,1,0,0:0:0:0:
200,100,194011,1,0,0:0:0:0:
344,100,194178,1,0,0:0:0:0:
344,100,194261,1,0,0:0:0:0:
344,100,194344,1,0,0:0:0:0:
344,244,194511,2,0,L|344:300,2,55,2|0|0,0:0|0:0|0:0,0:0:0:0:
200,244,194844,5,0,0:0:0:0:
200,244,194928,1,0,0:0:0:0:
200,244,195011,1,0,0:0:0:0:
200,100,195178,1,2,0:0:0:0:
200,100,195261,1,0,0:0:0:0:
200,100,195344,1,0,0:0:0:0:
344,100,195511,2,0,L|400:100,14,55,0|0|0|0|2|0|0|0|0|0|0|0|2|0|0,0:0|0:0|0:0|0:0|0:0|0:0|0:0|0:0|0:0|0:0|0:0|0:0|0:0|0:0|0:0,0:0:0:0:
236,120,196844,5,0,0:0:0:0:
132,156,197011,1,0,0:0:0:0:
48,228,197178,1,2,0:0:0:0:
4,328,197344,2,2,P|187:291|-6:265,1,550,2|6,0:0|0:0,0:0:0:0:
264,360,198511,5,4,0:2:0:0:
291,358,198594,1,0,0:0:0:0:
318,354,198678,1,0,0:0:0:0:
345,348,198761,1,0,0:0:0:0:
371,339,198844,1,0,0:0:0:0:
395,326,198928,1,0,0:0:0:0:
417,309,199011,1,0,0:0:0:0:
435,289,199094,1,0,0:0:0:0:
450,265,199178,5,4,0:2:0:0:
459,240,199261,1,0,0:0:0:0:
463,212,199344,1,0,0:0:0:0:
462,185,199428,1,0,0:0:0:0:
456,158,199511,1,0,0:0:0:0:
445,133,199594,1,0,0:0:0:0:
429,111,199678,1,0,0:0:0:0:
409,92,199761,1,0,0:0:0:0:
386,77,199844,5,4,0:2:0:0:
361,66,199928,1,0,0:0:0:0:
334,59,200011,1,0,0:0:0:0:
307,55,200094,1,0,0:0:0:0:
279,54,200178,1,0,0:0:0:0:
252,56,200261,1,0,0:0:0:0:
225,60,200344,1,0,0:0:0:0:
198,66,200428,1,0,0:0:0:0:
171,73,200511,5,4,0:2:0:0:
145,82,200594,1,0,0:0:0:0:
120,91,200678,1,0,0:0:0:0:
98,109,200761,1,0,0:0:0:0:
80,130,200844,2,2,B|-16:264|136:360|208:324|184:144|240:84|288:140|284:324|348:360|544:252|500:88|336:60,1,770
228,52,202178,5,0,0:0:0:0:
124,88,202344,1,0,0:0:0:0:
64,180,202511,1,2,0:0:0:0:
88,288,202678,1,0,0:0:0:0:
168,364,202844,2,0,P|196:376|224:376,2,55
144,256,203178,2,0,L|168:144,1,110,2|0,0:0|0:0,0:0:0:0:
264,96,203511,5,4,0:0:0:0:
372,120,203678,1,0,0:0:0:0:
440,204,203844,1,2,0:0:0:0:
464,312,204011,2,0,P|368:360|256:368,1,220
152,336,204511,1,2,0:0:0:0:
76,256,204678,1,0,0:0:0:0:
40,152,204844,1,0,0:0:0:0:
40,152,204928,1,0,0:0:0:0:
40,152,205011,1,0,0:0:0:0:
40,152,205178,6,2,L|148:120,1,110
288,104,205511,2,2,L|260:212,1,110
208,344,205844,2,2,L|128:268,1,110,0|0,0:0|0:0,0:0:0:0:
40,152,206178,2,0,P|84:100|228:56,1,220,0|2,0:0|0:0,0:0:0:0:
332,80,206678,1,0,0:0:0:0:
424,140,206844,1,0,0:0:0:0:
460,244,207011,1,0,0:0:0:0:
400,336,207178,1,2,0:0:0:0:
292,356,207344,6,2,P|200:284|160:192,1,220
96,356,207844,2,2,P|188:284|228:192,1,220
380,280,208344,2,2,P|288:208|248:116,1,220
184,280,208844,2,2,P|276:208|316:116,1,220,6|2,0:0|0:0,0:0:0:0:
468,204,209344,2,2,P|376:132|336:40,1,220
272,204,209844,2,2,P|364:132|404:40,1,220
52,72,210511,5,4,0:2:0:0:
51,99,210594,1,0,0:0:0:0:
51,126,210678,1,0,0:0:0:0:
54,154,210761,1,0,0:0:0:0:
59,181,210844,1,0,0:0:0:0:
67,207,210928,1,0,0:0:0:0:
78,233,211011,1,0,0:0:0:0:
91,256,211094,1,0,0:0:0:0:
108,278,211178,5,4,0:2:0:0:
128,297,211261,1,0,0:0:0:0:
151,312,211344,1,0,0:0:0:0:
176,325,211428,1,0,0:0:0:0:
201,334,211511,1,0,0:0:0:0:
228,341,211594,1,0,0:0:0:0:
255,344,211678,1,0,0:0:0:0:
283,346,211761,1,0,0:0:0:0:
310,344,211844,5,4,0:2:0:0:
337,340,211928,1,0,0:0:0:0:
364,333,212011,1,0,0:0:0:0:
390,323,212094,1,0,0:0:0:0:
413,309,212178,1,0,0:0:0:0:
434,292,212261,1,0,0:0:0:0:
451,270,212344,1,0,0:0:0:0:
463,245,212428,1,0,0:0:0:0:
468,218,212511,5,4,0:2:0:0:
468,191,212594,1,0,0:0:0:0:
464,164,212678,1,0,0:0:0:0:
455,138,212761,6,0,P|444:112|420:92,1,55
320,60,213011,1,0,0:0:0:0:
188,64,213178,1,12,0:0:0:0:
316,148,213344,1,0,0:0:0:0:
140,132,213511,1,0,0:0:0:0:
304,244,213678,1,0,0:0:0:0:
88,208,213844,1,8,0:0:0:0:
292,340,214011,6,0,P|408:348|472:276,1,220,4|0,0:0|0:0,0:0:0:0:
496,152,214511,1,8,0:0:0:0:
424,48,214678,1,0,0:0:0:0:
300,36,214844,2,0,P|184:52|96:108,1,220,0|8,0:0|0:0,0:0:0:0:
24,208,215344,5,0,0:0:0:0:
64,328,215511,1,0,0:0:0:0:
180,376,215678,1,0,0:0:0:0:
304,352,215844,1,8,0:0:0:0:
408,280,216011,2,0,P|432:232|400:192,1,110,0|0,0:0|0:0,0:0:0:0:
336,192,216261,1,2,0:0:0:0:
272,192,216344,2,2,P|248:240|280:280,1,110,2|10,0:0|0:0,0:0:0:0:
384,352,216678,6,0,P|264:364|188:308,1,220,0|0,0:0|0:0,0:0:0:0:
116,204,217178,1,8,0:0:0:0:
176,92,217344,1,0,0:0:0:0:
236,204,217511,1,0,0:0:0:0:
116,204,217678,1,0,0:0:0:0:
176,92,217844,1,8,0:0:0:0:
236,204,218011,1,0,0:0:0:0:
176,316,218178,2,0,P|140:352|84:352,2,110,0|0|8,0:0|0:0|0:0,0:0:0:0:
176,316,218678,1,0,0:0:0:0:
64,152,218844,1,0,0:0:0:0:
88,128,218928,1,0,0:0:0:0:
116,112,219011,1,0,0:0:0:0:
308,60,219178,5,8,0:0:0:0:
340,64,219261,1,0,0:0:0:0:
372,72,219344,1,0,0:0:0:0:
404,80,219428,1,0,0:0:0:0:
436,88,219511,2,0,B|564:152|460:264,1,220,4|8,0:0|0:0,0:0:0:0:
360,340,220011,1,0,0:0:0:0:
236,368,220178,2,0,P|176:368|128:344,1,110
36,264,220511,1,8,0:0:0:0:
8,140,220678,1,0,0:0:0:0:
84,40,220844,2,0,P|164:112|152:216,1,220,0|8,0:0|0:0,0:0:0:0:
112,336,221344,1,0,0:0:0:0:
112,336,221511,2,0,L|0:336,2,110,0|0|8,0:0|0:0|0:0,0:0:0:0:
240,336,222011,6,0,P|341:324|344:225,1,220
256,48,222511,1,8,0:0:0:0:
192,236,222678,1,0,0:0:0:0:
356,124,222844,1,0,0:0:0:0:
156,124,223011,1,0,0:0:0:0:
320,236,223178,1,8,0:0:0:0:
256,48,223344,1,0,0:0:0:0:
192,236,223511,2,0,P|288:144|156:124,1,330
224,332,224178,5,0,0:0:0:0:
268,328,224261,1,0,0:0:0:0:
312,320,224344,1,0,0:0:0:0:
352,304,224428,1,0,0:0:0:0:
388,280,224511,1,8,0:0:0:0:
412,244,224594,1,0,0:0:0:0:
428,204,224678,2,0,P|408:104|304:84,1,220,4|0,0:0|0:0,0:0:0:0:
188,136,225178,5,8,0:0:0:0:
112,236,225344,1,0,0:0:0:0:
92,360,225511,2,0,P|192:388|304:364,1,220,0|8,0:0|0:0,0:0:0:0:
424,324,226011,1,0,0:0:0:0:
484,212,226178,5,0,0:0:0:0:
436,96,226344,1,0,0:0:0:0:
320,44,226511,1,8,0:0:0:0:
204,96,226678,2,0,P|180:144|212:184,1,110,0|0,0:0|0:0,0:0:0:0:
276,184,226928,1,2,0:0:0:0:
340,184,227011,2,2,P|364:136|332:96,1,110,2|10,0:0|0:0,0:0:0:0:
212,60,227344,6,0,P|312:88|412:148,1,220
504,236,227844,1,8,0:0:0:0:
444,348,228011,1,0,0:0:0:0:
384,236,228178,1,0,0:0:0:0:
504,236,228344,1,0,0:0:0:0:
444,348,228511,1,8,0:0:0:0:
384,236,228678,1,0,0:0:0:0:
444,124,228844,2,0,P|468:76|436:36,2,110,0|0|8,0:0|0:0|0:0,0:0:0:0:
444,124,229344,1,0,0:0:0:0:
288,248,229511,1,0,0:0:0:0:
264,264,229594,1,0,0:0:0:0:
240,280,229678,1,0,0:0:0:0:
52,344,229844,5,8,0:0:0:0:
36,316,229928,1,0,0:0:0:0:
24,284,230011,1,0,0:0:0:0:
16,252,230094,1,0,0:0:0:0:
12,220,230178,2,0,P|36:116|132:64,1,220,4|8,0:0|0:0,0:0:0:0:
256,52,230678,1,0,0:0:0:0:
380,72,230844,2,0,P|428:96|448:148,1,110
436,272,231178,1,8,0:0:0:0:
336,348,231344,1,0,0:0:0:0:
212,372,231511,2,0,P|115:331|120:228,1,220,0|8,0:0|0:0,0:0:0:0:
192,124,232011,1,0,0:0:0:0:
192,124,232178,2,0,P|228:88|284:80,2,110,0|0|8,0:0|0:0|0:0,0:0:0:0:
72,84,232678,6,0,P|116:184|208:244,1,220,0|0,0:0|0:0,0:0:0:0:
328,276,233178,2,2,L|412:204,1,110,10|2,0:0|0:0,0:0:0:0:
504,116,233511,2,2,L|404:64,1,110
280,44,233844,2,2,L|296:156,1,110,10|2,0:0|0:0,0:0:0:0:
328,274,234178,5,0,0:0:0:0:
364,276,234261,1,0,0:0:0:0:
396,262,234344,1,0,0:0:0:0:
421,237,234428,1,0,0:0:0:0:
434,204,234511,5,8,0:0:0:0:
432,168,234594,1,0,0:0:0:0:
416,137,234678,1,0,0:0:0:0:
389,114,234761,1,0,0:0:0:0:
355,104,234844,5,0,0:0:0:0:
320,108,234928,1,0,0:0:0:0:
290,126,235011,1,0,0:0:0:0:
269,155,235094,1,0,0:0:0:0:
262,190,235178,5,8,0:0:0:0:
269,225,235261,1,0,0:0:0:0:
289,254,235344,1,0,0:0:0:0:
364,356,235511,6,0,P|308:352|260:328,1,110,4|0,0:0|0:0,0:0:0:0:
168,268,235844,1,8,0:0:0:0:
168,268,236011,1,0,0:0:0:0:
92,188,236178,2,0,P|96:132|136:100,1,110
236,56,236511,1,8,0:0:0:0:
236,56,236678,1,0,0:0:0:0:
344,56,236844,6,0,L|344:168,1,110
344,276,237178,1,8,0:0:0:0:
236,276,237344,1,0,0:0:0:0:
196,176,237511,2,0,L|116:100,1,110
16,60,237844,1,8,0:0:0:0:
16,168,238011,1,0,0:0:0:0:
68,300,238178,5,0,0:0:0:0:
68,300,238344,1,0,0:0:0:0:
256,84,238678,1,0,0:0:0:0:
256,84,238844,1,0,0:0:0:0:
444,300,239178,1,8,0:0:0:0:
444,300,239344,1,0,0:0:0:0:
256,84,239678,1,0,0:0:0:0:
256,84,239844,1,8,0:0:0:0:
64,300,240178,5,0,0:0:0:0:
92,316,240261,1,0,0:0:0:0:
124,324,240344,1,0,0:0:0:0:
232,348,240511,1,8,0:0:0:0:
340,336,240678,1,0,0:0:0:0:
444,300,240844,2,0,L|484:340,2,55,0|0|0,0:0|0:0|0:0,0:0:0:0:
368,220,241178,2,0,L|328:180,2,55,8|0|0,0:0|0:0|0:0,0:0:0:0:
472,184,241511,6,0,P|448:136|400:104,1,110,4|0,0:0|0:0,0:0:0:0:
296,76,241844,1,8,0:0:0:0:
188,56,242011,1,0,0:0:0:0:
76,60,242178,2,0,P|32:80|20:136,1,110
36,244,242511,1,8,0:0:0:0:
108,328,242678,1,0,0:0:0:0:
212,364,242844,2,0,P|276:280|208:208,1,220,0|8,0:0|0:0,0:0:0:0:
256,192,243344,12,8,245178,0:0:0:0:
248,276,245511,6,0,L|280:232,2,55
176,360,245844,1,8,0:0:0:0:
84,300,246011,1,0,0:0:0:0:
60,192,246178,6,0,P|80:140|124:112,1,110,4|0,0:0|0:0,0:0:0:0:
228,76,246511,1,8,0:0:0:0:
228,76,246678,1,0,0:0:0:0:
336,56,246844,2,0,P|392:64|424:104,1,110
444,212,247178,1,8,0:0:0:0:
444,212,247344,1,0,0:0:0:0:
424,320,247511,6,0,L|312:320,1,110
204,320,247844,1,8,0:0:0:0:
96,320,248011,1,0,0:0:0:0:
96,212,248178,2,0,L|208:212,1,110
316,212,248511,1,8,0:0:0:0:
392,132,248678,1,0,0:0:0:0:
256,80,248844,5,0,0:0:0:0:
256,80,249011,1,0,0:0:0:0:
512,208,249344,1,0,0:0:0:0:
512,208,249511,1,0,0:0:0:0:
256,336,249844,1,8,0:0:0:0:
256,336,250011,1,0,0:0:0:0:
0,208,250344,1,0,0:0:0:0:
0,208,250511,1,8,0:0:0:0:
280,272,250844,5,0,0:0:0:0:
312,264,250928,1,0,0:0:0:0:
340,248,251011,1,0,0:0:0:0:
424,176,251178,1,8,0:0:0:0:
448,68,251344,1,0,0:0:0:0:
448,68,251511,6,0,L|336:68,1,110,4|0,0:0|0:0,0:0:0:0:
228,68,251844,1,8,0:0:0:0:
120,68,252011,1,0,0:0:0:0:
12,68,252178,2,0,P|16:120|40:176,1,110
96,268,252511,1,8,0:0:0:0:
188,328,252678,1,0,0:0:0:0:
296,352,252844,2,0,P|352:344|384:304,1,110
420,200,253178,1,8,0:0:0:0:
400,92,253344,1,0,0:0:0:0:
296,56,253511,2,0,P|244:144|320:216,1,220,0|8,0:0|0:0,0:0:0:0:
256,192,254011,12,4,256844,0:0:0:0:
144,320,257178,5,8,0:0:0:0:
256,320,257511,1,0,0:0:0:0:
368,320,257844,1,8,0:0:0:0:
436,232,258178,2,0,P|468:192|436:148,1,110
328,148,258511,1,8,0:0:0:0:
108,152,258844,2,0,P|76:192|108:236,1,110
216,236,259178,1,8,0:0:0:0:
400,116,259511,5,0,0:0:0:0:
288,116,259844,1,8,0:0:0:0:
176,116,260178,1,0,0:0:0:0:
64,116,260511,1,8,0:0:0:0:
64,228,260844,2,0,P|80:280|128:300,1,110
236,328,261178,1,8,0:0:0:0:
64,228,261511,2,0,P|80:280|128:300,1,110
236,328,261844,1,8,0:0:0:0:
304,328,262011,1,0,0:0:0:0:
372,328,262178,1,4,0:0:0:0:
144,88,262511,5,8,0:0:0:0:
256,88,262844,1,0,0:0:0:0:
368,88,263178,1,8,0:0:0:0:
436,176,263511,2,0,P|468:216|436:260,1,110
328,260,263844,1,8,0:0:0:0:
108,256,264178,2,0,P|76:216|108:172,1,110
216,172,264511,1,8,0:0:0:0:
392,304,264844,5,0,0:0:0:0:
280,304,265178,1,8,0:0:0:0:
280,192,265511,1,0,0:0:0:0:
392,192,265844,1,8,0:0:0:0:
392,192,266178,2,0,P|316:264|204:288,2,220,0|8|0,0:0|0:0|0:0,0:0:0:0:
456,100,267011,5,0,0:0:0:0:
256,192,267178,1,8,0:0:0:0:
460,276,267511,6,0,P|424:316|372:332,1,110,4|0,0:0|0:0,0:0:0:0:
304,332,267844,1,8,0:0:0:0:
236,332,268011,1,4,0:0:0:0:
132,296,268344,1,0,0:0:0:0:
72,204,268678,1,0,0:0:0:0:
108,100,269011,1,0,0:0:0:0:
208,52,269344,1,4,0:0:0:0:
276,56,269511,5,0,0:0:0:0:
308,60,269594,1,0,0:0:0:0:
340,68,269678,1,0,0:0:0:0:
372,80,269761,1,0,0:0:0:0:
400,96,269844,1,8,0:0:0:0:
100,236,270178,6,0,P|148:264|204:272,1,110,4|0,0:0|0:0,0:0:0:0:
268,272,270511,1,8,0:0:0:0:
336,272,270678,1,4,0:0:0:0:
428,212,271011,1,0,0:0:0:0:
384,112,271344,1,0,0:0:0:0:
280,76,271678,1,0,0:0:0:0:
176,108,272011,1,4,0:0:0:0:
124,152,272178,5,0,0:0:0:0:
108,180,272261,1,0,0:0:0:0:
100,212,272344,1,0,0:0:0:0:
108,244,272428,1,0,0:0:0:0:
124,272,272511,1,8,0:0:0:0:
436,376,272844,6,0,P|472:332|480:280,1,110,4|0,0:0|0:0,0:0:0:0:
480,212,273178,1,8,0:0:0:0:
480,144,273344,1,4,0:0:0:0:
396,72,273678,1,0,0:0:0:0:
288,52,274011,1,4,0:0:0:0:
184,88,274344,1,0,0:0:0:0:
124,180,274678,1,0,0:0:0:0:
108,248,274844,2,0,L|96:304,7,55,0|0|0|0|8|0|0|0,0:0|0:0|0:0|0:0|0:0|0:0|0:0|0:0,0:0:0:0:
116,216,275511,6,0,L|228:216,1,110,4|0,0:0|0:0,0:0:0:0:
292,216,275844,1,8,0:0:0:0:
360,216,276011,1,4,0:0:0:0:
188,80,276344,5,0,0:0:0:0:
120,324,276511,1,8,0:0:0:0:
372,300,276678,1,4,0:0:0:0:
