osu file format v12

[General]
AudioFilename: Innocent Key - Lunatic Red Eyes.mp3
AudioLeadIn: 0
PreviewTime: 80344
Countdown: 0
SampleSet: Normal
StackLeniency: 0.7
Mode: 0
LetterboxInBreaks: 1

[Editor]
Bookmarks: 16844,38178,58178,80844,102178,123511,132844,155511,176844,187511,214178,235511,256844,276844
DistanceSpacing: 2
BeatDivisor: 4
GridSize: 4

[Metadata]
Title:Lunatic Red Eyes
TitleUnicode:Lunatic Red Eyes
Artist:Innocent Key
ArtistUnicode:Innocent Key
Creator:asaink
Version:Easy
Source:Touhou
Tags:reisen udongein inaba Invisible Full Moon ZUN Yu Mizogushi Ciel rouran c75
BeatmapID:256548
BeatmapSetID:93522

[Difficulty]
HPDrainRate:2
CircleSize:3
OverallDifficulty:2
ApproachRate:3
SliderMultiplier:0.8
SliderTickRate:1

[Events]
//Background and Video events
0,0,"BG.jpg",0,0
//Break Periods
2,27844,36511
2,102844,111178
2,118511,121844
2,177178,185844
2,203844,212511
2,235844,244511
2,251844,255178
//Storyboard Layer 0 (Background)
//Storyboard Layer 1 (Fail)
//Storyboard Layer 2 (Pass)
//Storyboard Layer 3 (Foreground)
//Storyboard Sound Samples
//Background Colour Transformations
3,100,163,162,255

[TimingPoints]
845,333.333333333333,4,1,0,60,1,0
16844,-100,4,1,0,45,0,1
16928,-100,4,1,0,70,0,1
22094,-100,4,1,0,45,0,1
22261,-100,4,1,0,70,0,1
27511,-100,4,1,0,45,0,0
38261,-100,4,1,0,60,0,0
59428,-100,4,1,0,45,0,0
59594,-100,4,1,0,65,0,0
62094,-100,4,1,0,45,0,0
62261,-100,4,1,0,65,0,0
64761,-100,4,1,0,45,0,0
64928,-100,4,1,0,65,0,0
70094,-100,4,1,0,45,0,0
70261,-100,4,1,0,65,0,0
72761,-100,4,1,0,45,0,0
72928,-100,4,1,0,65,0,0
75428,-100,4,1,0,45,0,0
75594,-100,4,1,0,65,0,0
80678,-100,4,1,0,45,0,1
81178,-100,4,1,0,70,0,1
102511,-100,4,1,0,60,0,0
123428,-100,4,1,0,45,0,0
123594,-100,4,1,0,60,0,0
128761,-100,4,1,0,45,0,0
128928,-100,4,1,0,60,0,0
134094,-100,4,1,0,45,0,0
134261,-100,4,1,0,65,0,0
136761,-100,4,1,0,45,0,0
136928,-100,4,1,0,65,0,0
139428,-100,4,1,0,45,0,0
139594,-100,4,1,0,65,0,0
144761,-100,4,1,0,45,0,0
144928,-100,4,1,0,65,0,0
147428,-100,4,1,0,45,0,0
147594,-100,4,1,0,65,0,0
150094,-100,4,1,0,45,0,0
150261,-100,4,1,0,65,0,0
155344,-100,4,1,0,45,0,1
155844,-100,4,1,0,70,0,1
176844,-100,4,1,0,65,0,0
187428,-100,4,1,0,45,0,0
187594,-100,4,1,0,65,0,0
187928,-100,4,1,0,45,0,0
188094,-100,4,1,0,65,0,0
188761,-100,4,1,0,45,0,0
188928,-100,4,1,0,65,0,0
189261,-100,4,1,0,45,0,0
189428,-100,4,1,0,65,0,0
192761,-100,4,1,0,45,0,0
192928,-100,4,1,0,65,0,0
198094,-100,4,1,0,45,0,0
198261,-100,4,1,0,65,0,0
203428,-100,4,1,0,45,0,0
214011,-100,4,1,0,70,0,1
235511,-100,4,1,0,45,0,0
257094,-100,4,1,0,60,0,0
262094,-100,4,1,0,45,0,0
262261,-100,4,1,0,60,0,0
266928,-100,4,1,0,70,0,0

[Colours]
Combo1 : 239,1,37
Combo2 : 255,147,255
Combo3 : 0,0,121
Combo4 : 64,128,128

[HitObjects]
12,300,16844,2,0,P|80:336|148:300,1,160,4|0,0:0|0:0,0:0:0:0:
188,144,18178,2,0,P|256:108|324:144,1,160
360,300,19511,2,0,P|428:336|496:300,1,160
428,156,20844,5,0,0:0:0:0:
288,80,21511,1,0,0:0:0:0:
208,80,21844,1,8,0:0:0:0:
128,80,22178,6,0,P|92:148|128:216,1,160,4|0,0:0|0:0,0:0:0:0:
220,352,23511,2,0,L|380:352,1,160
468,216,24844,2,0,P|504:148|468:80,1,160
308,80,26178,5,0,0:0:0:0:
184,180,26844,1,0,0:0:0:0:
120,228,27178,1,8,0:0:0:0:
56,276,27511,5,4,0:0:0:0:
96,312,38178,6,0,P|152:360|208:312,1,160,4|0,0:0|0:0,0:0:0:0:
208,152,39511,2,0,P|152:104|96:152,1,160
96,312,40844,5,0,0:0:0:0:
256,312,41511,1,0,0:0:0:0:
416,312,42178,6,0,L|496:312,2,80,0|8|0,0:0|0:0|0:0,0:0:0:0:
336,312,43178,1,8,0:0:0:0:
256,312,43511,6,0,P|268:232|320:176,1,160,4|0,0:0|0:0,0:0:0:0:
444,68,44844,2,0,P|472:92|488:136,1,80,0|8,0:0|0:0,0:0:0:0:
256,192,45678,12,4,47344,0:0:0:0:
500,312,48844,6,0,P|444:360|388:312,1,160,4|0,0:0|0:0,0:0:0:0:
388,152,50178,2,0,P|444:104|500:152,1,160
500,312,51511,5,0,0:0:0:0:
340,312,52178,1,0,0:0:0:0:
180,312,52844,6,0,L|100:312,2,80,0|8|0,0:0|0:0|0:0,0:0:0:0:
260,312,53844,1,8,0:0:0:0:
340,312,54178,6,0,P|380:248|332:192,1,160,4|0,0:0|0:0,0:0:0:0:
172,192,55511,2,0,L|92:192,1,80,0|8,0:0|0:0,0:0:0:0:
256,192,56344,12,4,58011,0:0:0:0:
48,228,58844,5,0,0:0:0:0:
96,164,59178,1,8,0:0:0:0:
168,128,59511,6,0,P|244:116|328:128,1,160,4|0,0:0|0:0,0:0:0:0:
396,272,60844,2,0,P|340:324|260:340,1,160,0|0,0:0|0:0,0:0:0:0:
180,348,61844,5,8,0:0:0:0:
100,348,62178,2,0,P|56:288|100:228,2,160,4|0|0,0:0|0:0|0:0,0:0:0:0:
180,348,63844,1,8,0:0:0:0:
260,324,64178,1,0,0:0:0:0:
340,332,64511,1,8,0:0:0:0:
404,284,64844,6,0,P|440:216|404:144,1,160,4|0,0:0|0:0,0:0:0:0:
272,60,66178,2,0,L|112:60,1,160
28,196,67511,5,0,0:0:0:0:
128,320,68178,1,0,0:0:0:0:
280,368,68844,6,0,P|320:364|348:336,1,80,0|12,0:0|0:0,0:0:0:0:
388,268,69511,1,0,0:0:0:0:
412,192,69844,1,8,0:0:0:0:
420,112,70178,6,0,P|352:76|280:112,1,160,4|0,0:0|0:0,0:0:0:0:
196,244,71511,2,0,P|128:280|56:244,1,160
20,176,72511,5,8,0:0:0:0:
56,104,72844,2,0,P|128:76|204:104,2,160,4|0|0,0:0|0:0|0:0,0:0:0:0:
20,176,74511,1,8,0:0:0:0:
44,252,74844,1,0,0:0:0:0:
92,316,75178,1,8,0:0:0:0:
164,348,75511,6,0,L|324:348,1,160,4|0,0:0|0:0,0:0:0:0:
400,208,76844,2,0,L|240:208,1,160
80,208,78178,5,0,0:0:0:0:
236,184,78844,1,0,0:0:0:0:
396,180,79511,2,0,P|468:263|362:238,1,280,0|4,0:0|0:0,0:0:0:0:
312,140,81178,5,8,0:0:0:0:
288,64,81511,2,0,P|208:72|140:116,1,160
92,176,82511,1,8,0:0:0:0:
68,252,82844,1,0,0:0:0:0:
196,348,83511,5,0,0:0:0:0:
356,348,84178,1,0,0:0:0:0:
480,248,84844,5,0,0:0:0:0:
480,168,85178,1,8,0:0:0:0:
480,88,85511,1,0,0:0:0:0:
324,52,86178,6,0,P|244:60|200:124,1,160,4|0,0:0|0:0,0:0:0:0:
184,200,87178,2,0,P|176:236|156:276,1,80,8|0,0:0|0:0,0:0:0:0:
112,340,87844,2,0,P|72:352|32:352,1,80,8|0,0:0|0:0,0:0:0:0:
24,192,88844,5,0,0:0:0:0:
148,92,89511,1,0,0:0:0:0:
304,56,90178,2,0,P|376:168|304:280,1,280,0|4,0:0|0:0,0:0:0:0:
204,344,91844,5,8,0:0:0:0:
124,368,92178,2,0,P|76:304|80:228,1,160
116,156,93178,1,8,0:0:0:0:
176,104,93511,1,0,0:0:0:0:
328,52,94178,5,0,0:0:0:0:
464,136,94844,1,0,0:0:0:0:
464,296,95511,5,0,0:0:0:0:
384,296,95844,1,8,0:0:0:0:
304,296,96178,1,0,0:0:0:0:
144,296,96844,6,0,P|84:252|96:176,1,160,4|0,0:0|0:0,0:0:0:0:
140,108,97844,2,0,P|168:80|204:64,1,80,8|0,0:0|0:0,0:0:0:0:
284,56,98511,2,0,P|320:64|356:92,1,80,8|0,0:0|0:0,0:0:0:0:
432,232,99511,5,0,0:0:0:0:
304,328,100178,1,0,0:0:0:0:
148,292,100844,2,0,P|124:171|213:253,1,320
216,332,102511,5,12,0:0:0:0:
256,192,112844,12,4,118178,0:0:0:0:
256,344,123511,6,0,P|208:288|256:232,1,160,4|0,0:0|0:0,0:0:0:0:
416,232,124844,2,0,P|464:288|416:344,1,160
256,344,126178,5,0,0:0:0:0:
108,284,126844,1,0,0:0:0:0:
48,136,127511,6,0,L|48:56,2,80,0|8|0,0:0|0:0|0:0,0:0:0:0:
48,216,128511,1,8,0:0:0:0:
48,296,128844,6,0,P|112:336|168:288,1,160,4|0,0:0|0:0,0:0:0:0:
228,140,130178,2,0,L|256:64,1,80,0|8,0:0|0:0,0:0:0:0:
256,192,131011,12,4,132678,0:0:0:0:
256,64,133511,5,0,0:0:0:0:
328,100,133844,1,8,0:0:0:0:
392,148,134178,6,0,P|436:208|392:272,1,160,4|0,0:0|0:0,0:0:0:0:
256,348,135511,2,0,P|176:344|124:284,1,160,0|0,0:0|0:0,0:0:0:0:
96,212,136511,5,8,0:0:0:0:
96,132,136844,2,0,P|156:88|216:132,2,160,4|0|0,0:0|0:0|0:0,0:0:0:0:
96,212,138511,1,8,0:0:0:0:
176,212,138844,1,0,0:0:0:0:
256,212,139178,1,8,0:0:0:0:
336,212,139511,6,0,B|416:212|416:212|416:132,1,160,4|0,0:0|0:0,0:0:0:0:
272,60,140844,2,0,B|192:60|192:60|192:140,1,160
192,300,142178,5,0,0:0:0:0:
56,216,142844,1,0,0:0:0:0:
68,56,143511,6,0,P|108:56|148:68,1,80,0|12,0:0|0:0,0:0:0:0:
216,104,144178,1,0,0:0:0:0:
264,168,144511,1,8,0:0:0:0:
292,244,144844,6,0,P|360:280|432:244,1,160,4|0,0:0|0:0,0:0:0:0:
500,104,146178,2,0,P|432:68|360:104,1,160
312,164,147178,5,8,0:0:0:0:
276,236,147511,2,0,P|348:264|424:236,2,160,4|0|0,0:0|0:0|0:0,0:0:0:0:
216,184,149178,1,8,0:0:0:0:
152,136,149511,1,0,0:0:0:0:
72,140,149844,1,8,0:0:0:0:
8,188,150178,6,0,L|92:324,1,160,4|0,0:0|0:0,0:0:0:0:
248,360,151511,2,0,L|164:224,1,160
80,88,152844,5,0,0:0:0:0:
236,124,153511,1,0,0:0:0:0:
380,192,154178,2,0,P|400:299|321:225,1,280,0|4,0:0|0:0,0:0:0:0:
320,112,155844,5,8,0:0:0:0:
344,36,156178,2,0,P|416:68|456:140,1,160
468,216,157178,1,8,0:0:0:0:
456,296,157511,1,0,0:0:0:0:
304,352,158178,5,0,0:0:0:0:
144,352,158844,1,0,0:0:0:0:
36,236,159511,5,0,0:0:0:0:
36,156,159844,1,8,0:0:0:0:
36,76,160178,1,0,0:0:0:0:
200,76,160844,6,0,P|276:96|308:168,1,160,4|0,0:0|0:0,0:0:0:0:
300,244,161844,2,0,P|272:276|236:288,1,80,8|0,0:0|0:0,0:0:0:0:
160,268,162511,2,0,P|140:232|136:192,1,80,8|0,0:0|0:0,0:0:0:0:
232,64,163511,5,0,0:0:0:0:
380,124,164178,1,0,0:0:0:0:
464,260,164844,2,0,P|352:332|240:260,1,280,0|4,0:0|0:0,0:0:0:0:
184,156,166511,5,8,0:0:0:0:
148,84,166844,2,0,P|88:136|76:216,1,160
88,292,167844,1,8,0:0:0:0:
128,360,168178,1,0,0:0:0:0:
288,344,168844,5,0,0:0:0:0:
288,184,169511,1,0,0:0:0:0:
188,60,170178,5,0,0:0:0:0:
108,60,170511,1,8,0:0:0:0:
28,60,170844,1,0,0:0:0:0:
64,216,171511,6,0,P|100:284|176:316,1,160,4|0,0:0|0:0,0:0:0:0:
252,332,172511,2,0,P|292:336|332:328,1,80,8|0,0:0|0:0,0:0:0:0:
408,304,173178,2,0,P|444:284|472:256,1,80,8|0,0:0|0:0,0:0:0:0:
424,104,174178,5,0,0:0:0:0:
264,92,174844,1,0,0:0:0:0:
108,56,175511,2,0,P|44:161|155:114,1,320,0|4,0:0|0:0,0:0:0:0:
256,192,187511,6,0,B|300:148|300:148|360:148,2,120,4|4|8,0:0|0:0|0:0,0:0:0:0:
208,256,188844,2,0,B|164:300|164:300|104:300,2,120,4|4|8,0:0|0:0|0:0,0:0:0:0:
256,192,190178,5,0,0:0:0:0:
308,132,190511,1,8,0:0:0:0:
380,96,190844,1,0,0:0:0:0:
452,132,191178,1,8,0:0:0:0:
504,192,191511,6,0,P|408:316|256:352,1,320,0|4,0:0|0:0,0:0:0:0:
96,336,193511,1,0,0:0:0:0:
20,196,194178,2,0,P|48:124|120:88,1,160
280,88,195511,5,0,0:0:0:0:
400,192,196178,1,0,0:0:0:0:
280,300,196844,2,2,P|159:316|247:231,1,320,2|6,0:0|0:0,0:0:0:0:
256,192,198511,12,4,203511,0:0:0:0:
372,328,214011,6,0,P|472:192|372:56,1,360,4|0,0:0|0:0,0:0:0:0:
292,56,215844,1,8,0:0:0:0:
212,56,216178,1,0,0:0:0:0:
72,132,216844,5,0,0:0:0:0:
72,292,217511,1,0,0:0:0:0:
224,340,218178,5,0,0:0:0:0:
304,340,218511,1,8,0:0:0:0:
384,340,218844,1,0,0:0:0:0:
444,192,219511,6,0,P|424:116|352:84,1,160,4|0,0:0|0:0,0:0:0:0:
276,76,220511,2,0,P|236:76|200:100,1,80,8|0,0:0|0:0,0:0:0:0:
152,160,221178,2,0,P|152:196|164:240,1,80,8|0,0:0|0:0,0:0:0:0:
288,340,222178,5,0,0:0:0:0:
376,216,222844,1,0,0:0:0:0:
488,116,223511,2,0,P|376:44|264:116,1,280,0|4,0:0|0:0,0:0:0:0:
208,220,225178,5,8,0:0:0:0:
160,284,225511,2,0,P|104:232|120:156,1,160
172,96,226511,1,8,0:0:0:0:
240,56,226844,1,0,0:0:0:0:
400,72,227511,5,0,0:0:0:0:
400,232,228178,1,0,0:0:0:0:
256,300,228844,5,0,0:0:0:0:
176,300,229178,1,8,0:0:0:0:
96,300,229511,1,0,0:0:0:0:
60,144,230178,6,0,P|116:88|192:68,1,160,4|0,0:0|0:0,0:0:0:0:
272,60,231178,2,0,P|312:64|352:72,1,80,8|0,0:0|0:0,0:0:0:0:
416,120,231844,2,0,P|436:152|452:192,1,80,8|0,0:0|0:0,0:0:0:0:
368,328,232844,5,0,0:0:0:0:
208,304,233511,1,0,0:0:0:0:
92,192,234178,2,0,P|131:75|166:190,1,320,0|4,0:0|0:0,0:0:0:0:
256,192,246178,12,4,251511,0:0:0:0:
96,56,256844,6,0,L|256:56,1,160,4|0,0:0|0:0,0:0:0:0:
340,192,258178,2,0,L|180:192,1,160
96,328,259511,2,0,L|256:328,1,160
416,328,260844,2,0,P|460:268|416:208,2,160,0|0|4,0:0|0:0|0:0,0:0:0:0:
256,328,262844,5,0,0:0:0:0:
172,192,263511,2,0,L|332:192,1,160
416,56,264844,2,0,L|256:56,1,160
100,92,266178,1,0,0:0:0:0:
24,232,266844,1,0,0:0:0:0:
152,328,267511,6,0,P|196:360|260:368,2,120,4|0|8,0:0|0:0|0:0,0:0:0:0:
116,256,268844,2,0,P|84:212|76:148,2,120,0|0|8,0:0|0:0|0:0,0:0:0:0:
188,292,270178,2,0,P|232:324|296:332,2,120,4|0|8,0:0|0:0|0:0,0:0:0:0:
140,228,271511,2,0,P|108:184|100:120,2,120,0|0|8,0:0|0:0|0:0,0:0:0:0:
256,192,272844,12,4,276678,0:0:0:0:
