osu file format v5

[General]
AudioFilename: Touhou Sweets! ~The Cruel Sisters and the Suffering Maid~.mp3
AudioLeadIn: 0
PreviewTime: -1
Countdown: 1
SampleSet: Normal
StackLeniency: 0.7
Mode: 0
LetterboxInBreaks: 1
EditorBookmarks: 644,1398,7516,14219,17320,17488,19499,22348,24946,27627,30309,32990,35337,36510,41873,46398,47236,49918,52599,58130,63158,63493,68354,68856,70197,71789,73046,74387,75476,78242,79247,80923,86287,91985,97348,101203,104974,109415,115113

[Metadata]
Title:Kichiku Shimai to Junan Maid
Artist:Innocent Key
Creator:Metroid
Version:Hard
Source:Touhou Sweets!
Tags:kichiku shimai to junan maid innocent key touhou sweets

[Difficulty]
HPDrainRate:6
CircleSize:5
OverallDifficulty:7
SliderMultiplier:1.6
SliderTickRate:2

[Events]
//Background and Video events
0,0,"Innocent-sweets-Jacket.jpg"
1,0,"Touhou Sweets! ~The Cruel Sisters and the Suffering Maid~.avi"
//Break Periods
2,69056,69297
//Storyboard Layer 0 (Background)
//Storyboard Layer 1 (Failing)
//Storyboard Layer 2 (Passing)
//Storyboard Layer 3 (Foreground)
//Storyboard Sound Samples
//Background Colour Transformations
3,100,163,162,255

[TimingPoints]
14220,335.195530726257,4,1,0,77,1
33961,-100,4,1,0,51,0

[Colours]
Combo1 : 62,70,119
Combo2 : 178,34,34
Combo3 : 253,162,237
Combo4 : 255,255,255

[HitObjects]
48,320,14219,2,0,B|112:224|128:400|192:288,1,160
240,304,14722,1,8
304,304,14890,2,0,B|368:240|240:224|336:160,1,160
322,101,15393,1,8
256,96,15560,2,0,B|160:64|80:112,1,160
80,160,16063,1,4
144,160,16231,1,4
208,160,16398,1,4
272,160,16566,1,4
400,160,16901,6,0,B|352:224|464:256|368:320,1,160
320,304,17404,1,8
256,304,17571,2,0,B|240:352|176:176|128:352|80:288,1,160
48,288,18074,1,8
48,224,18242,2,0,B|80:192|112:208|96:272,2,80
32,160,18745,1,4
96,160,18912,1,4
160,160,19080,1,4
224,160,19247,1,4
240,32,19583,6,0,B|187:5|123:-10|123:70,1,160
185,82,20085,1,8
247,96,20253,2,0,B|247:176|183:160|119:128,1,160
112,192,20756,1,8
112,192,20923,2,0,B|32:144,2,80
166,234,21426,1,4
224,272,21594,1,4
288,272,21761,1,4
336,224,21929,1,4
336,96,22264,6,0,B|160:96,1,160
112,96,22767,1,8
112,32,22935,2,0,B|288:32,1,160
336,32,23437,1,8
400,32,23605,2,0,B|400:208,1,160
400,256,24108,1,4
336,256,24275,1,4
336,192,24443,1,4
336,128,24611,1,4
192,128,24946,6,0,B|128:96|80:144|117:221,1,160
176,208,25449,1,8
240,207,25616,2,0,B|267:272|219:320|155:288,1,160
102,259,26119,1,8
103,195,26287,2,0,B|103:83,2,80
103,260,26789,1,4
168,262,26957,1,4
233,264,27125,1,4
299,264,27292,1,4
424,255,27627,6,0,B|392:207|392:207|456:191|456:191|415:144,1,160
370,136,28130,1,8
336,80,28298,2,0,B|288:80|288:80|304:144|304:144|224:128,1,160
224,80,28801,1,8
160,80,28968,2,0,B|112:96|112:96|128:144|128:144|192:128,1,160
229,176,29471,1,4
194,232,29638,1,4
260,232,29806,1,4
227,288,29974,1,4
128,272,30309,6,0,B|64:256|48:224|32:176|32:144|48:128,1,160
96,125,30812,1,8
51,78,30979,2,0,B|83:30|147:14|211:30,1,160
226,86,31482,1,8
284,51,31650,2,0,B|348:51|364:115,2,80,0|0|0
226,87,32152,1,4
192,144,32320,1,4
192,208,32488,1,4
240,256,32655,1,4
256,192,32990,12,4,35337
144,112,36510,5,0
208,80,36678,1,0
272,112,36845,1,0
208,160,37013,2,0,B|208:336,1,160
208,320,37516,1,0
208,320,37683,2,0,B|384:320,1,160
368,320,38186,1,0
368,320,38354,2,0,B|368:208,1,80
368,176,38689,1,8
368,112,38856,1,8
368,176,39024,1,8
304,176,39192,6,0,B|256:176|224:96,2,80
320,240,39694,2,0,B|336:304|256:320|176:288,1,160
139,284,40197,1,0
80,256,40365,2,0,B|48:224|32:160|64:96,1,160
95,48,40868,1,0
160,32,41035,2,0,B|208:-16|208:192|240:64|336:-16|352:64,1,240
352,176,41873,5,0
304,224,42041,1,0
256,176,42208,1,0
208,224,42376,1,0
160,176,42544,1,0
112,224,42711,1,0
112,48,43214,1,0
160,96,43382,1,0
208,48,43549,1,0
256,96,43717,1,0
304,48,43884,1,0
352,96,44052,1,0
352,272,44554,5,0
288,272,44722,1,0
224,272,44890,1,0
288,272,45057,1,0
112,272,45560,1,0
112,208,45728,2,0,B|112:144|160:128|240:96|320:96,1,240
368,96,46398,1,0
432,96,46566,1,0
192,96,47236,5,0
144,48,47404,1,0
192,96,47571,1,0
128,112,47739,1,0
128,288,48242,1,0
176,336,48409,1,0
352,336,48912,1,0
400,288,49080,1,0
400,224,49247,2,8,B|400:128,3,80
400,80,49918,5,0
336,96,50085,1,0
288,144,50253,1,0
272,208,50421,1,0
96,208,50923,1,0
48,160,51091,1,0
192,48,51594,1,0
256,48,51761,2,0,B|304:16|368:16|448:16|512:64,1,240
496,176,52599,5,0
448,224,52767,1,0
400,176,52935,1,0
352,224,53102,2,0,B|176:224,1,160
128,224,53605,1,0
128,96,53940,1,0
176,144,54108,1,0
224,96,54275,1,0
272,144,54443,2,0,B|384:144,2,80
224,192,54946,1,0
128,256,55281,5,0
176,304,55449,1,0
128,256,55616,1,0
128,192,55784,2,0,B|128:128|192:96|240:80,1,160
288,112,56287,1,0
336,160,56454,2,0,B|368:208|368:288|320:320,1,160
272,320,56957,1,0
272,320,57125,1,0
208,320,57292,2,8,B|112:304,3,80
48,208,58130,5,0
32,144,58298,1,0
48,80,58465,1,0
96,32,58633,1,0
160,16,58801,1,0
224,32,58968,1,0
288,32,59136,2,0,B|384:32,2,80
272,96,59638,5,0
224,144,59806,1,0
272,192,59974,1,0
208,208,60141,1,0
144,192,60309,1,0
160,128,60476,2,0,B|32:96|48:208,1,160
64,256,60979,5,0
112,304,61147,2,0,B|32:352|144:352|224:304,1,160
256,288,61650,1,0
320,272,61817,2,0,B|352:336|352:304|352:256|304:176,1,160
272,144,62320,1,0
208,128,62488,2,0,B|144:128,8,40
336,128,63493,5,0
400,128,63661,1,0
400,192,63828,1,0
352,240,63996,1,0
304,288,64164,1,0
240,288,64331,1,0
176,272,64499,2,0,B|112:320|80:304|48:256|48:208,1,160
48,176,65002,5,0
64,112,65169,1,0
128,96,65337,1,0
128,160,65504,1,0
192,144,65672,1,0
192,80,65840,2,0,B|256:64|272:128,2,80
192,144,66342,5,0
224,208,66510,2,0,B|272:144|304:112|379:106,1,160
352,176,67013,1,0
320,240,67180,2,0,B|304:288|224:320|160:288,2,160,0|0|4
64,64,68354,5,4
448,304,68856,1,4
96,160,70197,5,0
112,96,70365,1,0
160,48,70532,2,0,B|240:32|304:48|336:80,1,160
304,128,71035,1,0
368,144,71203,2,0,B|416:160|432:224|400:288,1,160
352,320,71706,5,0
288,320,71873,1,0
224,320,72041,2,0,B|48:320,1,160
64,256,72544,1,0
128,256,72711,2,0,B|304:256,1,160
352,256,73214,5,0
400,208,73382,1,0
336,192,73549,2,0,B|384:160|384:160|352:128|352:128|288:144,1,160
287,78,74052,1,0
224,64,74219,2,0,B|192:32|192:32|128:64,1,80
144,112,74555,5,0
128,176,74722,1,0
112,240,74890,2,0,B|144:288|208:304|272:288,1,160
304,256,75393,1,0
320,192,75560,5,0
320,192,75728,1,0
320,192,75895,2,0,B|288:128|240:96|176:80,1,160
144,64,76398,1,0
80,64,76566,1,0
80,192,76901,1,0
80,192,77069,2,0,B|80:240|80:288|144:352|256:256,1,240
400,96,78242,5,0
352,48,78409,1,0
288,32,78577,2,0,B|224:16|176:48,1,80
149,62,78912,2,0,B|101:94|83:141,1,80
64,176,79247,5,0
80,240,79415,1,0
144,224,79583,1,0
192,272,79750,1,0
256,272,79918,1,4
256,208,80085,1,4
256,144,80253,1,4
256,80,80421,1,4
256,80,80588,2,4,B|144:80,1,80
112,80,80923,5,0
64,128,81091,1,0
48,192,81259,2,0,B|32:240|32:288|64:320|112:336,1,160
160,336,81761,1,0
224,336,81929,2,0,B|416:336,4,160
400,304,83605,5,0
448,256,83773,1,0
464,192,83941,2,0,B|480:144|480:96|448:64|400:48,1,160
352,48,84443,1,0
288,48,84611,2,0,B|96:48,4,160
256,160,86287,5,0
256,224,86454,1,0
256,288,86622,2,0,B|256:112,1,160
256,64,87125,1,0
256,64,87292,2,0,B|304:64|336:80|384:112|400:160,4,160
128,64,88968,5,0
128,128,89136,1,0
128,192,89303,1,0
128,256,89471,1,0
128,320,89638,1,0
192,320,89806,2,0,B|192:48,1,240
256,192,90644,12,2,91650
400,192,91985,6,0,B|432:144|416:96|336:64,1,160
288,32,92488,1,8
224,48,92655,2,0,B|160:80|144:128|144:192,1,160
144,240,93158,1,8
208,240,93326,2,0,B|256:240|320:224|352:192|352:160,1,160
384,128,93828,1,4
384,128,93996,1,4
384,128,94164,1,4
384,128,94331,1,4
272,128,94666,6,0,B|224:144|160:128|128:64,1,160
80,112,95169,1,8
32,160,95337,2,0,B|80:176|128:208|112:256|64:288,1,160
128,320,95840,1,8
192,336,96007,2,0,B|208:288|272:272,2,80
256,352,96510,1,4
320,352,96678,1,4
384,336,96845,1,4
432,288,97013,1,4
432,160,97348,6,0,B|336:16,1,160
288,64,97851,1,8
240,112,98018,2,0,B|352:256,1,160
288,288,98521,1,8
240,336,98689,2,0,B|128:208,1,160
96,160,99192,1,4
96,96,99359,1,4
144,48,99527,1,4
208,32,99694,1,4
336,32,100030,6,0,B|384:16|416:16|448:16|496:48|496:80,1,160
464,112,100532,1,8
400,96,100700,2,0,B|412:90|364:58|332:58|300:58|252:74,1,160
224,128,101203,1,8
224,128,101370,2,0,B|272:112|304:144,2,80
160,144,101873,1,4
112,96,102041,1,4
160,48,102208,1,4
224,32,102376,1,4
352,32,102711,6,0,B|416:32|432:96|384:128|336:128,1,160
288,128,103214,1,8
224,127,103382,2,0,B|163:127|147:191|195:223|228:221,1,160
288,224,103884,1,8
352,224,104052,2,0,B|416:224|432:288|384:320|336:320,1,160
288,320,104555,1,4
224,304,104722,1,4
224,240,104890,1,4
288,224,105057,1,4
288,112,105393,6,0,B|272:64|240:48|192:32|144:32,1,160
112,80,105895,1,8
48,64,106063,2,0,B|32:128|32:176|48:192|96:208,1,160
144,176,106566,1,8
192,224,106733,2,0,B|240:224|272:176,2,80
128,240,107236,1,4
64,240,107404,1,4
128,240,107571,1,4
64,240,107739,1,4
256,192,108074,12,4,110085
256,192,110421,12,4,112767
