osu file format v7

[General]
AudioFilename: Abunai_Sisters.mp3
AudioLeadIn: 982
PreviewTime: 72297
Countdown: 0
SampleSet: Normal
StackLeniency: 0.5
Mode: 0
LetterboxInBreaks: 1

[Editor]
DistanceSpacing: 0.5
BeatDivisor: 2
GridSize: 8

[Metadata]
Title:Abunai Sisters
Artist:Innocent Key
Creator:Crimson_SoulZ
Version:Cirno
Source:Touhou Celebrity
Tags:Flandre Remilia Scarlet Devil Mansion Sakuya Izayoi

[Difficulty]
HPDrainRate:0
CircleSize:3
OverallDifficulty:1
SliderMultiplier:2
SliderTickRate:2

[Events]
//Background and Video events
0,0,"Untitled-2.png"
Video,0,"Abunai_Sisters(2).avi"
//Break Periods
2,65706,70645
2,93797,98463
//Storyboard Layer 0 (Background)
//Storyboard Layer 1 (Fail)
//Storyboard Layer 2 (Pass)
//Storyboard Layer 3 (Foreground)
//Storyboard Sound Samples
//Background Colour Transformations
3,100,163,162,255

[TimingPoints]
12325,545.454545454545,3,1,0,60,1,0
80506,-100,3,1,0,60,0,1
93870,-100,3,1,0,60,0,0
100143,-100,3,1,0,60,0,1
106688,-100,3,1,0,60,0,0

[Colours]
Combo1 : 255,128,0
Combo2 : 5,240,5
Combo3 : 5,5,240
Combo4 : 240,5,5

[HitObjects]
72,64,39597,2,0,B|304:64,1,200
376,64,40688,2,0,B|376:192,1,100
376,264,41506,2,0,B|216:264,1,100
80,40,42870,6,8,B|80:144,2,100
256,40,44234,1,0
440,40,45052,2,0,B|440:272|440:272|336:272|232:272,1,400
152,272,46688,5,0
152,272,46961,2,8,B|152:384,2,100
328,272,48324,5,0
328,272,48597,2,8,B|328:128,2,100
328,88,49961,5,2
152,88,50779,1,2
152,272,51597,1,4
272,272,52143,2,0,B|416:272|464:160|408:72|264:40,1,400
152,40,53779,6,2,B|16:40,1,100
152,112,54597,2,2,B|40:112,1,100
96,288,55961,5,0
96,288,56234,1,0
96,288,56506,2,2,B|120:232|128:208|160:192|208:184|248:184|272:216|288:240|304:280|328:304|344:312|376:320|400:320|432:320|448:312|464:296|472:272|472:248|472:224|472:208|472:184|472:152|472:120,1,600
360,40,59234,5,0
360,104,59506,1,0
360,160,59779,1,0
360,224,60052,1,0
232,48,60870,5,0
232,112,61143,1,0
232,168,61415,1,0
232,232,61688,1,0
392,312,62506,5,0
392,248,62779,1,0
392,184,63052,1,0
392,72,63597,6,2,B|256:72,1,100
192,72,64415,2,0,B|192:176,1,100
192,272,65234,1,4
192,272,65506,1,4
64,16,72325,5,0
64,80,72597,1,0
64,144,72870,2,0,B|64:360|64:360|192:360|192:360|192:264,1,400
192,240,74234,1,0
192,184,74506,6,0,B|192:72|192:72|304:72|304:72|304:176|304:176|424:176|424:176|424:272|424:272|424:352|424:352|336:352,1,700
280,352,76688,5,8
216,352,76961,1,0
160,352,77234,1,8
104,352,77506,1,0
40,352,77779,2,2,B|-16:344|-32:328|-40:312|-8:296|32:288|64:280|112:280|160:280|168:256|160:240|120:224|72:216|16:224|-24:216|-40:192|-48:160|-48:136|-24:120|0:104|32:104|64:104|168:112,1,605
400,48,80506,6,0,B|280:48,1,100
300,48,81052,1,0
120,48,81870,1,0
136,224,82688,6,2,B|168:256|184:264|200:264|224:264|248:256|256:240|264:240|272:224|280:208|280:200|280:184|272:152,1,200
288,120,83506,1,0
344,88,83779,1,8
400,112,84052,5,8
440,160,84325,2,2,B|496:248|400:344|240:312|128:312,1,400
152,256,85688,1,0
152,192,85961,2,8,B|80:192,6,50
152,120,87052,6,0,B|48:120,2,100
272,112,88143,2,2,B|384:56|488:136|448:272,1,300
448,312,89234,1,0
216,312,90325,5,0
160,296,90597,1,8
136,240,90870,1,8
144,184,91143,1,8
184,144,91415,1,4
240,128,91688,1,4
256,192,92506,12,0,93597
320,56,100143,6,2,B|192:56,1,100
160,56,100688,1,4
64,64,101234,2,0,B|64:272|64:272|160:272|160:272|280:272,1,400
432,264,103415,5,0
448,216,103688,2,0,B|512:120|424:40|352:32|304:144,1,300
280,168,104779,1,0
256,192,105597,12,0,106688
