osu file format v14

[General]
AudioFilename: Innocent Graffiti.mp3
AudioLeadIn: 0
PreviewTime: 52999
Countdown: 0
SampleSet: Soft
StackLeniency: 0.7
Mode: 0
LetterboxInBreaks: 0
WidescreenStoryboard: 1

[Editor]
DistanceSpacing: 1
BeatDivisor: 4
GridSize: 4
TimelineZoom: 1

[Metadata]
Title:Junjou Romantica 3 Innocent Graffiti
TitleUnicode:Junjou Romantica 3 Innocent Graffiti
Artist:
ArtistUnicode:
Creator:ivander20
Version:Normal
Source:junjou romantica 3
Tags:junjou romantica, Yaoi, Shounen Ai.
BeatmapID:760305
BeatmapSetID:342197

[Difficulty]
HPDrainRate:4
CircleSize:3
OverallDifficulty:4
ApproachRate:4
SliderMultiplier:1.2
SliderTickRate:1

[Events]
//Background and Video events
0,0,"01.jpg",0,0
Video,0,"Osu.avi"
//Break Periods
2,11534,19168
//Storyboard Layer 0 (Background)
//Storyboard Layer 1 (Fail)
//Storyboard Layer 2 (Pass)
//Storyboard Layer 3 (Foreground)
//Storyboard Sound Samples

[TimingPoints]
1166,338.983050847458,5,2,0,100,1,0
53030,-100,5,2,0,100,0,1
75064,-100,5,2,0,100,0,0

[Colours]
Combo1 : 0,255,0
Combo2 : 255,255,255

[HitObjects]
84,48,1166,6,0,P|56:124|76:152,2,120
184,88,2166,1,0,0:0:0:0:
192,192,2499,1,0,0:0:0:0:
212,300,2860,2,0,P|252:312|340:276,1,120
416,280,3538,1,0,0:0:0:0:
340,180,3877,1,0,0:0:0:0:
472,180,4216,2,0,L|440:120,1,60
392,84,4725,2,0,L|316:80,1,60
284,80,5064,1,0,0:0:0:0:
184,256,5911,2,0,L|332:256,2,120
312,76,7267,2,0,L|184:68,2,120
216,124,8623,2,0,B|60:136|64:0|416:32|596:8|628:148|48:172|52:232|572:204|580:368|44:308,1,960
80,64,20488,6,0,P|136:76|192:48,1,120
92,176,21166,1,0,0:0:0:0:
200,116,21504,1,0,0:0:0:0:
324,116,21843,1,0,0:0:0:0:
432,188,22182,1,0,0:0:0:0:
376,288,22521,2,0,B|324:268|220:412|92:360|168:152|80:200,2,360
440,224,24894,2,0,L|420:152,2,60
448,264,25403,1,0,0:0:0:0:
124,88,26250,6,0,L|196:96,2,60
120,124,26759,1,0,0:0:0:0:
196,200,27098,1,0,0:0:0:0:
312,100,27437,2,0,P|332:160|372:220,1,120
380,324,28115,2,0,P|240:300|152:348,2,240
416,204,29810,2,0,P|412:128|408:124,2,60
404,232,30318,2,0,P|352:232|312:120,1,180
104,104,31166,2,0,P|84:128|112:276,1,180
308,188,32013,2,0,L|344:124,1,60
380,136,32352,2,0,L|436:196,1,60
404,228,32691,2,0,L|352:264,1,60
324,284,33030,2,0,P|268:284|220:244,1,120
64,192,33708,2,0,L|68:68,2,120
176,204,34725,6,0,L|268:124,2,120
328,96,35742,2,0,B|328:44|280:48|224:92|116:112|96:64,2,240
272,188,37437,2,0,P|180:224|180:228,1,120
256,276,38115,2,0,P|312:296|372:256,1,120
384,176,38793,2,0,B|372:112|324:76|224:92|168:88,2,240
104,176,40488,2,0,L|104:248,1,60
220,236,40827,2,0,L|292:236,1,60
364,304,41166,2,0,L|428:304,1,60
456,216,41504,2,0,L|452:148,1,60
360,72,41843,2,0,L|268:60,2,90
336,176,42860,2,0,P|328:232|256:252,1,120
152,252,43538,2,0,L|108:200,1,60
188,144,44047,6,0,L|256:92,1,60
280,232,44555,2,0,L|352:224,1,60
324,128,45064,2,0,L|276:92,1,60
56,192,45572,2,0,P|56:248|124:256,1,120
144,192,46250,2,0,P|200:180|248:228,2,120
96,92,47267,2,0,L|140:52,1,60
228,124,47776,2,0,L|268:76,1,60
328,168,48284,2,0,P|408:184|452:152,1,120
392,80,48962,1,0,0:0:0:0:
304,128,49332,2,0,P|284:180|324:224,1,120
420,168,49979,1,0,0:0:0:0:
384,64,50332,1,0,0:0:0:0:
264,68,50666,1,0,0:0:0:0:
240,200,50996,2,0,B|108:256|180:256|100:332|-20:272|92:124|68:136,2,300
192,48,53030,5,0,0:0:0:0:
160,168,53369,1,0,0:0:0:0:
324,120,53708,1,0,0:0:0:0:
256,200,54047,2,0,P|232:244|252:336,2,120
276,236,55064,2,0,L|296:300,1,60
388,328,55403,2,0,L|436:276,1,60
456,204,55742,2,0,L|444:140,1,60
396,64,56081,2,0,P|352:64|268:116,1,120
192,148,56759,1,0,0:0:0:0:
240,260,57098,2,0,P|208:300|136:332,1,120
136,252,57776,2,0,P|104:228|76:156,1,120
112,60,58454,1,0,0:0:0:0:
176,140,58793,1,0,0:0:0:0:
268,160,59132,2,0,P|296:180|368:136,1,120
456,240,59810,2,0,L|388:288,1,60
368,272,60149,2,0,L|284:276,1,60
260,276,60488,2,0,L|152:220,1,120
316,204,61166,1,0,0:0:0:0:
216,280,61504,6,0,P|184:228|160:172,1,120
120,104,62182,1,0,0:0:0:0:
200,56,62521,2,0,L|264:52,1,60
276,68,62860,2,0,L|308:120,1,60
328,144,63199,2,0,L|328:216,1,60
296,284,63877,2,0,P|244:304|172:284,1,120
68,232,64555,2,0,P|68:144|92:104,1,120
208,224,65233,2,0,P|196:192|232:160,1,60
324,120,65742,2,0,P|360:160|360:232,1,120
268,224,66420,2,0,L|196:224,1,60
124,100,66928,2,0,L|48:192,1,120
124,260,67606,2,0,L|228:344,1,120
268,240,68284,2,0,P|316:216|324:136,2,120
144,264,69301,1,0,0:0:0:0:
168,144,69640,6,0,P|204:176|396:196,1,240
128,312,70999,2,0,P|164:296|352:348,1,240
44,244,72352,2,0,B|128:84|184:240|240:72|292:244|352:64|376:232|460:76,2,480
248,68,75403,2,0,L|380:60,1,120
128,180,76081,1,0,0:0:0:0:
320,160,76420,1,0,0:0:0:0:
356,292,76759,2,0,L|244:336,1,120
176,212,77437,1,0,0:0:0:0:
220,96,77776,1,0,0:0:0:0:
220,96,78115,2,0,L|344:96,1,120
308,228,78793,1,0,0:0:0:0:
308,228,78962,2,0,P|240:232|156:220,1,150
164,320,79725,1,0,0:0:0:0:
312,328,80064,1,0,0:0:0:0:
132,184,80832,2,0,P|120:140|52:96,1,120
144,40,81499,2,0,L|192:80,1,60
304,128,82013,2,0,B|380:164|404:216|396:256|392:280,2,180
228,216,83369,1,0,0:0:0:0:
256,192,83832,12,0,86499,0:0:0:0:
168,116,87267,6,0,L|236:120,1,60
212,208,87606,2,0,L|228:268,1,60
320,272,87945,2,0,L|380:244,1,60
384,152,88284,2,0,L|416:96,1,60
