osu file format v14

[General]
AudioFilename: Innocent Graffiti.mp3
AudioLeadIn: 0
PreviewTime: 52999
Countdown: 0
SampleSet: Soft
StackLeniency: 0.7
Mode: 0
LetterboxInBreaks: 0
WidescreenStoryboard: 1

[Editor]
DistanceSpacing: 1
BeatDivisor: 4
GridSize: 4
TimelineZoom: 1

[Metadata]
Title:Junjou Romantica 3 Innocent Graffiti
TitleUnicode:Junjou Romantica 3 Innocent Graffiti
Artist:
ArtistUnicode:
Creator:ivander20
Version:Hard
Source:junjou romantica 3
Tags:junjou romantica, Yaoi, Shounen Ai.
BeatmapID:771421
BeatmapSetID:342197

[Difficulty]
HPDrainRate:6
CircleSize:4
OverallDifficulty:7
ApproachRate:7
SliderMultiplier:1.49999990463257
SliderTickRate:1

[Events]
//Background and Video events
0,0,"01.jpg",0,0
Video,0,"Osu.avi"
//Break Periods
2,11873,19588
//Storyboard Layer 0 (Background)
//Storyboard Layer 1 (Fail)
//Storyboard Layer 2 (Pass)
//Storyboard Layer 3 (Foreground)
//Storyboard Sound Samples

[TimingPoints]
1166,338.983050847458,5,2,0,100,1,0

[Colours]
Combo1 : 0,255,0
Combo2 : 255,255,255

[HitObjects]
60,60,1166,6,0,P|116:112|192:88,1,149.999990463257
256,196,1674,2,0,P|320:232|376:188,1,149.999990463257
456,52,2352,2,0,L|452:216,1,149.999990463257
448,288,2860,1,0,0:0:0:0:
376,224,3030,1,0,0:0:0:0:
312,300,3199,2,0,B|248:308|224:344|136:340,2,149.999990463257
104,192,4216,1,0,0:0:0:0:
200,96,4386,1,0,0:0:0:0:
416,48,4725,1,0,0:0:0:0:
416,164,4894,1,0,0:0:0:0:
400,280,5064,1,0,0:0:0:0:
64,68,5911,2,0,L|180:68,2,112.499992847443
328,312,7267,2,0,L|444:312,2,112.499992847443
276,128,8623,2,0,B|-68:212|-180:-92|532:0|740:-8|740:172|-96:180|-36:244|712:220|684:388|52:332,1,1349.99991416931
84,76,20488,5,0,0:0:0:0:
160,80,20657,2,0,L|400:80,1,224.999985694886
376,124,21335,2,0,P|360:160|260:184,1,149.999990463257
48,320,22013,1,0,0:0:0:0:
40,316,22352,2,0,P|132:320|192:268,1,149.999990463257
384,96,23030,2,0,L|456:136,3,74.9999952316285
320,184,23708,1,0,0:0:0:0:
180,148,23877,1,0,0:0:0:0:
92,152,24047,2,0,L|92:244,2,74.9999952316285
192,248,24555,2,0,P|256:264|344:248,1,149.999990463257
348,164,25064,2,0,L|368:72,1,74.9999952316285
363,90,25403,1,0,0:0:0:0:
152,128,25911,6,0,P|100:168|72:256,2,149.999990463257
312,104,26759,2,0,L|468:96,1,149.999990463257
320,196,27267,1,0,0:0:0:0:
344,336,27437,2,0,B|272:376|280:196|160:284,1,224.999985694886
56,280,28115,2,0,B|28:192|44:120|248:276|232:20,1,374.999976158143
336,140,29132,2,0,L|408:100,3,74.9999952316285
324,240,29810,1,0,0:0:0:0:
180,236,29979,1,0,0:0:0:0:
92,232,30149,2,0,L|92:140,2,74.9999952316285
180,128,30657,2,0,L|252:100,2,74.9999952316285
56,76,31674,6,0,P|48:124|80:164,1,74.9999952316285
128,236,32013,1,0,0:0:0:0:
228,184,32182,2,0,P|292:172|316:92,1,149.999990463257
440,80,32691,2,0,L|440:164,1,74.9999952316285
440,248,33030,1,0,0:0:0:0:
344,296,33199,1,0,0:0:0:0:
268,344,33369,2,0,B|264:300|91:332|39:296|227:224,1,299.999980926514
52,44,34386,1,0,0:0:0:0:
88,128,34555,2,0,L|96:208,1,74.9999952316285
176,80,34894,1,0,0:0:0:0:
240,220,35064,1,0,0:0:0:0:
316,80,35233,1,0,0:0:0:0:
364,208,35403,2,0,L|424:296,1,74.9999952316285
76,72,36081,5,0,0:0:0:0:
76,180,36250,1,0,0:0:0:0:
212,196,36420,2,0,B|240:140|360:112|436:224,2,262.4999833107
324,248,37776,2,0,L|376:304,1,74.9999952316285
256,308,38115,2,0,P|152:300|120:268,1,149.999990463257
104,176,38623,1,0,0:0:0:0:
128,72,38793,2,0,P|200:100|284:72,1,149.999990463257
220,184,39301,1,0,0:0:0:0:
356,168,39471,2,0,B|360:232|312:228|392:304,2,149.999990463257
144,104,40318,2,0,L|52:156,1,74.9999952316285
120,236,40657,2,0,L|180:280,1,74.9999952316285
280,104,40996,2,0,L|212:160,1,74.9999952316285
304,244,41335,2,0,L|372:300,1,74.9999952316285
432,180,41674,2,0,L|440:96,1,74.9999952316285
436,100,42013,1,0,0:0:0:0:
436,100,42182,1,0,0:0:0:0:
440,92,42352,1,0,0:0:0:0:
116,304,42691,6,0,P|156:324|216:316,2,74.9999952316285
184,240,43199,1,0,0:0:0:0:
268,164,43369,2,0,P|228:144|168:152,2,74.9999952316285
288,256,43877,2,0,L|444:256,1,149.999990463257
424,168,44386,2,0,P|392:136|360:128,1,74.9999952316285
352,200,44725,2,0,P|308:184|296:152,1,74.9999952316285
284,72,45064,1,0,0:0:0:0:
60,112,45403,2,0,B|60:160|96:160|80:188,1,74.9999952316285
172,184,45742,2,0,B|172:136|216:136|172:92,1,74.9999952316285
284,152,46081,2,0,L|444:144,1,149.999990463257
440,260,46589,1,0,0:0:0:0:
316,264,46759,1,0,0:0:0:0:
208,292,46928,2,0,L|128:328,1,74.9999952316285
72,220,47267,1,0,0:0:0:0:
76,96,47437,1,0,0:0:0:0:
184,140,47606,1,0,0:0:0:0:
184,260,47776,1,0,0:0:0:0:
