osu file format v13

[General]
AudioFilename: INNA - Shining Star.mp3
AudioLeadIn: 0
PreviewTime: 45284
Countdown: 0
SampleSet: Soft
StackLeniency: 0.7
Mode: 0
LetterboxInBreaks: 1
WidescreenStoryboard: 1

[Editor]
DistanceSpacing: 1
BeatDivisor: 4
GridSize: 4
TimelineZoom: 1

[Metadata]
Title:Shining Star
TitleUnicode:Shining Star
Artist:Inna
ArtistUnicode:Inna
Creator:deejaydray
Version:Normal
Source:
Tags:party never ends club rocker romania krfawy
BeatmapID:330017
BeatmapSetID:130953

[Difficulty]
HPDrainRate:4
CircleSize:3
OverallDifficulty:4
ApproachRate:5
SliderMultiplier:1.50000000596046
SliderTickRate:1

[Events]
//Background and Video events
0,0,"BG.jpg",0,0
//Break Periods
2,105250,111584
//Storyboard Layer 0 (Background)
//Storyboard Layer 1 (Fail)
//Storyboard Layer 2 (Pass)
//Storyboard Layer 3 (Foreground)
//Storyboard Sound Samples
//Background Colour Transformations
3,100,234,234,234

[TimingPoints]
284.691247662326,468.75,4,2,0,50,1,0
45284,-100,4,2,0,50,0,1
59347,-100,4,2,0,50,0,0
90284,-100,4,2,0,50,0,1
104815,-100,4,2,0,50,0,0
135284,-100,4,2,0,50,0,1
149815,-100,4,2,0,50,0,0

[Colours]
Combo1 : 48,56,58
Combo2 : 150,4,213
Combo3 : 249,164,166
Combo4 : 241,234,95

[HitObjects]
104,220,15284,6,0,B|152:232|152:232|140:284|180:324,1,150.000000596046,4|0,0:0|0:0,0:0:0:0:
256,336,15987,1,0,0:0:0:0:
332,324,16222,2,0,B|372:284|360:232|360:232|408:220,1,150.000000596046,8|0,0:0|0:0,0:0:0:0:
464,168,16925,1,0,0:0:0:0:
408,116,17159,2,0,P|356:64|284:72,2,150.000000596046,2|0|8,0:0|0:0|0:0,0:0:0:0:
288,208,18565,1,0,0:0:0:0:
188,96,19034,6,0,P|96:88|28:188,1,225.000000894069,4|0,0:0|0:0,0:0:0:0:
80,244,19972,2,0,L|136:300,2,75.000000298023,8|0|8,0:0|0:0|0:0,0:0:0:0:
224,280,20909,2,0,P|260:216|224:156,1,150.000000596046,2|0,0:0|0:0,0:0:0:0:
84,104,21847,2,0,L|12:76,2,75.000000298023,8|0|8,0:0|0:0|0:0,0:0:0:0:
156,128,22550,1,0,0:0:0:0:
224,156,22784,6,0,P|288:204|360:220,1,150.000000596046,4|0,0:0|0:0,0:0:0:0:
484,140,23722,1,8,0:0:0:0:
416,108,23956,2,0,L|348:76,1,75.000000298023,0|8,0:0|0:0,0:0:0:0:
280,48,24425,1,0,0:0:0:0:
280,48,24659,2,0,P|196:72|188:124,1,150.000000596046,2|0,0:0|0:0,0:0:0:0:
256,256,25597,2,0,L|296:320,2,75.000000298023,8|0|8,0:0|0:0|0:0,0:0:0:0:
216,192,26300,1,0,0:0:0:0:
148,156,26534,6,0,B|180:104|148:52|148:52|176:24,1,150.000000596046,4|0,0:0|0:0,0:0:0:0:
336,24,27472,2,0,B|364:52|364:52|332:104|364:156,1,150.000000596046,8|0,0:0|0:0,0:0:0:0:
332,304,28409,2,0,B|256:320|256:320|184:304,3,150.000000596046,2|8|8|8,0:0|0:0|0:0|0:0,0:0:0:0:
112,288,30050,1,0,0:0:0:0:
112,288,30284,5,4,0:0:0:0:
36,160,30753,1,8,0:0:0:0:
188,160,31222,1,8,0:0:0:0:
76,60,31690,2,8,L|152:60,1,75.000000298023
228,60,32159,2,0,B|272:40|332:80|376:60,1,150.000000596046,2|8,0:0|0:0,0:0:0:0:
472,176,33097,2,0,P|436:200|396:200,2,75.000000298023,8|0|8,0:0|0:0|0:0,0:0:0:0:
332,124,34034,6,0,P|256:112|184:124,1,150.000000596046,4|8,0:0|0:0,0:0:0:0:
152,192,34737,2,0,P|256:236|356:192,1,225.000000894069,0|8,0:0|0:0,0:0:0:0:
332,124,35675,1,0,0:0:0:0:
480,156,36144,2,0,L|452:228,1,75.000000298023,0|8,0:0|0:0,0:0:0:0:
400,280,36612,2,0,L|328:308,1,75.000000298023,0|8,0:0|0:0,0:0:0:0:
260,336,37081,2,0,L|180:336,1,75.000000298023,0|8,0:0|0:0,0:0:0:0:
56,264,37784,6,0,L|96:116,1,150.000000596046,4|8,0:0|0:0,0:0:0:0:
236,72,38722,2,0,L|196:220,1,150.000000596046,8|8,0:0|0:0,0:0:0:0:
196,216,39425,1,8,0:0:0:0:
176,364,39894,2,0,P|100:336|60:280,1,150.000000596046,0|0,0:0|0:0,0:0:0:0:
60,208,40597,2,0,P|105:149|175:125,1,150.000000596046,8|8,0:0|0:0,0:0:0:0:
324,152,41534,6,0,P|372:184|428:184,2,112.500000447034,4|0|0,0:0|0:0|0:0,0:0:0:0:
324,76,42472,2,0,P|372:44|428:44,2,112.500000447034,8|0|0,0:0|0:0|0:0,0:0:0:0:
324,152,43409,1,2,0:0:0:0:
184,328,44112,2,0,B|256:344|256:344|332:328,2,150.000000596046,2|2|2,0:0|0:0|0:0,0:0:0:0:
184,328,45284,6,0,B|112:304|112:304|60:252,2,150.000000596046,4|0|8,0:0|0:0|0:0,0:0:0:0:
256,304,46456,1,0,0:0:0:0:
328,328,46690,2,0,B|400:304|400:304|452:252,2,150.000000596046,0|2|0,0:0|0:0|0:0,0:0:0:0:
256,196,48097,2,0,L|256:44,1,150.000000596046,8|2,0:0|0:0,0:0:0:0:
180,44,48800,1,2,0:0:0:0:
180,44,49034,6,0,P|108:62|56:114,1,150.000000596046,4|0,0:0|0:0,0:0:0:0:
56,264,49972,2,0,P|109:317|181:335,1,150.000000596046,8|2,0:0|0:0,0:0:0:0:
256,340,50675,1,2,0:0:0:0:
256,340,50909,2,0,B|328:358|328:358|360:342|360:294,1,150.000000596046,2|0,0:0|0:0,0:0:0:0:
432,268,51612,2,0,P|376:220|296:252,1,150.000000596046
180,320,52550,2,0,L|140:252,1,75.000000298023,0|4,0:0|0:0,0:0:0:0:
48,140,53253,6,0,B|72:116|72:116|116:116|116:116|148:136|184:116,1,150.000000596046,0|8,0:0|0:0,0:0:0:0:
256,88,53956,1,0,0:0:0:0:
328,116,54190,2,0,B|364:136|396:116|396:116|440:116|440:116|464:140,1,150.000000596046,0|2,0:0|0:0,0:0:0:0:
332,216,55128,2,0,B|256:228|256:228|184:216,2,150.000000596046,0|8|2,0:0|0:0|0:0,0:0:0:0:
408,196,56300,1,2,0:0:0:0:
464,140,56534,6,0,B|440:116|440:116|396:116|396:116|364:136|328:116,1,150.000000596046,4|0,0:0|0:0,0:0:0:0:
184,116,57471,2,0,B|148:136|116:116|116:116|72:116|72:116|48:140,1,150.000000596046,8|2,0:0|0:0,0:0:0:0:
48,216,58175,1,2,0:0:0:0:
48,216,58409,2,0,P|88:280|156:296,1,150.000000596046,2|0,0:0|0:0,0:0:0:0:
296,236,59347,1,8,0:0:0:0:
388,120,59815,2,0,P|360:96|324:92,1,75.000000298023,2|2,0:0|0:0,0:0:0:0:
248,92,60284,6,0,B|204:92|204:92|172:140|112:124,1,150.000000596046,4|0,0:0|0:0,0:0:0:0:
76,192,60987,1,0,0:0:0:0:
112,260,61222,2,0,B|172:244|204:292|204:292|248:292,1,150.000000596046,8|0,0:0|0:0,0:0:0:0:
296,236,61925,1,0,0:0:0:0:
348,184,62159,2,0,B|376:156|376:156|448:156|448:156|476:128,2,150.000000596046,2|0|8,0:0|0:0|0:0,0:0:0:0:
256,64,63565,1,0,0:0:0:0:
124,136,64034,6,0,B|180:192|180:192|132:256|180:328,1,225.000000894069,4|0,0:0|0:0,0:0:0:0:
248,292,64972,2,0,L|312:248,2,75.000000298023,8|0|8,0:0|0:0|0:0,0:0:0:0:
112,356,65909,2,0,P|84:280|92:200,1,150.000000596046,2|0,0:0|0:0,0:0:0:0:
156,80,66847,2,0,L|224:112,1,75.000000298023,8|0,0:0|0:0,0:0:0:0:
192,180,67315,2,0,L|260:212,1,75.000000298023,8|0,0:0|0:0,0:0:0:0:
272,288,67784,6,0,P|332:236|320:164,1,150.000000596046,4|0,0:0|0:0,0:0:0:0:
292,24,68722,2,0,L|212:36,1,75.000000298023,8|0,0:0|0:0,0:0:0:0:
156,80,69190,2,0,L|76:92,1,75.000000298023,8|0,0:0|0:0,0:0:0:0:
40,156,69659,2,0,B|60:196|60:196|40:244|60:300,1,150.000000596046,2|0,0:0|0:0,0:0:0:0:
204,344,70597,1,8,0:0:0:0:
256,292,70831,2,0,L|268:216,1,75.000000298023,0|8,0:0|0:0,0:0:0:0:
320,164,71300,1,0,0:0:0:0:
396,164,71534,6,0,B|396:124|396:124|344:96|344:32,1,150.000000596046,4|0,0:0|0:0,0:0:0:0:
167,33,72472,2,0,B|168:96|116:124|116:124|116:164,1,150.000000596046,8|0,0:0|0:0,0:0:0:0:
184,296,73409,2,0,B|224:276|292:316|332:296,3,150.000000596046,2|8|8|8,0:0|0:0|0:0|0:0,0:0:0:0:
396,256,75050,1,0,0:0:0:0:
396,256,75284,6,0,P|448:204|448:132,2,150.000000596046,4|8|8,0:0|0:0|0:0,0:0:0:0:
292,364,76690,2,0,L|216:364,1,75.000000298023,8|8,0:0|0:0,0:0:0:0:
148,332,77159,2,0,P|108:268|108:196,1,150.000000596046,2|8,0:0|0:0,0:0:0:0:
40,60,78097,1,8,0:0:0:0:
108,28,78331,1,0,0:0:0:0:
184,28,78565,1,8,0:0:0:0:
180,180,79034,6,0,B|256:168|256:168|328:180,1,150.000000596046,4|8,0:0|0:0,0:0:0:0:
360,248,79737,2,0,B|256:292|256:292|152:248,1,225.000000894069,0|8,0:0|0:0,0:0:0:0:
180,180,80675,1,0,0:0:0:0:
76,72,81144,2,0,L|144:40,1,75.000000298023,0|8,0:0|0:0,0:0:0:0:
220,32,81612,2,0,L|296:32,1,75.000000298023,0|8,0:0|0:0,0:0:0:0:
368,40,82081,2,0,L|436:72,1,75.000000298023,0|8,0:0|0:0,0:0:0:0:
420,220,82784,6,0,P|396:292|332:324,1,150.000000596046,4|8,0:0|0:0,0:0:0:0:
184,324,83722,2,0,P|119:289|97:220,1,150.000000596046,8|8,0:0|0:0,0:0:0:0:
97,220,84425,1,8,0:0:0:0:
76,72,84894,2,0,B|140:44|140:44|220:44,1,150.000000596046
296,44,85597,2,0,B|376:44|376:44|440:72,1,150.000000596046,8|8,0:0|0:0,0:0:0:0:
296,152,86534,6,0,B|296:196|296:196|324:224|324:260,2,112.500000447034,4|0|0,0:0|0:0|0:0,0:0:0:0:
220,152,87472,2,0,B|220:196|220:196|192:224|192:260,2,112.500000447034,8|0|0,0:0|0:0|0:0,0:0:0:0:
256,88,88409,1,2,0:0:0:0:
180,332,89112,2,0,P|256:348|328:332,2,150.000000596046,2|2|2,0:0|0:0|0:0,0:0:0:0:
180,332,90284,6,0,B|152:304|112:304|72:304|44:276,2,150.000000596046,4|0|8,0:0|0:0|0:0,0:0:0:0:
256,320,91456,1,0,0:0:0:0:
332,332,91690,2,0,B|360:304|400:304|440:304|468:276,2,150.000000596046,0|2|0,0:0|0:0|0:0,0:0:0:0:
256,200,93097,2,0,L|256:48,1,150.000000596046,8|2,0:0|0:0,0:0:0:0:
332,48,93800,1,2,0:0:0:0:
332,48,94034,6,0,B|408:68|408:68|460:120,1,150.000000596046,4|0,0:0|0:0,0:0:0:0:
458,265,94972,2,0,B|408:316|408:316|332:336,1,150.000000596046,8|2,0:0|0:0,0:0:0:0:
256,336,95675,1,2,0:0:0:0:
180,336,95909,2,0,B|104:316|104:316|53:265,1,150.000000596046,2|0,0:0|0:0,0:0:0:0:
0,208,96612,2,0,B|40:172|96:184|132:236,1,150.000000596046
276,256,97550,2,0,L|332:200,1,75.000000298023,0|4,0:0|0:0,0:0:0:0:
456,124,98253,6,0,P|404:68|332:48,1,150.000000596046,0|8,0:0|0:0,0:0:0:0:
256,44,98956,1,0,0:0:0:0:
176,48,99190,2,0,P|105:69|56:124,1,150.000000596046,0|2,0:0|0:0,0:0:0:0:
184,204,100128,2,0,P|256:224|328:204,2,150.000000596046,0|8|2,0:0|0:0|0:0,0:0:0:0:
112,180,101300,1,2,0:0:0:0:
55,124,101534,6,0,P|105:69|176:48,1,150.000000596046,4|0,0:0|0:0,0:0:0:0:
335,48,102472,2,0,P|406:69|456:124,1,150.000000596046,8|2,0:0|0:0,0:0:0:0:
456,200,103175,1,2,0:0:0:0:
456,200,103409,2,0,B|416:264|416:264|348:296,1,150.000000596046,2|0,0:0|0:0,0:0:0:0:
208,348,104347,1,8,0:0:0:0:
60,348,104815,1,2,0:0:0:0:
60,348,105050,1,2,0:0:0:0:
256,192,112784,12,4,114659,0:0:0:0:
200,192,115597,6,0,L|256:136,1,75.000000298023,2|0,0:0|0:0,0:0:0:0:
308,192,116065,2,0,L|254:245,1,75.000000298023,2|0,0:0|0:0,0:0:0:0:
256,192,116534,12,4,118409,0:0:0:0:
104,44,119347,5,2,0:0:0:0:
64,108,119581,1,0,0:0:0:0:
104,172,119815,1,2,0:0:0:0:
64,236,120050,1,0,0:0:0:0:
64,312,120284,6,0,B|124:308|140:248|140:248|184:248,1,150.000000596046,4|8,0:0|0:0,0:0:0:0:
329,248,121222,2,0,B|372:248|372:248|388:308|448:312,1,150.000000596046,8|8,0:0|0:0,0:0:0:0:
448,312,121925,1,8,0:0:0:0:
472,240,122159,2,0,P|480:176|424:112,1,150.000000596046,2|8,0:0|0:0,0:0:0:0:
292,48,123097,2,0,L|224:16,2,75.000000298023,8|0|8,0:0|0:0|0:0,0:0:0:0:
328,192,124034,6,0,P|260:216|188:192,1,150.000000596046,4|8,0:0|0:0,0:0:0:0:
148,256,124737,2,0,P|256:292|368:256,1,225.000000894069,0|8,0:0|0:0,0:0:0:0:
328,192,125675,1,0,0:0:0:0:
432,84,126144,2,0,L|364:52,1,75.000000298023,0|8,0:0|0:0,0:0:0:0:
292,32,126612,2,0,L|216:32,1,75.000000298023,0|8,0:0|0:0,0:0:0:0:
144,52,127081,2,0,L|76:84,1,75.000000298023,0|8,0:0|0:0,0:0:0:0:
48,232,127784,6,0,B|116:280|116:280|184:280,1,150.000000596046,4|8,0:0|0:0,0:0:0:0:
332,280,128722,2,0,B|398:280|398:280|466:232,1,150.000000596046,8|8,0:0|0:0,0:0:0:0:
466,232,129425,1,8,0:0:0:0:
432,88,129894,2,0,B|404:60|404:60|352:84|296:60,1,150.000000596046,0|0,0:0|0:0,0:0:0:0:
220,60,130597,2,0,B|164:83|112:59|112:59|84:87,1,150.000000596046,8|8,0:0|0:0,0:0:0:0:
216,164,131534,6,0,B|216:228|216:228|180:264,2,112.500000447034,4|0|0,0:0|0:0|0:0,0:0:0:0:
292,164,132472,2,0,B|292:228|292:228|326:262,2,112.500000447034,8|0|0,0:0|0:0|0:0,0:0:0:0:
256,100,133409,1,2,0:0:0:0:
328,340,134112,2,0,B|284:356|228:324|180:340,2,150.000000596046,2|2|2,0:0|0:0|0:0,0:0:0:0:
328,340,135284,6,0,B|380:288|380:288|420:288|448:260,2,150.000000596046,4|0|8,0:0|0:0|0:0,0:0:0:0:
256,316,136456,1,0,0:0:0:0:
184,340,136690,2,0,B|132:288|132:288|92:288|64:260,2,150.000000596046,0|2|0,0:0|0:0|0:0,0:0:0:0:
256,208,138097,2,0,B|256:132|256:132|204:80,1,150.000000596046,8|2,0:0|0:0,0:0:0:0:
128,80,138800,1,2,0:0:0:0:
80,20,139034,6,0,P|52:88|92:148,1,150.000000596046,4|0,0:0|0:0,0:0:0:0:
140,288,139972,2,0,P|204:272|256:208,1,150.000000596046,8|2,0:0|0:0,0:0:0:0:
280,136,140675,1,2,0:0:0:0:
220,88,140909,2,0,P|292:60|348:100,1,150.000000596046,2|0,0:0|0:0,0:0:0:0:
416,72,141612,2,0,P|404:148|332:172,1,150.000000596046,0|0,0:0|0:0,0:0:0:0:
196,212,142550,2,0,L|116:228,1,75.000000298023,0|4,0:0|0:0,0:0:0:0:
40,100,143253,6,0,B|100:64|100:64|180:64,1,150.000000596046,0|8,0:0|0:0,0:0:0:0:
256,64,143956,1,0,0:0:0:0:
332,64,144190,2,0,B|412:64|412:64|472:100,1,150.000000596046,0|2,0:0|0:0,0:0:0:0:
472,252,145128,2,0,B|428:252|400:272|400:272|372:252|328:252,1,150.000000596046,0|8,0:0|0:0,0:0:0:0:
184,216,146065,2,0,L|108:200,1,75.000000298023,2|2,0:0|0:0,0:0:0:0:
36,216,146534,6,0,P|60:144|136:128,1,150.000000596046,4|0,0:0|0:0,0:0:0:0:
272,152,147472,2,0,B|312:192|312:192|348:192|348:192|388:232,1,150.000000596046,8|2,0:0|0:0,0:0:0:0:
460,260,148175,1,2,0:0:0:0:
464,336,148409,2,0,P|396:300|388:232,1,150.000000596046,2|0,0:0|0:0,0:0:0:0:
432,172,149112,2,0,P|368:160|312:224,1,150.000000596046
256,356,150050,1,0,0:0:0:0:
256,356,150284,6,0,P|184:328|148:268,1,150.000000596046,4|0,0:0|0:0,0:0:0:0:
136,192,150987,1,0,0:0:0:0:
148,116,151222,2,0,P|186:53|256:27,1,150.000000596046,8|0,0:0|0:0,0:0:0:0:
332,36,151925,1,0,0:0:0:0:
408,40,152159,2,0,P|368:104|296:104,1,150.000000596046,2|0,0:0|0:0,0:0:0:0:
168,36,153097,2,0,P|88:60|68:128,1,150.000000596046,8|2,0:0|0:0,0:0:0:0:
88,188,153800,1,2,0:0:0:0:
56,256,154034,6,0,B|84:296|152:296|184:340,1,150.000000596046,4|0,0:0|0:0,0:0:0:0:
332,336,154972,2,0,B|360:296|428:296|456:256,1,150.000000596046,8|2,0:0|0:0,0:0:0:0:
468,180,155675,1,2,0:0:0:0:
456,104,155909,2,0,P|396:56|328:68,1,150.000000596046,2|0,0:0|0:0,0:0:0:0:
256,44,156612,2,0,P|264:108|336:144,1,150.000000596046
440,252,157550,2,0,L|372:284,1,75.000000298023,0|4,0:0|0:0,0:0:0:0:
236,352,158253,5,0,0:0:0:0:
100,284,158722,1,8,0:0:0:0:
52,144,159190,2,0,L|28:72,2,75.000000298023,0|0|2,0:0|0:0|0:0,0:0:0:0:
100,284,160128,1,0,0:0:0:0:
236,352,160597,1,8,0:0:0:0:
368,284,161065,2,0,L|436:252,1,75.000000298023,2|2,0:0|0:0,0:0:0:0:
496,204,161534,6,0,B|464:164|412:164|392:192|352:204,1,150.000000596046,4|0,0:0|0:0,0:0:0:0:
224,272,162472,2,0,P|204:201|228:132,1,150.000000596046,8|2,0:0|0:0,0:0:0:0:
284,80,163175,1,2,0:0:0:0:
344,32,163409,2,0,P|356:104|292:156,1,150.000000596046,2|0,0:0|0:0,0:0:0:0:
160,188,164347,1,8,0:0:0:0:
60,300,164815,2,0,L|148:316,2,75.000000298023,0|0|4,0:0|0:0|0:0,0:0:0:0:
