osu file format v12

[General]
AudioFilename: INNA - Shining Star.mp3
AudioLeadIn: 0
PreviewTime: 45284
Countdown: 0
SampleSet: Soft
StackLeniency: 0.7
Mode: 0
LetterboxInBreaks: 1
WidescreenStoryboard: 0

[Editor]
DistanceSpacing: 0.8
BeatDivisor: 2
GridSize: 4
TimelineZoom: 1

[Metadata]
Title:Shining Star
TitleUnicode:Shining Star
Artist:Inna
ArtistUnicode:Inna
Creator:deejaydray
Version:Easy
Source:
Tags:party never ends club rocker romania krfawy
BeatmapID:330016
BeatmapSetID:130953

[Difficulty]
HPDrainRate:2
CircleSize:3
OverallDifficulty:2
ApproachRate:3
SliderMultiplier:1.20000000596046
SliderTickRate:1

[Events]
//Background and Video events
0,0,"BG.jpg",0,0
//Break Periods
2,104546,111344
//Storyboard Layer 0 (Background)
//Storyboard Layer 1 (Fail)
//Storyboard Layer 2 (Pass)
//Storyboard Layer 3 (Foreground)
//Storyboard Sound Samples
//Background Colour Transformations
3,100,234,234,234

[TimingPoints]
284.691247662326,468.75,4,2,0,50,1,0
45284,-100,4,2,0,50,0,1
59347,-100,4,2,0,50,0,0
90285,-100,4,2,0,50,0,1
104347,-100,4,2,0,50,0,0
135284,-100,4,2,0,50,0,1
149347,-100,4,2,0,50,0,0

[Colours]
Combo1 : 48,56,58
Combo2 : 150,4,213
Combo3 : 249,164,166
Combo4 : 241,234,95

[HitObjects]
116,204,15284,6,0,P|96:144|120:92,1,120.000000596046,4|2,0:0|0:0,0:0:0:0:
196,152,16222,2,0,P|256:160|324:152,1,120.000000596046,8|2,0:0|0:0,0:0:0:0:
392,96,17159,2,0,P|413:150|393:205,1,120.000000596046,4|2,0:0|0:0,0:0:0:0:
460,276,18097,1,8,0:0:0:0:
396,348,18565,1,2,0:0:0:0:
316,292,19034,6,0,P|256:304|200:292,1,120.000000596046,4|2,0:0|0:0,0:0:0:0:
104,272,19972,2,0,L|64:156,1,120.000000596046,8|2,0:0|0:0,0:0:0:0:
36,68,20909,1,4,0:0:0:0:
212,148,21847,1,8,0:0:0:0:
240,56,22315,1,2,0:0:0:0:
328,96,22784,6,0,B|392:192|392:192|328:320,1,240.000001192092,4|8,0:0|0:0,0:0:0:0:
256,360,24190,1,2,0:0:0:0:
176,304,24659,2,0,B|121:193|121:193|185:97,1,240.000001192092,4|8,0:0|0:0,0:0:0:0:
256,32,26065,1,2,0:0:0:0:
352,32,26534,6,0,P|384:96|384:160,1,120.000000596046,4|2,0:0|0:0,0:0:0:0:
384,240,27472,2,0,P|384:304|320:368,1,120.000000596046,8|2,0:0|0:0,0:0:0:0:
256,352,28409,2,0,B|176:328|96:328|0:352,1,240.000001192092,4|8,0:0|0:0,0:0:0:0:
16,256,29815,1,2,0:0:0:0:
16,160,30284,6,0,L|144:64,1,120.000000596046,6|2,0:0|0:0,0:0:0:0:
208,72,31222,2,0,L|336:72,1,120.000000596046,8|2,0:0|0:0,0:0:0:0:
424,80,32159,2,0,B|448:200|424:320,1,240.000001192092,4|8,0:0|0:0,0:0:0:0:
336,284,33565,1,2,0:0:0:0:
248,320,34034,6,0,L|120:320,1,120.000000596046,6|2,0:0|0:0,0:0:0:0:
32,312,34972,2,0,L|32:184,1,120.000000596046,8|2,0:0|0:0,0:0:0:0:
128,172,35909,2,0,P|180:156|248:156,1,120.000000596046,4|2,0:0|0:0,0:0:0:0:
340,164,36847,1,8,0:0:0:0:
420,220,37315,1,2,0:0:0:0:
480,144,37784,6,0,L|352:48,1,120.000000596046,6|2,0:0|0:0,0:0:0:0:
288,72,38722,2,0,L|160:72,1,120.000000596046,8|2,0:0|0:0,0:0:0:0:
72,80,39659,2,0,B|48:200|72:320,1,240.000001192092,4|8,0:0|0:0,0:0:0:0:
168,320,41065,1,2,0:0:0:0:
264,320,41534,6,0,L|392:320,1,120.000000596046,6|2,0:0|0:0,0:0:0:0:
480,320,42472,2,0,L|480:192,1,120.000000596046,8|2,0:0|0:0,0:0:0:0:
480,104,43409,1,4,0:0:0:0:
32,32,45284,5,8,0:0:0:0:
96,104,45753,2,0,P|156:112|216:104,1,120.000000596046,0|8,0:0|0:0,0:0:0:0:
312,104,46690,1,0,0:0:0:0:
408,104,47159,2,0,B|448:144|448:144|448:208,2,120.000000596046,8|2|8,0:0|0:0|0:0,0:0:0:0:
216,104,49034,2,0,B|156:104|156:104|116:144,2,120.000000596046,8|2|8,0:0|0:0|0:0,0:0:0:0:
408,104,50909,2,0,B|416:164|408:224|408:224|348:232|288:224,1,240.000001192092,8|8,0:0|0:0,0:0:0:0:
44,336,52784,5,8,0:0:0:0:
136,304,53253,2,0,L|256:268,1,120.000000596046,0|8,0:0|0:0,0:0:0:0:
340,236,54190,1,0,0:0:0:0:
428,200,54659,2,0,P|448:92|348:36,1,240.000001192092,8|8,0:0|0:0,0:0:0:0:
164,36,56534,2,0,P|64:89|83:199,1,240.000001192092,8|8,0:0|0:0,0:0:0:0:
256,232,58409,2,0,L|256:352,2,120.000000596046,8|2|8,0:0|0:0|0:0,0:0:0:0:
64,64,60284,5,4,0:0:0:0:
131,131,60753,1,2,0:0:0:0:
198,198,61222,2,0,L|326:198,1,120.000000596046,8|2,0:0|0:0,0:0:0:0:
385,265,62159,2,0,P|441:265|485:221,1,120.000000596046,4|2,0:0|0:0,0:0:0:0:
476,128,63097,1,8,0:0:0:0:
456,36,63565,1,2,0:0:0:0:
360,44,64034,6,0,P|300:56|244:44,1,120.000000596046,4|2,0:0|0:0,0:0:0:0:
144,44,64972,2,0,P|156:104|144:160,1,120.000000596046,8|2,0:0|0:0,0:0:0:0:
48,164,65909,1,4,0:0:0:0:
128,340,66847,2,0,B|188:348|188:348|248:340,1,120.000000596046,8|2,0:0|0:0,0:0:0:0:
328,288,67784,6,0,B|392:192|392:192|328:64,1,240.000001192092,4|8,0:0|0:0,0:0:0:0:
256,24,69190,1,2,0:0:0:0:
176,80,69659,2,0,B|121:191|121:191|185:287,1,240.000001192092,4|8,0:0|0:0,0:0:0:0:
256,352,71065,1,2,0:0:0:0:
352,352,71534,6,0,P|384:288|384:224,1,120.000000596046,4|2,0:0|0:0,0:0:0:0:
384,144,72472,2,0,P|384:80|320:16,1,120.000000596046,8|2,0:0|0:0,0:0:0:0:
256,32,73409,2,0,B|176:56|96:56|0:32,1,240.000001192092,4|8,0:0|0:0,0:0:0:0:
18,132,74815,1,2,0:0:0:0:
18,228,75284,6,0,L|146:324,1,120.000000596046,6|2,0:0|0:0,0:0:0:0:
210,300,76222,2,0,L|338:300,1,120.000000596046,8|2,0:0|0:0,0:0:0:0:
426,300,77159,2,0,B|450:204|450:156|426:44,1,240.000001192092,4|8,0:0|0:0,0:0:0:0:
340,96,78565,1,2,0:0:0:0:
248,64,79034,6,0,L|120:64,1,120.000000596046,6|2,0:0|0:0,0:0:0:0:
31,64,79972,2,0,L|31:192,1,120.000000596046,8|2,0:0|0:0,0:0:0:0:
128,200,80909,2,0,P|184:216|248:216,1,120.000000596046,4|2,0:0|0:0,0:0:0:0:
340,216,81847,1,8,0:0:0:0:
420,160,82315,1,2,0:0:0:0:
480,240,82784,6,0,L|352:336,1,120.000000596046,6|2,0:0|0:0,0:0:0:0:
288,312,83722,2,0,L|160:312,1,120.000000596046,8|2,0:0|0:0,0:0:0:0:
71,312,84659,2,0,B|47:216|47:168|71:56,1,240.000001192092,4|8,0:0|0:0,0:0:0:0:
163,74,86065,1,2,0:0:0:0:
259,74,86534,6,0,L|387:74,1,120.000000596046,6|2,0:0|0:0,0:0:0:0:
475,74,87472,2,0,L|475:202,1,120.000000596046,8|2,0:0|0:0,0:0:0:0:
475,290,88409,1,4,0:0:0:0:
68,288,90284,5,8,0:0:0:0:
156,252,90753,1,0,0:0:0:0:
244,288,91222,1,8,0:0:0:0:
332,252,91690,1,0,0:0:0:0:
420,288,92159,2,0,P|480:192|416:92,1,240.000001192092,8|8,0:0|0:0,0:0:0:0:
228,92,94034,2,0,B|104:92|104:92|20:176,1,240.000001192092,8|8,0:0|0:0,0:0:0:0:
21,366,95909,2,0,B|81:366|81:366|125:322,2,120.000000596046,8|2|8,0:0|0:0|0:0,0:0:0:0:
21,173,97784,5,8,0:0:0:0:
117,173,98253,1,0,0:0:0:0:
184,240,98722,1,8,0:0:0:0:
279,240,99190,1,0,0:0:0:0:
348,308,99659,2,0,B|404:336|404:336|456:308,2,120.000000596046,8|2|8,0:0|0:0|0:0,0:0:0:0:
212,172,101534,2,0,B|161:144|161:144|105:172,2,120.000000596046,8|2|8,0:0|0:0|0:0,0:0:0:0:
347,307,103409,2,0,B|391:263|391:263|391:147|391:147|347:103,1,240.000001192092,8|8,0:0|0:0,0:0:0:0:
256,192,112784,12,8,114659,0:0:0:0:
256,136,115597,6,4,B|272:168|240:232|256:264,1,120.000000596046
256,192,116534,12,8,118409,0:0:0:0:
32,24,120284,6,0,L|32:152,1,120.000000596046,4|2,0:0|0:0,0:0:0:0:
32,240,121222,2,0,L|32:368,1,120.000000596046,8|2,0:0|0:0,0:0:0:0:
128,352,122159,2,0,L|248:340,1,120.000000596046,4|2,0:0|0:0,0:0:0:0:
344,340,123097,2,0,L|472:352,1,120.000000596046,8|2,0:0|0:0,0:0:0:0:
464,256,124034,5,4,0:0:0:0:
464,160,124503,1,2,0:0:0:0:
464,64,124972,1,0,0:0:0:0:
368,64,125440,1,2,0:0:0:0:
272,64,125909,2,0,L|144:64,1,120.000000596046,4|2,0:0|0:0,0:0:0:0:
56,64,126847,1,8,0:0:0:0:
56,160,127315,1,2,0:0:0:0:
56,256,127784,6,0,P|108:280|161:255,1,120.000000596046,4|2,0:0|0:0,0:0:0:0:
204,168,128722,2,0,P|252:144|316:176,1,120.000000596046,8|2,0:0|0:0,0:0:0:0:
352,256,129659,2,0,P|404:280|457:255,1,120.000000596046,4|2,0:0|0:0,0:0:0:0:
504,172,130597,1,8,0:0:0:0:
504,76,131065,1,2,0:0:0:0:
408,60,131534,6,0,P|359:31|304:60,1,120.000000596046,4|2,0:0|0:0,0:0:0:0:
236,124,132472,2,0,P|187:153|132:124,1,120.000000596046,8|2,0:0|0:0,0:0:0:0:
72,56,133409,1,4,0:0:0:0:
32,352,135284,6,0,B|160:288|160:288|288:288,1,240.000001192092,4|8,0:0|0:0,0:0:0:0:
336,344,136690,1,2,0:0:0:0:
416,288,137159,2,0,B|416:192|416:192|352:64,1,240.000001192092,4|8,0:0|0:0,0:0:0:0:
256,64,138565,1,2,0:0:0:0:
160,64,139034,6,0,L|64:160,1,120.000000596046,4|2,0:0|0:0,0:0:0:0:
12,220,139972,2,0,L|12:348,1,120.000000596046,8|2,0:0|0:0,0:0:0:0:
108,340,140909,2,0,L|364:340,1,240.000001192092,4|8,0:0|0:0,0:0:0:0:
416,272,142315,1,2,0:0:0:0:
472,192,142784,6,0,B|344:128|344:128|216:128,1,240.000001192092,4|8,0:0|0:0,0:0:0:0:
152,128,144190,1,2,0:0:0:0:
56,128,144659,2,0,B|56:224|56:224|120:352,1,240.000001192092,4|8,0:0|0:0,0:0:0:0:
216,352,146065,1,2,0:0:0:0:
312,352,146534,6,0,L|396:267,1,120.000000596046,4|2,0:0|0:0,0:0:0:0:
468,200,147472,2,0,L|468:80,1,120.000000596046,8|2,0:0|0:0,0:0:0:0:
372,80,148409,2,0,L|116:80,1,240.000001192092,4|8,0:0|0:0,0:0:0:0:
36,80,149815,1,2,0:0:0:0:
256,192,150284,12,8,153097,0:0:0:0:
304,96,154034,6,2,L|368:96,2,60.000000298023
208,96,154972,1,8,0:0:0:0:
208,288,155909,2,2,L|148:288,2,60.000000298023
304,288,156847,1,8,0:0:0:0:
256,192,157784,12,8,160597,0:0:0:0:
432,152,161534,6,2,L|480:104,2,60.000000298023
344,120,162472,1,8,0:0:0:0:
256,80,162940,1,0,0:0:0:0:
168,120,163409,2,2,L|120:72,2,60.000000298023
80,160,164347,1,8,0:0:0:0:
