osu file format v14

[General]
AudioFilename: Initial Doot - I Need Your Love.mp3
AudioLeadIn: 0
PreviewTime: -1
Countdown: 0
SampleSet: Normal
StackLeniency: 0.7
Mode: 0
LetterboxInBreaks: 1
WidescreenStoryboard: 0

[Editor]
Bookmarks: 11253,17329,26443,27962,32519,44291
DistanceSpacing: 1.2
BeatDivisor: 4
GridSize: 4
TimelineZoom: 1.65

[Metadata]
Title:I Need Your Love
TitleUnicode:I Need Your Love
Artist:Initial Doot
ArtistUnicode:Initial Doot
Creator:przepson
Version:Too spooky
Source:4chan
Tags:doot initial D spooky scary skeletons deja vu
BeatmapID:1180378
BeatmapSetID:557933

[Difficulty]
HPDrainRate:5
CircleSize:6
OverallDifficulty:9
ApproachRate:9
SliderMultiplier:2.6
SliderTickRate:4

[Events]
//Background and Video events
0,0,"maxresdefault.jpg",0,0
//Break Periods
//Storyboard Layer 0 (Background)
//Storyboard Layer 1 (Fail)
//Storyboard Layer 2 (Pass)
//Storyboard Layer 3 (Foreground)
//Storyboard Sound Samples

[TimingPoints]
5177.76185839829,379.746835443038,4,1,0,40,1,0
11253,-83.3333333333333,4,1,0,40,0,0
15810,-83.3333333333333,4,3,0,40,0,0
17329,-83.3333333333333,4,1,0,40,0,0
29481,-83.3333333333333,4,2,0,40,0,0
31380,-83.3333333333333,4,1,0,5,0,0
31570,-83.3333333333333,4,1,0,10,0,0
31760,-83.3333333333333,4,1,0,20,0,0
31949,-83.3333333333333,4,1,0,30,0,0
32139,-83.3333333333333,4,1,0,40,0,0
32329,-83.3333333333333,4,1,0,50,0,0
32519,-71.4285714285714,4,1,0,55,0,1
37076,-71.4285714285714,4,3,0,40,0,1
38595,-71.4285714285714,4,1,0,55,0,1
43152,-71.4285714285714,4,3,0,40,0,1
44291,-71.4285714285714,4,1,0,70,0,0

[HitObjects]
114,68,5177,6,0,P|93:92|96:124,1,65,2|0,0:0|0:0,0:0:0:0:
172,40,5367,1,0,0:0:0:0:
212,36,5462,1,0,0:0:0:0:
248,48,5557,1,0,0:0:0:0:
280,72,5652,1,0,0:0:0:0:
351,177,5747,6,0,P|341:147|324:120,1,65,2|0,0:0|0:0,0:0:0:0:
315,249,5937,2,0,P|305:219|288:192,1,65,2|0,0:0|0:0,0:0:0:0:
336,312,6127,1,0,0:0:0:0:
300,324,6222,1,0,0:0:0:0:
260,324,6317,1,0,0:0:0:0:
224,308,6411,1,0,0:0:0:0:
142,208,6506,6,0,P|155:238|176:264,1,65,2|0,0:0|0:0,0:0:0:0:
204,188,6696,2,0,P|191:158|170:132,1,65,2|0,0:0|0:0,0:0:0:0:
116,96,6886,1,0,0:0:0:0:
80,80,6981,1,0,0:0:0:0:
52,52,7076,1,0,0:0:0:0:
64,88,7171,1,0,0:0:0:0:
60,128,7266,1,8,0:0:0:0:
44,164,7361,1,0,0:0:0:0:
40,204,7456,1,8,0:0:0:0:
44,244,7551,1,0,0:0:0:0:
68,276,7646,1,0,0:0:0:0:
104,292,7741,5,8,0:0:0:0:
104,292,7835,1,0,0:0:0:0:
104,292,7930,1,0,0:0:0:0:
160,260,8025,1,8,0:0:0:0:
160,260,8120,1,0,0:0:0:0:
160,260,8215,5,2,0:0:0:0:
184,228,8310,1,0,0:0:0:0:
224,232,8405,1,0,0:0:0:0:
248,264,8500,1,0,0:0:0:0:
236,300,8595,1,0,0:0:0:0:
260,332,8690,1,0,0:0:0:0:
300,332,8785,6,0,P|328:328|384:292,1,65,2|0,0:0|0:0,0:0:0:0:
462,232,8975,2,0,P|445:258|420:279,1,65,2|0,0:0|0:0,0:0:0:0:
488,172,9165,1,0,0:0:0:0:
496,132,9260,1,0,0:0:0:0:
480,96,9354,1,0,0:0:0:0:
440,92,9449,1,0,0:0:0:0:
320,49,9544,6,0,L|376:84,1,65,2|0,0:0|0:0,0:0:0:0:
247,157,9734,2,0,L|284:104,1,65,2|0,0:0|0:0,0:0:0:0:
216,216,9924,1,0,0:0:0:0:
176,224,10019,1,0,0:0:0:0:
140,232,10114,1,0,0:0:0:0:
104,240,10209,1,0,0:0:0:0:
84,176,10304,5,2,0:0:0:0:
120,168,10399,1,0,0:0:0:0:
64,112,10494,1,2,0:0:0:0:
100,104,10589,1,0,0:0:0:0:
84,176,10684,5,0,0:0:0:0:
64,208,10779,1,2,0:0:0:0:
64,248,10873,1,0,0:0:0:0:
72,280,10968,1,0,0:0:0:0:
88,300,11063,1,2,0:0:0:0:
104,312,11158,1,0,0:0:0:0:
148,328,11253,5,8,0:0:0:0:
192,340,11348,1,0,0:0:0:0:
240,340,11443,1,0,0:0:0:0:
288,332,11538,1,0,0:0:0:0:
256,296,11633,1,8,0:0:0:0:
228,256,11728,1,0,0:0:0:0:
200,216,11823,6,0,L|156:152,1,77.999997619629,8|0,0:0|0:0,0:0:0:0:
269,175,12013,2,0,L|224:112,1,77.999997619629,8|0,0:0|0:0,0:0:0:0:
224,112,12203,1,2,0:0:0:0:
188,180,12298,1,0,0:0:0:0:
112,118,12392,6,2,L|164:60,1,77.999997619629,10|2,0:0|0:0,0:0:0:0:
236,28,12582,1,0,0:0:0:0:
284,20,12677,1,0,0:0:0:0:
292,96,12772,1,8,0:0:0:0:
292,96,12867,1,0,0:0:0:0:
292,96,12962,1,8,0:0:0:0:
292,96,13057,1,0,0:0:0:0:
324,132,13152,1,0,0:0:0:0:
324,180,13247,1,8,0:0:0:0:
242,295,13342,6,0,P|279:281|308:256,1,77.999997619629
105,227,13532,2,0,P|130:257|164:276,1,77.999997619629,8|0,0:0|0:0,0:0:0:0:
76,152,13722,1,0,0:0:0:0:
171,51,13817,2,0,P|133:55|104:80,1,77.999997619629,8|0,0:0|0:0,0:0:0:0:
76,152,14006,1,0,0:0:0:0:
172,255,14101,2,0,P|134:251|105:227,1,77.999997619629,8|0,0:0|0:0,0:0:0:0:
68,340,14291,5,8,0:0:0:0:
120,328,14386,1,0,0:0:0:0:
176,332,14481,1,0,0:0:0:0:
232,332,14576,1,0,0:0:0:0:
284,320,14671,1,8,0:0:0:0:
332,296,14766,1,0,0:0:0:0:
376,264,14861,6,0,P|396:248|424:192,1,77.999997619629,8|0,0:0|0:0,0:0:0:0:
277,133,15051,2,0,P|312:149|336:180,1,77.999997619629,8|0,0:0|0:0,0:0:0:0:
272,240,15241,1,0,0:0:0:0:
160,208,15335,1,0,0:0:0:0:
148,124,15430,1,8,0:0:0:0:
100,196,15525,1,0,0:0:0:0:
88,112,15620,1,0,0:0:0:0:
40,184,15715,1,0,0:0:0:0:
160,296,15810,5,0,0:0:0:0:
160,296,16000,1,4,0:0:0:0:
328,236,16190,1,0,0:0:0:0:
328,188,16285,1,0,0:0:0:0:
328,236,16380,1,0,0:0:0:0:
160,156,16570,5,0,0:0:0:0:
316,48,16760,1,4,0:0:0:0:
348,92,16854,1,4,0:0:0:0:
364,144,16949,1,4,0:0:0:0:
324,28,17139,1,4,0:0:0:0:
388,72,17234,1,4,0:0:0:0:
416,144,17329,5,6,0:0:0:0:
416,144,17424,1,2,0:0:0:0:
416,144,17519,1,0,0:0:0:0:
416,144,17614,1,0,0:0:0:0:
416,144,17709,1,0,0:0:0:0:
416,144,17804,1,0,0:0:0:0:
416,144,17899,6,2,P|432:176|412:232,1,77.999997619629
384,252,18089,1,0,0:0:0:0:
332,268,18184,1,0,0:0:0:0:
280,256,18279,1,0,0:0:0:0:
248,212,18373,1,0,0:0:0:0:
240,160,18468,1,0,0:0:0:0:
220,108,18563,1,0,0:0:0:0:
176,76,18658,1,0,0:0:0:0:
120,76,18753,1,0,0:0:0:0:
72,104,18848,6,2,P|52:120|28:192,1,77.999997619629
20,220,19038,1,0,0:0:0:0:
32,272,19133,1,0,0:0:0:0:
76,308,19228,1,0,0:0:0:0:
52,260,19323,1,0,0:0:0:0:
40,208,19418,6,2,P|32:184|52:120,2,77.999997619629,0|0|0,0:0|0:0|0:0,0:0:0:0:
68,256,19703,1,0,0:0:0:0:
116,280,19798,1,0,0:0:0:0:
168,284,19892,1,0,0:0:0:0:
212,252,19987,1,0,0:0:0:0:
160,232,20082,1,0,0:0:0:0:
152,284,20177,1,0,0:0:0:0:
152,284,20272,1,0,0:0:0:0:
152,284,20367,1,0,0:0:0:0:
188,324,20462,1,0,0:0:0:0:
240,336,20557,1,0,0:0:0:0:
292,320,20652,1,0,0:0:0:0:
356,272,20747,5,4,0:0:0:0:
372,220,20842,1,0,0:0:0:0:
324,192,20937,1,0,0:0:0:0:
320,248,21032,1,0,0:0:0:0:
376,248,21127,1,0,0:0:0:0:
392,196,21222,1,0,0:0:0:0:
364,148,21317,1,0,0:0:0:0:
316,120,21411,1,0,0:0:0:0:
244,88,21506,5,4,0:0:0:0:
192,72,21601,1,0,0:0:0:0:
140,92,21696,1,0,0:0:0:0:
112,140,21791,1,0,0:0:0:0:
96,88,21886,1,0,0:0:0:0:
40,88,21981,1,0,0:0:0:0:
16,136,22076,1,0,0:0:0:0:
40,184,22171,1,0,0:0:0:0:
96,188,22266,1,2,0:0:0:0:
136,224,22361,1,0,0:0:0:0:
136,280,22456,1,0,0:0:0:0:
136,336,22551,1,0,0:0:0:0:
192,280,22646,5,6,0:0:0:0:
232,240,22741,1,0,0:0:0:0:
276,272,22835,1,0,0:0:0:0:
300,320,22930,1,0,0:0:0:0:
356,320,23025,1,0,0:0:0:0:
384,272,23120,1,0,0:0:0:0:
372,220,23215,1,0,0:0:0:0:
320,204,23310,1,0,0:0:0:0:
324,112,23405,6,2,P|316:108|224:156,1,77.999997619629
250,115,23595,1,0,0:0:0:0:
250,115,23690,1,0,0:0:0:0:
250,115,23785,1,0,0:0:0:0:
250,115,23880,1,0,0:0:0:0:
176,56,23975,6,2,P|144:92|160:168,1,77.999997619629
148,176,24165,1,0,0:0:0:0:
180,220,24260,1,0,0:0:0:0:
148,176,24354,1,0,0:0:0:0:
180,220,24449,1,0,0:0:0:0:
224,256,24544,1,0,0:0:0:0:
280,264,24639,1,0,0:0:0:0:
332,252,24734,1,0,0:0:0:0:
292,216,24829,1,0,0:0:0:0:
332,252,24924,6,2,P|364:280|320:308,1,77.999997619629
300,328,25114,1,0,0:0:0:0:
248,316,25209,1,0,0:0:0:0:
236,264,25304,1,0,0:0:0:0:
256,212,25399,1,0,0:0:0:0:
236,264,25494,6,2,P|200:296|116:300,1,77.999997619629
120,320,25684,1,0,0:0:0:0:
76,288,25779,1,0,0:0:0:0:
96,236,25873,1,0,0:0:0:0:
56,200,25968,1,0,0:0:0:0:
84,152,26063,1,0,0:0:0:0:
44,112,26158,1,0,0:0:0:0:
80,72,26253,1,0,0:0:0:0:
44,32,26348,1,0,0:0:0:0:
188,96,26443,6,2,L|160:16,1,77.999997619629
456,216,26823,2,0,B|444:164|384:216|384:216|312:208|344:116,1,155.999995239258,8|8,0:0|0:0,0:0:0:0:
196,20,27392,2,0,B|124:68|64:124|64:144|68:152|80:176|108:180|264:144,1,311.999990478516,0|8,0:0|0:0,0:0:0:0:
200,157,27867,1,2,0:0:0:0:
200,157,27962,5,8,0:0:0:0:
396,64,28342,1,8,0:0:0:0:
104,300,28722,1,12,0:0:0:0:
488,32,29101,1,12,0:0:0:0:
44,352,29481,6,4,L|8:368,1,38.9999988098145
180,120,30051,2,4,L|188:80,1,38.9999988098145
348,152,30241,2,4,L|392:152,1,38.9999988098145
352,324,30430,2,4,L|392:324,1,38.9999988098145
136,272,30810,2,4,L|96:284,1,38.9999988098145
256,336,31190,2,4,L|256:376,1,38.9999988098145
412,296,31380,5,8,0:0:0:0:
424,288,31475,1,0,0:0:0:0:
440,272,31570,1,8,0:0:0:0:
448,252,31665,1,0,0:0:0:0:
452,220,31760,1,8,0:0:0:0:
440,192,31854,1,0,0:0:0:0:
412,164,31949,1,8,0:0:0:0:
376,148,32044,1,0,0:0:0:0:
328,152,32139,1,8,0:0:0:0:
304,112,32234,1,0,0:0:0:0:
264,76,32329,1,8,0:0:0:0:
216,52,32424,1,0,0:0:0:0:
152,44,32519,5,10,0:0:0:0:
100,80,32614,1,0,0:0:0:0:
72,136,32709,1,8,0:0:0:0:
64,200,32804,1,0,0:0:0:0:
92,256,32899,1,10,0:0:0:0:
264,120,33089,5,0,0:0:0:0:
180,52,33184,1,2,0:0:0:0:
360,172,33373,1,0,0:0:0:0:
444,104,33468,1,2,0:0:0:0:
440,324,33658,2,2,P|360:336|224:328,1,181.999994445801
360,40,34038,5,10,0:0:0:0:
348,104,34133,1,0,0:0:0:0:
300,60,34228,1,8,0:0:0:0:
360,40,34323,1,0,0:0:0:0:
348,104,34418,1,10,0:0:0:0:
84,176,34608,6,0,L|204:128,1,90.9999972229005,0|2,0:0|0:0,0:0:0:0:
168,142,34892,1,0,0:0:0:0:
168,142,34987,1,2,0:0:0:0:
224,228,35177,1,4,0:0:0:0:
492,16,35367,1,4,0:0:0:0:
416,280,35557,5,10,0:0:0:0:
352,292,35652,1,0,0:0:0:0:
288,304,35747,1,8,0:0:0:0:
224,316,35842,1,0,0:0:0:0:
160,324,35937,1,10,0:0:0:0:
64,68,36127,5,0,0:0:0:0:
108,168,36222,1,2,0:0:0:0:
108,168,36411,1,0,0:0:0:0:
64,68,36506,1,2,0:0:0:0:
336,40,36696,2,2,B|384:64|384:64|312:92|312:92|392:148,1,181.999994445801
376,340,37076,5,4,0:0:0:0:
309,323,37170,1,0,0:0:0:0:
243,306,37265,1,4,0:0:0:0:
216,279,37360,1,0,0:0:0:0:
263,230,37455,1,8,0:0:0:0:
311,181,37550,1,0,0:0:0:0:
287,180,37645,1,8,0:0:0:0:
223,206,37740,1,0,0:0:0:0:
160,231,37835,1,4,0:0:0:0:
227,240,37930,1,0,0:0:0:0:
294,249,38025,1,4,0:0:0:0:
326,237,38120,1,0,0:0:0:0:
286,182,38215,1,8,0:0:0:0:
246,127,38310,1,0,0:0:0:0:
191,124,38405,1,8,0:0:0:0:
127,150,38500,1,0,0:0:0:0:
64,175,38594,5,10,0:0:0:0:
52,248,38690,1,0,0:0:0:0:
64,175,38785,1,8,0:0:0:0:
52,248,38880,1,0,0:0:0:0:
64,175,38975,1,10,0:0:0:0:
336,68,39165,6,0,P|364:44|448:32,1,90.9999972229005,0|2,0:0|0:0,0:0:0:0:
402,173,39449,2,0,P|438:179|501:236,1,90.9999972229005,0|2,0:0|0:0,0:0:0:0:
336,68,39734,1,10,0:0:0:0:
400,172,39924,1,10,0:0:0:0:
304,324,40114,5,10,0:0:0:0:
304,324,40209,1,0,0:0:0:0:
200,288,40304,1,8,0:0:0:0:
200,288,40399,1,0,0:0:0:0:
120,212,40494,1,10,0:0:0:0:
396,120,40684,6,0,P|416:112|392:136,1,90.9999972229005,0|2,0:0|0:0,0:0:0:0:
140,268,40968,1,0,0:0:0:0:
140,268,41063,1,10,0:0:0:0:
12,8,41253,2,2,B|148:60|148:60|248:24,1,181.999994445801,10|2,0:0|0:0,0:0:0:0:
404,240,41633,5,10,0:0:0:0:
334,217,41728,1,0,0:0:0:0:
334,144,41823,1,8,0:0:0:0:
404,122,41918,1,0,0:0:0:0:
446,181,42013,1,10,0:0:0:0:
176,288,42203,6,0,L|144:384,1,90.9999972229005,0|10,0:0|0:0,0:0:0:0:
131,192,42487,2,0,L|36:229,1,90.9999972229005,0|10,0:0|0:0,0:0:0:0:
148,376,42772,1,10,0:0:0:0:
48,224,42962,1,10,0:0:0:0:
284,52,43152,5,4,0:0:0:0:
352,80,43247,1,4,0:0:0:0:
360,152,43342,1,8,0:0:0:0:
428,124,43437,1,8,0:0:0:0:
460,192,43532,1,4,0:0:0:0:
392,220,43627,1,4,0:0:0:0:
432,280,43722,1,8,0:0:0:0:
372,324,43817,1,8,0:0:0:0:
312,284,43911,1,4,0:0:0:0:
264,340,44006,1,4,0:0:0:0:
192,320,44101,1,8,0:0:0:0:
184,248,44196,1,8,0:0:0:0:
220,144,44291,5,2,0:0:0:0:
